<svg xmlns="http://www.w3.org/2000/svg" xmlns:xlink="http://www.w3.org/1999/xlink" version="1.1">
<metadata>
Created by FontForge 20201107 at Wed Aug  4 12:24:17 2021
 By Robert Madole
Copyright (c) Font Awesome
</metadata>
<!-- Font Awesome Pro 5.15.4 by @fontawesome - https://fontawesome.com License - https://fontawesome.com/license (Commercial License) --><defs>
<font id="FontAwesome5Pro-Light" horiz-adv-x="512">
  <font-face font-family="Font Awesome 5 Pro Light" font-weight="300" font-stretch="normal" units-per-em="512" panose-1="2 0 3 3 0 0 0 0 0 0" ascent="448" descent="-64" bbox="-1.00472 -66.9873 672 449.978" underline-thickness="25" underline-position="-50" unicode-range="U+0020-F8FF"/>
    <missing-glyph/>
    <glyph glyph-name="caravan-alt" unicode="" horiz-adv-x="640" d="M432 352c17.6611 0 32 -14.3389 32 -32v-64c0 -17.6611 -14.3389 -32 -32 -32h-64c-17.6611 0 -32 14.3389 -32 32v64c0 17.6611 14.3389 32 32 32h64zM432 256v64h-64v-64h64zM632 96c4.41504 0 8 -3.58496 8 -8v-16c0 -4.41504 -3.58496 -8 -8 -8h-344 c0 -52.9834 -43.0166 -96 -96 -96s-96 43.0166 -96 96c-52.9834 0 -96 43.0166 -96 96v192c0 52.9834 43.0166 96 96 96h320c88.3066 0 160 -71.6934 160 -160v-192h56zM192 0c35.3047 0.0380859 63.9619 28.6953 64 64c0 35.3223 -28.6777 64 -64 64s-64 -28.6777 -64 -64 s28.6777 -64 64 -64zM544 96v192c-0.0771484 70.6094 -57.3906 127.923 -128 128h-320c-35.3047 -0.0380859 -63.9619 -28.6953 -64 -64v-192c0.0380859 -35.3047 28.6953 -63.9619 64 -64h5.87988c13.2197 37.2002 48.3799 64 90.1201 64s76.9004 -26.7998 90.1201 -64 h261.88zM240 352c17.6611 0 32 -14.3389 32 -32v-64c0 -17.6611 -14.3389 -32 -32 -32h-128c-17.6611 0 -32 14.3389 -32 32v64c0 17.6611 14.3389 32 32 32h128zM240 256v64h-128v-64h128z"/>
    <glyph glyph-name="cat-space" unicode="" horiz-adv-x="640" d="M512 272c-8.82617 0 -16 7.16504 -16 15.9902v0.00976562c0 8.83105 7.16895 16 16 16s16 -7.16895 16 -16s-7.16895 -16 -16 -16zM576 415.275c38.6484 -29.207 64 -75.0996 64 -127.275c-0.0107422 -77.3047 -55.0693 -141.875 -128 -156.775v-163.225 c-0.0175781 -17.6533 -14.3467 -31.9824 -32 -32h-32c-17.6533 0.0175781 -31.9824 14.3467 -32 32v103.375l-89.375 -39.7188c32.1621 -3.39062 57.3311 -30.6123 57.375 -63.6562c-0.0175781 -17.6533 -14.3467 -31.9824 -32 -32h-208 c-44.1318 0.0458984 -79.9541 35.8682 -80 80v256c-0.0292969 26.4785 -21.5215 47.9707 -48 48c-8.83105 0 -16 7.16895 -16 16s7.16895 16 16 16c44.1318 -0.0458984 79.9541 -35.8682 80 -80v-128.266c43.4824 81.2021 127.028 137.545 224.111 143.152 c-0.00195312 0.380859 -0.111328 0.732422 -0.111328 1.11328c0 52.1758 25.3516 98.0684 64 127.275v0.724609l0.460938 -0.345703c26.7246 20.041 59.5645 32.3457 95.5391 32.3457s68.8145 -12.3047 95.5391 -32.3457l0.460938 0.345703v-0.724609zM480 416 c-25.2979 -0.0478516 -49.0049 -7.58887 -68.7891 -20.4082l36.7891 -27.5918h64l36.7891 27.5918c-19.7842 12.8193 -43.4912 20.3604 -68.7891 20.4082zM544 352l-21.334 -16h-85.332l-21.334 16v-64c0 -35.3223 28.6777 -64 64 -64s64 28.6777 64 64v64zM480 -32v160 c-77.0732 0.015625 -141.484 54.75 -156.627 127.359c-126.059 -6.60547 -226.732 -110.613 -227.369 -238.141c-0.134766 -26.9453 21.0508 -49.2188 47.9961 -49.2188h208c-0.0175781 17.6533 -14.3467 31.9824 -32 32h-48v46.0938 c0 26.2812 -20 55.0312 -44.6562 64.1562c-3.24219 1.08105 -5.58008 4.13574 -5.58008 7.73926c0 0.626953 0.0712891 1.2373 0.205078 1.82324l3.875 15.5625c0.836914 3.50488 3.99121 6.11621 7.75098 6.11621c0.81543 0 1.60156 -0.123047 2.34277 -0.350586 c36.3877 -12.4375 63.3408 -45.333 67.25 -84.8906l122.312 54.373c1.9834 0.881836 4.19141 1.37988 6.50098 1.37988c8.83008 0 15.999 -7.16895 15.999 -15.999v-128.004h32zM480 160c70.6084 0.0791016 127.921 57.3916 128 128c0 32.1699 -12.334 61.2539 -32 83.7637 v-83.7637c0 -52.9834 -43.0166 -96 -96 -96s-96 43.0166 -96 96v83.7637c-19.666 -22.5098 -32 -51.5938 -32 -83.7637c0.0791016 -70.6084 57.3916 -127.921 128 -128zM432 288c0 8.82617 7.16504 16 15.9902 16h0.00976562c8.83105 0 16 -7.16895 16 -16 s-7.16895 -16 -16 -16s-16 7.16895 -16 16zM162.945 379.23c-1.74902 0.875977 -2.9502 2.67969 -2.9502 4.76758s1.20117 3.89746 2.9502 4.77344l39.7109 16.5586l16.5625 39.7129c0.871094 1.75488 2.67578 2.96191 4.7666 2.96191s3.90137 -1.20703 4.77246 -2.96191 l16.5586 -39.7129l39.7148 -16.5586c1.74902 -0.875977 2.9502 -2.67969 2.9502 -4.76758s-1.20117 -3.89746 -2.9502 -4.77344l-39.7148 -16.5605l-16.5586 -39.7109c-0.870117 -1.75586 -2.67578 -2.96387 -4.7666 -2.96387s-3.90234 1.20801 -4.77246 2.96387 l-16.5625 39.7109z"/>
    <glyph glyph-name="coffee-pot" unicode="" d="M431.45 270.35c49.9199 -40.1797 80.5498 -100.72 80.5498 -167.029c-0.0195312 -51.4805 -18.71 -84.7705 -49.71 -117.721c-10.3936 -10.8525 -25.0225 -17.5996 -41.2207 -17.5996h-0.229492h-265.67c-0.0664062 0 -0.129883 -0.0146484 -0.196289 -0.0146484 c-16.2471 0 -30.9199 6.79004 -41.334 17.6846c-31.0195 32.9404 -49.6396 66.2402 -49.6396 117.71c0 66.9297 31.4102 126.72 80.7197 166.46l-6.0498 18.1602v0l-32 96h-26.6699c-26.4922 0 -48 -21.5078 -48 -48v-104c0 -4.41504 -3.58496 -8 -8 -8h-16 c-4.41504 0 -8 3.58496 -8 8v104c0 44.1533 35.8467 80 80 80h400l-42.6699 -128v0zM140.4 384l32 -96h231.199l32 96h-295.199zM178.55 256c-20.3398 -16.3896 -55.0498 -42 -73.1602 -96h365.36c-17.8203 53.9199 -51.5 79.0801 -72.5 96h-219.7zM439 7.5498 c29.8799 31.7002 41 57.6602 41 95.7803c-0.0595703 8.4248 -0.691406 16.5557 -1.87012 24.6699h-380.229c-1.19336 -8.09375 -1.83594 -16.2119 -1.90039 -24.6201c0 -38.1299 11.0996 -64.0898 40.9404 -95.7598c4.5459 -4.70215 10.916 -7.62109 17.9668 -7.62109 c0.0878906 0 0.174805 0 0.262695 0.000976562h265.67c0.0986328 -0.000976562 0.193359 -0.00683594 0.291016 -0.00683594c7.00586 0 13.3398 2.89648 17.8691 7.55664z"/>
    <glyph glyph-name="comet" unicode="" d="M236.91 191.975l69.8652 -10.1973c7.41211 -1.08398 13.1289 -7.47656 13.1289 -15.1875c0 -4.28613 -1.76074 -8.16406 -4.59766 -10.9492l-50.5938 -49.334l11.9277 -69.7285c0.15332 -0.868164 0.217773 -1.73828 0.217773 -2.64941 c0 -8.4248 -6.84082 -15.2656 -15.2656 -15.2656c-2.58301 0 -5.01758 0.643555 -7.15137 1.77832l-62.5312 32.9277l-62.5312 -32.9277c-2.1123 -1.14648 -4.5459 -1.80957 -7.11328 -1.81641c-8.45312 0.0361328 -15.3047 6.89551 -15.3047 15.3564 c0 0.884766 0.0742188 1.75195 0.21875 2.59668l12 69.7285l-50.6035 49.334c-2.86426 2.7832 -4.62598 6.67676 -4.62598 10.9824c0 7.69824 5.69238 14.0771 13.0947 15.1543l69.8652 10.1973l31.2715 63.4678c2.49121 5.07227 7.69238 8.56543 13.7197 8.56543 s11.2451 -3.49316 13.7373 -8.56543zM242.373 129.217l26.4219 25.7656l-36.5059 5.32812l-16.6484 2.42969l-7.43555 15.0918l-16.2949 33.0723l-16.2949 -33.0723l-7.43555 -15.0918l-16.6484 -2.42969l-36.4473 -5.32031l26.4336 -25.7695l12.0527 -11.752 l-2.85352 -16.5898l-6.25391 -36.3281l32.5371 17.1328l14.9102 7.85156l14.9102 -7.85156l32.5742 -17.1523l-6.22266 36.3809l-2.83594 16.5703zM504.754 440.769c4.48145 -4.48242 7.24805 -10.6738 7.24805 -17.5068c0 -2.45996 -0.360352 -4.83691 -1.0293 -7.08105 c-9.8125 -32.3984 -33.8125 -109.178 -58.8145 -167.364c2.90625 -0.890625 5.5 -1.70312 7.90625 -2.39062c8.86914 -2.69727 16.0488 -9.23535 19.5957 -17.6992c1.50781 -3.6709 2.33496 -7.74219 2.33496 -11.9541c0 -5.20801 -1.27246 -10.1221 -3.52246 -14.4463 c-22.5957 -43.1914 -81.2207 -149.963 -139.504 -208.246c-35.9854 -35.8984 -85.6904 -58.1064 -140.485 -58.1064c-54.7939 0 -104.442 22.208 -140.427 58.1064c-77.4092 77.3867 -77.4092 203.451 0 280.837c58.3125 58.2832 165.098 116.973 208.316 139.467 c4.28906 2.30078 9.24316 3.61035 14.4463 3.61035c4.23242 0 8.26367 -0.863281 11.9287 -2.42285c8.4668 -3.54785 15.0098 -10.7227 17.7207 -19.5898c0.6875 -2.4043 1.59375 -4.99805 2.40625 -7.9043c58.5 25.3066 135.096 49.0977 167.379 58.8926 c2.2373 0.668945 4.60938 1.03711 7.0625 1.03711c6.80859 0 12.9756 -2.76758 17.4375 -7.23828zM415.471 245.52c23.9062 50.9873 48.2812 126.171 60.5957 166.552c-40.4082 -12.3867 -115.316 -36.584 -166.691 -60.6719l-16.9082 -7.9043l-5.21875 17.9961 c-2.78125 9.69922 -5.375 18.4004 -7.375 24.9922c-40.625 -22.291 -144.127 -79.0742 -199.223 -134.169c-64.9082 -64.875 -64.9082 -170.553 0 -235.537s170.723 -64.8906 235.6 0c55.125 55.0801 111.908 158.557 133.721 200.451 c-6 0.796875 -14.7188 3.39062 -24.4062 6.20312l-18 5.18555z"/>
    <glyph glyph-name="fan-table" unicode="" horiz-adv-x="448" d="M224 238.58c8.04688 0 14.5801 -6.5332 14.5801 -14.5801s-6.5332 -14.5801 -14.5801 -14.5801s-14.5801 6.5332 -14.5801 14.5801s6.5332 14.5801 14.5801 14.5801zM448 224c0 -118.31 -91.79 -215 -208 -223.19v-32.8096h120c13.2461 0 24 -10.7539 24 -24 c0 -4.41504 -3.58496 -8 -8 -8h-304c-4.41504 0 -8 3.58496 -8 8c0 13.2461 10.7539 24 24 24h120v32.8096c-116.21 8.19043 -208 104.881 -208 223.19c0 123.71 100.29 224 224 224s224 -100.29 224 -224zM224 34.46c104.51 0 189.54 85 189.54 189.54 s-85.0303 189.54 -189.54 189.54s-189.54 -85 -189.54 -189.54s85.0303 -189.54 189.54 -189.54zM383.21 204.67c0 -26.6104 -24.3799 -42 -45.4004 -38.5c-27.5693 4.59961 -46.7793 7.83008 -59.1299 9.83008c-1.68457 -13.3105 -6.07324 -26.0137 -12.4893 -37.1504 c-21.6602 -37.5293 -59.3906 -50.8994 -88.2705 -50.8994v0c-18.3955 0.0253906 -35.7617 5.01758 -50.6396 13.6094c-11.7158 6.73145 -19.5576 19.3721 -19.5576 33.8408c0 9.39258 3.32715 18.0146 8.86719 24.75l38.1006 46.2793 c-10.5283 8.02246 -19.2734 17.9355 -25.9307 29.4502c-8.62793 14.9463 -13.7412 32.3301 -13.7412 50.8135c0 37.6748 20.5186 70.5957 50.9814 88.1865c21.8896 12.6504 48 1.25 56 -20.1104l20.9297 -55.9492c11.8877 4.87695 24.9648 7.61328 38.6006 7.61328 c56.1182 0 101.68 -45.5615 101.68 -101.681v-0.0830078zM343.56 197.73c5.07031 0 7.65039 3.26953 7.64062 6.91992c0 0.0253906 -0.0732422 0.00585938 -0.0732422 0.03125c0 38.4521 -31.2178 69.6699 -69.6699 69.6699c-13.6982 0 -26.4795 -3.96191 -37.2568 -10.8018 c-2.68652 -1.79004 -5.92188 -2.85254 -9.38867 -2.85254c-7.2041 0 -13.3643 4.50684 -15.8115 10.8525l-27 72c-0.984375 2.67578 -3.56152 4.5791 -6.57715 4.5791c-1.27539 0 -2.47266 -0.341797 -3.50293 -0.938477 c-20.8809 -12.0576 -34.8262 -34.6533 -34.8262 -60.4775c0 -12.667 3.38379 -24.5498 9.2959 -34.793c6.59766 -11.3633 16.2646 -20.541 28 -26.54c8.60059 -4.43945 13.6504 -16.5596 5.83008 -26.0596l-49 -59.4805 c-0.987305 -1.20703 -1.58887 -2.74902 -1.58887 -4.42773c0 -2.58887 1.40723 -4.85059 3.49902 -6.0625c10.2432 -5.9375 22.2002 -9.38184 34.8809 -9.38184c0.200195 0 0.399414 0.000976562 0.599609 0.00195312c5.70996 0 40.3193 1.14062 59.8096 34.9004 c5.74805 10.001 9.08008 21.6162 9.08008 33.9697c0 1.11621 -0.0273438 2.22656 -0.0800781 3.33008c-0.429688 9.87988 7 18.4697 17 18.4697h0.19043c2.09961 0 77.3301 -12.9092 78.9492 -12.9092z"/>
    <glyph glyph-name="faucet" unicode="" d="M368 208c79.4004 0 144 -64.5996 144 -144v-32c0 -17.6611 -14.3389 -32 -32 -32h-96c-17.6611 0 -32 14.3389 -32 32v16h-44.29c-23.3809 -29.3027 -59.2959 -48.0928 -99.6621 -48.0928c-40.3652 0 -76.377 18.79 -99.7578 48.0928h-100.29c-4.41504 0 -8 3.58496 -8 8 v16c0 4.41504 3.58496 8 8 8h117.31c16.6904 -28.5703 47.25 -48 82.6904 -48s66.0498 19.4297 82.6904 48h77.3096c8.83105 0 16 -7.16895 16 -16v-32h96v32c-0.0771484 61.7783 -50.2217 111.923 -112 112h-77.3096c-16.6406 28.5703 -47.25 48 -82.6904 48 s-66 -19.4297 -82.6904 -48h-117.31c-4.41504 0 -8 3.58496 -8 8v16c0 4.41504 3.58496 8 8 8h100.29c20.2354 25.2676 49.9775 42.583 83.71 46.7695v14.4805l16 1.69043l16 -1.69043v-14.4805c33.7324 -4.18652 63.4746 -21.502 83.71 -46.7695h60.29zM65.5898 288.09 c-9.41992 -1 -17.5898 6.81055 -17.5898 16.7998v30.2207c0 9.98926 8.16992 17.7998 17.5898 16.7998l126.41 -13.3398v37.4297c0 4.41504 3.58496 8 8 8h16c4.41504 0 8 -3.58496 8 -8v-37.4297l126.41 13.3398c9.41992 1 17.5898 -6.7998 17.5898 -16.7998v-30.2207 c0 -9.98926 -8.16992 -17.7998 -17.5898 -16.7998l-142.41 15z"/>
    <glyph glyph-name="faucet-drip" unicode="" d="M65.5898 352.09c-9.41992 -1 -17.5898 6.81055 -17.5898 16.7998v30.2207c0 9.98926 8.16992 17.7998 17.5898 16.7998l126.41 -13.3398v37.4297c0 4.41504 3.58496 8 8 8h16c4.41504 0 8 -3.58496 8 -8v-37.4297l126.41 13.3398 c9.41992 1 17.5898 -6.7998 17.5898 -16.7998v-30.1904c0 -9.99023 -8.16992 -17.7998 -17.5898 -16.7998l-142.41 15zM368 272c79.4004 0 144 -64.5996 144 -144v-32c0 -17.6611 -14.3389 -32 -32 -32h-96c-17.6611 0 -32 14.3389 -32 32v16h-44.29 c-23.3809 -29.3027 -59.2959 -48.0928 -99.6621 -48.0928c-40.3652 0 -76.377 18.79 -99.7578 48.0928h-100.29c-4.41504 0 -8 3.58496 -8 8v16c0 4.41504 3.58496 8 8 8h117.31c16.6904 -28.5703 47.25 -48 82.6904 -48s66.0498 19.4297 82.6904 48h77.3096 c8.83105 0 16 -7.16895 16 -16v-32h96v32c-0.0771484 61.7783 -50.2217 111.923 -112 112h-77.3096c-16.6406 28.5703 -47.25 48 -82.6904 48s-66 -19.4297 -82.6904 -48h-117.31c-4.41504 0 -8 3.58496 -8 8v16c0 4.41504 3.58496 8 8 8h100.29 c20.2354 25.2676 49.9775 42.583 83.71 46.7695v14.4805l16 1.69043l16 -1.69043v-14.4805c33.7324 -4.18652 63.4746 -21.502 83.71 -46.7695h60.29zM400 -32c0 17.6699 32 64 32 64s32 -46.3301 32 -64c0 -17.6611 -14.3389 -32 -32 -32s-32 14.3389 -32 32z"/>
    <glyph glyph-name="galaxy" unicode="" d="M256 255.991c35.3027 -0.0400391 63.958 -28.6953 63.998 -63.998c0 -35.3213 -28.6768 -63.998 -63.998 -63.998s-63.998 28.6768 -63.998 63.998s28.6758 63.998 63.998 63.998zM256 159.994c17.6602 0 31.999 14.3389 31.999 31.999 c0 17.6611 -14.3389 31.999 -31.999 31.999c-17.6611 0 -31.999 -14.3379 -31.999 -31.999s14.3379 -31.999 31.999 -31.999zM506.463 181.087c3.60352 -15.0869 5.53125 -30.5205 5.53125 -46.7051c0 -6.81641 -0.338867 -13.5547 -1 -20.1992 c-3.75586 -37.6533 -55.376 -45.6826 -70.2793 -10.7188c-9.34473 21.6377 -25.4922 39.4277 -45.9365 50.8271c0.733398 -7.00195 1.10059 -13.7471 1.10059 -20.9424c0 -13.667 -1.35742 -27.0205 -3.94434 -39.9307 c-14.6875 -73.5449 -73.6865 -134.575 -146.81 -151.871c-15.165 -3.59375 -30.873 -5.52051 -47.124 -5.54688c-69.5635 0 -60.3857 58.541 -30.5625 71.2793c21.6094 9.33105 39.3867 25.4355 50.8115 45.8271c-6.85156 -0.720703 -13.6182 -1.08203 -20.6592 -1.08203 c-13.8066 0.015625 -27.1436 1.4043 -40.1826 4.03516c-73.5303 14.6709 -134.591 73.6699 -151.841 146.824c-3.62305 15.0996 -5.56152 30.5508 -5.56152 46.7549c0 6.80566 0.337891 13.5322 0.999023 20.165c3.76953 37.8037 55.4521 45.5029 70.2803 10.7188 c9.34375 -21.6377 25.4912 -39.4277 45.9365 -50.8271c-0.734375 7.00195 -1.10156 13.7471 -1.10156 20.9424c0 13.667 1.35742 27.0205 3.94434 39.9307c14.6875 73.5449 73.6865 134.575 146.81 151.871c15.1484 3.60254 30.8447 5.53418 47.083 5.56055 c69.626 -0.0195312 60.458 -58.541 30.6035 -71.293c-21.6094 -9.33105 -39.3867 -25.4355 -50.8115 -45.8271c6.80762 0.716797 13.5176 1.07617 20.5137 1.07617h0.0419922c13.8398 -0.0195312 27.21 -1.40625 40.2861 -4.0293 c73.5303 -14.6709 134.592 -73.6699 151.841 -146.824zM479.153 117.358c8.81836 86.7734 -50.5693 163.178 -130.823 179.188c-29.791 5.91992 -49.8037 2.33398 -54.5869 2.33398c-24.4414 0 -39.8604 26.3877 -27.8867 47.6846 c14.8975 26.4922 38.0205 47.415 66.1143 59.5605c1.71094 0.701172 2.91016 2.38281 2.91016 4.3457c0 2.45117 -1.88086 4.46582 -4.27734 4.67773c-88.1367 9.04297 -163.479 -52.3291 -179.158 -130.847c-2.18262 -10.8711 -3.33594 -21.8115 -3.33594 -33.3223 c0 -6.05566 0.317383 -12.0381 0.935547 -17.9316c2.72656 -25.8975 -24.9453 -43.8662 -47.4482 -31.2783c-26.5801 14.8652 -47.5723 38.0186 -59.7334 66.1699c-2.05859 4.82812 -8.58008 3.0625 -9.01758 -1.31055 c-0.553711 -5.57422 -0.821289 -10.9697 -0.821289 -16.6885c0 -13.6621 1.62012 -26.9482 4.67871 -39.6777c14.4336 -61.2051 65.4521 -110.549 126.967 -122.822c29.624 -5.93555 49.6914 -2.33594 54.5859 -2.33594c24.4414 0 39.8613 -26.3877 27.8867 -47.6846 c-14.8984 -26.4912 -38.0205 -47.4141 -66.1143 -59.5605c-1.71191 -0.700195 -2.91211 -2.38184 -2.91211 -4.34473c0 -2.45215 1.88379 -4.46777 4.28125 -4.67676c5.57324 -0.552734 10.9658 -0.818359 16.6836 -0.818359c13.6758 0 26.9766 1.61914 39.7217 4.67578 c61.124 14.459 110.473 65.4961 122.751 126.989c2.18262 10.8711 3.33594 21.8115 3.33594 33.3223c0 6.05566 -0.317383 12.0381 -0.935547 17.9316c-2.71484 25.79 24.8516 43.9189 47.4482 31.2764c26.5801 -14.8643 47.5732 -38.0186 59.7334 -66.1699 c2.06055 -4.82422 8.57617 -3.0918 9.01758 1.3125z"/>
    <glyph glyph-name="garage" unicode="" horiz-adv-x="640" d="M368 32c8.83105 0 16 -7.16895 16 -16s-7.16895 -16 -16 -16h-96c-8.83105 0 -16 7.16895 -16 16s7.16895 16 16 16h96zM610.59 329.67c17.2832 -7.21484 29.4102 -24.2607 29.4102 -44.1465v-0.0537109v-341.47c0 -4.41504 -3.58496 -8 -8 -8h-16 c-4.41504 0 -8 3.58496 -8 8v341.47c0 0.0332031 0.0107422 0.0566406 0.0107422 0.0888672c0 6.625 -4.05762 12.3086 -9.82031 14.7012l-272 114.601c-1.89746 0.810547 -4.00879 1.25977 -6.20215 1.25977c-2.19238 0 -4.28125 -0.449219 -6.17871 -1.25977 l-272 -114.601c-5.76562 -2.41895 -9.80957 -8.1123 -9.80957 -14.7529v-0.0371094v-341.47c0 -4.41504 -3.58496 -8 -8 -8h-16c-4.41504 0 -8 3.58496 -8 8v341.47c0 0.0185547 -0.0322266 0.0136719 -0.0322266 0.03125c0 19.8857 12.1592 36.9541 29.4424 44.1689 l272 114.58c5.70996 2.39844 12.0459 3.72461 18.623 3.72461s12.8467 -1.32617 18.5566 -3.72461zM512 256c17.6611 0 32 -14.3389 32 -32v-280c0 -4.41504 -3.58496 -8 -8 -8h-16c-4.41504 0 -8 3.58496 -8 8v152h-384v-152c0 -4.41504 -3.58496 -8 -8 -8h-16 c-4.41504 0 -8 3.58496 -8 8v280c0 17.6611 14.3389 32 32 32h384zM512 128v96h-384v-96h384z"/>
    <glyph glyph-name="garage-car" unicode="" horiz-adv-x="640" d="M240 64c8.83105 0 16 -7.16895 16 -16s-7.16895 -16 -16 -16s-16 7.16895 -16 16s7.16895 16 16 16zM400 64c8.83105 0 16 -7.16895 16 -16s-7.16895 -16 -16 -16s-16 7.16895 -16 16s7.16895 16 16 16zM610.59 329.67 c17.2832 -7.21484 29.4102 -24.2607 29.4102 -44.1465v-0.0537109v-341.47c0 -4.41504 -3.58496 -8 -8 -8h-16c-4.41504 0 -8 3.58496 -8 8v341.47c0 0.0332031 0.0107422 0.0566406 0.0107422 0.0888672c0 6.625 -4.05762 12.3086 -9.82031 14.7012l-272 114.601 c-1.89746 0.810547 -4.00879 1.25977 -6.20215 1.25977c-2.19238 0 -4.28125 -0.449219 -6.17871 -1.25977l-272 -114.601c-5.76562 -2.41895 -9.80957 -8.1123 -9.80957 -14.7529v-0.0371094v-341.47c0 -4.41504 -3.58496 -8 -8 -8h-16c-4.41504 0 -8 3.58496 -8 8v341.47 c0 0.0185547 -0.0322266 0.0136719 -0.0322266 0.03125c0 19.8857 12.1592 36.9541 29.4424 44.1689l272 114.58c5.70996 2.39844 12.0459 3.72461 18.623 3.72461s12.8467 -1.32617 18.5566 -3.72461zM512 256c17.6611 0 32 -14.3389 32 -32v-280 c0 -4.41504 -3.58496 -8 -8 -8h-16c-4.41504 0 -8 3.58496 -8 8v280h-384v-280c0 -4.41504 -3.58496 -8 -8 -8h-16c-4.41504 0 -8 3.58496 -8 8v280c0 17.6611 14.3389 32 32 32h384zM443.92 110.31c20.6885 -5.26074 36.0371 -24.0039 36.0801 -46.3096v-48 c0 -17.6611 -14.3389 -32 -32 -32v-32c0 -8.83105 -7.16895 -16 -16 -16h-16c-8.83105 0 -16 7.16895 -16 16v32h-160v-32c0 -8.83105 -7.16895 -16 -16 -16h-16c-8.83105 0 -16 7.16895 -16 16v32c-17.6611 0 -32 14.3389 -32 32v48 c0.0625 22.2871 15.4043 41.0127 36.0801 46.2695l9.41992 37.7305c6.27832 25.2422 29.1064 43.998 56.2803 44h116.439l0.00585938 -0.0253906c27.1533 0 49.9746 -18.7012 56.2744 -43.915zM236.56 140.31l-7.0498 -28.3096h181l-7.06934 28.3096 c-2.82715 11.2988 -13.0518 19.6895 -25.2207 19.6904h-116.439c-12.1689 -0.000976562 -22.3936 -8.3916 -25.2207 -19.6904zM448 16v48c0 8.83105 -7.16895 16 -16 16h-224c-8.83105 0 -16 -7.16895 -16 -16v-48h256z"/>
    <glyph glyph-name="garage-open" unicode="" horiz-adv-x="640" d="M610.59 329.67c17.2832 -7.21484 29.4102 -24.2607 29.4102 -44.1465v-0.0537109v-341.47c0 -4.41504 -3.58496 -8 -8 -8h-16c-4.41504 0 -8 3.58496 -8 8v341.47c0 0.0332031 0.0107422 0.0566406 0.0107422 0.0888672c0 6.625 -4.05762 12.3086 -9.82031 14.7012 l-272 114.601c-1.89746 0.810547 -4.00879 1.25977 -6.20215 1.25977c-2.19238 0 -4.28125 -0.449219 -6.17871 -1.25977l-272 -114.601c-5.76562 -2.41895 -9.80957 -8.1123 -9.80957 -14.7529v-0.0371094v-341.47c0 -4.41504 -3.58496 -8 -8 -8h-16 c-4.41504 0 -8 3.58496 -8 8v341.47c0 0.0185547 -0.0322266 0.0136719 -0.0322266 0.03125c0 19.8857 12.1592 36.9541 29.4424 44.1689l272 114.58c5.70996 2.39844 12.0459 3.72461 18.623 3.72461s12.8467 -1.32617 18.5566 -3.72461zM512 256 c17.6611 0 32 -14.3389 32 -32v-280c0 -4.41504 -3.58496 -8 -8 -8h-16c-4.41504 0 -8 3.58496 -8 8v216h-384v-216c0 -4.41504 -3.58496 -8 -8 -8h-16c-4.41504 0 -8 3.58496 -8 8v280c0 17.6611 14.3389 32 32 32h384zM512 192v32h-384v-32h384zM443.92 110.33 c20.6885 -5.26074 36.0371 -24.0244 36.0801 -46.3301v-48c0 -17.6611 -14.3389 -32 -32 -32v-32c0 -8.83105 -7.16895 -16 -16 -16h-16c-8.83105 0 -16 7.16895 -16 16v32h-160v-32c0 -8.83105 -7.16895 -16 -16 -16h-16c-8.83105 0 -16 7.16895 -16 16v32 c-17.6611 0 -32 14.3389 -32 32v48c0.0361328 22.3193 15.3975 41.0752 36.0996 46.3301l4.41016 17.6699h33l-4 -16h181l-4 16h33zM448 16v48c0 8.83105 -7.16895 16 -16 16h-224c-8.83105 0 -16 -7.16895 -16 -16v-48h256zM240 64c8.83105 0 16 -7.16895 16 -16 s-7.16895 -16 -16 -16s-16 7.16895 -16 16s7.16895 16 16 16zM400 64c8.83105 0 16 -7.16895 16 -16s-7.16895 -16 -16 -16s-16 7.16895 -16 16s7.16895 16 16 16z"/>
    <glyph glyph-name="heat" unicode="" horiz-adv-x="448" d="M192 294.41c0 -42.7998 17.5098 -82.9404 45.7305 -115.12c31.2676 -35.6367 50.2695 -82.4238 50.2695 -133.512v-0.188477v-61.5898c0 -8.83105 -7.16895 -16 -16 -16s-16 7.16895 -16 16v62.7695c0 42.8506 -17.5098 83.04 -45.7402 115.23 c-31.2627 35.6611 -50.2598 82.4678 -50.2598 133.571v0.178711v104.25c0 8.83105 7.16895 16 16 16s16 -7.16895 16 -16v-105.59zM64 315.6c0 -47.5996 17.3496 -92.9199 45.71 -131.21c31.4219 -42.6104 50.1699 -95.4629 50.29 -152.39v-48 c0 -8.83105 -7.16895 -16 -16 -16s-16 7.16895 -16 16v52.4004c0 47.5996 -17.3496 92.9199 -45.71 131.21c-31.4219 42.6104 -50.1699 95.4629 -50.29 152.39v16c0 8.83105 7.16895 16 16 16s16 -7.16895 16 -16v-20.4004zM365.71 184.39 c31.4219 -42.6104 50.1699 -95.4629 50.29 -152.39v-48c0 -8.83105 -7.16895 -16 -16 -16s-16 7.16895 -16 16v52.4004c0 47.5996 -17.3496 92.9199 -45.71 131.21c-31.4219 42.6104 -50.1699 95.4629 -50.29 152.39v16c0 8.83105 7.16895 16 16 16s16 -7.16895 16 -16 v-20.4004c0 -47.5996 17.3496 -92.9199 45.71 -131.21z"/>
    <glyph glyph-name="house" unicode="" horiz-adv-x="576" d="M570.53 206c3.11523 -2.91992 5.04688 -7.06543 5.04688 -11.668c0 -8.83105 -7.16895 -16 -16 -16c-3.83594 0 -7.35938 1.35352 -10.1172 3.6084l-37.46 32.79v-230.73c-0.0273438 -26.4795 -21.5205 -47.9727 -48 -48h-352 c-26.4795 0.0273438 -47.9727 21.5205 -48 48v230.73l-37.46 -32.8203c-2.81445 -2.46191 -6.51367 -3.95996 -10.543 -3.95996c-8.83203 0 -16.002 7.16992 -16.002 16.002c0 4.80273 2.12012 9.11328 5.47461 12.0479l272 238 c2.81348 2.45898 6.51172 3.9502 10.5381 3.9502c4.02734 0 7.70898 -1.49121 10.5225 -3.9502l85.4697 -74.75v30.75c0 8.83105 7.16895 16 16 16h96c8.83105 0 16 -7.16895 16 -16v-142.75zM480 -16v258.73l-192 168l-192 -168v-258.73c0 -8.83105 7.16895 -16 16 -16h352 c8.83105 0 16 7.16895 16 16zM480 285.25v98.75h-64v-42.75zM208 229.33c0.0380859 14.6982 11.9629 26.626 26.6602 26.6699h106.64c14.7139 -0.0273438 26.6562 -11.9609 26.7002 -26.6699v-106.67c-0.0546875 -14.7021 -11.9932 -26.627 -26.7002 -26.6602h-106.64 c-14.6914 0.0498047 -26.6104 11.9688 -26.6602 26.6602v106.67zM240 224v-96h96v96h-96z"/>
    <glyph glyph-name="house-day" unicode="" horiz-adv-x="640" d="M120 272c0.0498047 30.8848 25.1152 55.9502 56 56c30.9072 0 56 -25.0928 56 -56s-25.0928 -56 -56 -56s-56 25.0928 -56 56zM200 272c0 13.2461 -10.7539 24 -24 24s-24 -10.7539 -24 -24s10.7539 -24 24 -24s24 10.7539 24 24zM634.53 152 c3.11523 -2.91992 5.04688 -7.06543 5.04688 -11.668c0 -8.83105 -7.16895 -16 -16 -16c-3.83594 0 -7.35938 1.35352 -10.1172 3.6084l-37.46 32.7793v-176.72c-0.0332031 -26.4766 -21.5234 -47.9668 -48 -48h-256c-26.4795 0.0273438 -47.9727 21.5205 -48 48v176.72 l-37.4697 -32.8096c-2.79492 -2.38477 -6.43457 -3.83105 -10.3926 -3.83105c-8.83008 0 -16 7.16992 -16 16c0 4.73438 2.06055 8.99023 5.33203 11.9209l224 196c2.81348 2.45898 6.51172 3.9502 10.5381 3.9502c4.02734 0 7.70898 -1.49121 10.5225 -3.9502 l133.47 -116.75v72.75c0 8.83105 7.16895 16 16 16s16 -7.16895 16 -16v-100.75zM544 -16v204.73l-144 126l-144.81 -126.73c0.435547 -1.26172 0.716797 -2.61426 0.80957 -4v-200c0 -8.83105 7.16895 -16 16 -16h256c8.83105 0 16 7.16895 16 16zM78.7197 175.81 l66.0605 22.0908l7.26953 -14.5605l-31.1094 -27.1494l-41.9404 -14c-2.70117 -0.938477 -5.61133 -1.45996 -8.63086 -1.45996c-7.31543 0 -13.9385 2.99316 -18.709 7.81934c-4.93262 4.84082 -7.98242 11.5898 -7.98242 19.04 c0 2.96777 0.486328 5.82324 1.38184 8.49023l16.5605 49.6699l-46.7803 23.3604c-8.80762 4.40137 -14.8623 13.4756 -14.8623 23.9844c0 10.5078 6.05469 19.6133 14.8623 24.0156l46.7803 23.4092l-16.5605 49.5908c-0.880859 2.65527 -1.36035 5.49121 -1.36035 8.44043 c0 14.8027 12.0176 26.8203 26.8203 26.8203c2.96289 0 5.81445 -0.482422 8.48047 -1.37109l49.6201 -16.5195l23.3799 46.7891c9.19043 18.3105 38.8096 18.3105 48 0l23.4004 -46.8291l49.5996 16.5596c2.68945 0.923828 5.58301 1.4375 8.58496 1.4375 c7.31641 0 13.9414 -2.98242 18.7246 -7.79785c4.92871 -4.85156 7.97461 -11.6055 7.97461 -19.0605c0 -2.96289 -0.482422 -5.81445 -1.37402 -8.47949l-16.5703 -49.6094l12 -6l-26.0596 -22.75l-25 12.5098l22 66.0898l-66.0605 -22.0596l-31.2197 62.4199 l-31.0996 -62.29l-66.1504 22l22 -66.0801l-62.3398 -31.2197l62.3096 -31.1406zM336 170.67c0.0332031 11.7705 9.59473 21.3193 21.3701 21.3301h85.2998c11.7568 -0.0332031 21.2969 -9.57324 21.3301 -21.3301v-85.3398 c-0.0332031 -11.7568 -9.57324 -21.2969 -21.3301 -21.3301h-85.2998c-11.7754 0.0107422 -21.3369 9.55957 -21.3701 21.3301v85.3398zM368 160v-64h64v64h-64z"/>
    <glyph glyph-name="house-leave" unicode="" horiz-adv-x="640" d="M112 64h213.22l-15 -16.6299c-4.21094 -4.68652 -7.85254 -9.80762 -10.9102 -15.3701h-187.31c-26.4795 0.0273438 -47.9727 21.5205 -48 48v176.72l-37.46 -32.8193c-2.81445 -2.46094 -6.51367 -3.95898 -10.543 -3.95898 c-8.83398 0 -16.0059 7.17188 -16.0059 16.0059c0 4.80469 2.12207 9.11816 5.47852 12.0527l224 196c2.81348 2.45898 6.51172 3.9502 10.5381 3.9502c4.02734 0 7.70898 -1.49121 10.5225 -3.9502l124.87 -109.24c-9.80371 -5.20801 -18.8115 -11.5205 -27 -18.8799 l-108.4 94.8506l-144.81 -126.73c0.435547 -1.26172 0.717773 -2.61426 0.80957 -4v-200c0 -8.83105 7.16895 -16 16 -16zM181.33 288h85.2998c11.7793 -0.0107422 21.3428 -9.56445 21.3701 -21.3398v-85.3301c-0.0332031 -11.7705 -9.59473 -21.3193 -21.3701 -21.3301 h-85.2998c-11.7568 0.0332031 -21.2969 9.57324 -21.3301 21.3301v85.3301c0.0273438 11.7617 9.56934 21.3066 21.3301 21.3398zM256 192v64h-64v-64h64zM625.54 200.7c14.6797 -16 18.46 -38.0205 9.95996 -57.6104s-27.0996 -32.1895 -47.4102 -32.1895 c-0.0175781 0 0.0166016 -0.00195312 -0.00195312 -0.00195312c-1.8584 0 -3.69238 0.102539 -5.49805 0.301758c6.85352 -11.0566 11.9482 -23.5664 14.7197 -36.7002l15.6006 -74.0898c6 -28.3203 -10.6006 -56 -38 -62.9102 c-3.87793 -0.970703 -7.91406 -1.49316 -12.0898 -1.5c-23.8203 0 -44.8203 17.5 -49.9307 41.7998l-15.5898 74.2002c-0.129883 0.71582 -0.452148 1.37109 -0.910156 1.90039l-10.5898 10.6895l-8.71973 -23.8896c-4.95898 -13.5996 -12.4746 -25.9668 -22 -36.5 l-46.6797 -51.2002c-9.15723 -10.1953 -22.4248 -16.6123 -37.1934 -16.6123s-28.0508 6.41699 -37.207 16.6123c-18.6904 20.5 -18.6904 52.5 0 72.9004l47.4199 52.3896l16.2803 44.6104l14.2197 38.8896c-0.219727 1.41016 -0.410156 2.70996 -0.589844 4.11035 c-8.6123 -8.00195 -20.1631 -12.9004 -32.834 -12.9004h-0.0761719c-18.1602 0.166992 -34.1191 9.47168 -43.4902 23.5898c-9.91016 15 -11.5 33.5 -4.21973 50.7002l11.8096 28c11.5 25.1104 30.9004 44.7002 54.9004 55.2002l8.58984 3.7998 c16.9102 7.61035 30.5898 13.6104 45.3105 17.4102c-8.34961 11.9805 -13.2168 26.6553 -13.2168 42.3525c0 40.8418 33.1582 74 74 74s74 -33.1582 74 -74c0 -25.2773 -12.7012 -47.6113 -32.0635 -60.9629c19.9102 -15 35.3096 -36.6895 43.1904 -62.7998l8.70996 -28.5z M512 416c-23.1807 0 -42 -18.8193 -42 -42s18.8193 -42 42 -42s42 18.8193 42 42s-18.8193 42 -42 42zM447 51.7002l10.7002 29.5898l-29 29.2998l-1 1.2002l-0.0898438 0.110352l-16.2803 -44.6104c-1.60059 -4.39941 -4.03711 -8.39551 -7.12988 -11.79l-46.6807 -51.2002 c-3.49609 -3.95605 -5.62012 -9.1748 -5.62012 -14.8652s2.12402 -10.8887 5.62012 -14.8447c3.34766 -3.74316 8.19434 -6.11328 13.5908 -6.17969c5.41309 0.0214844 10.2695 2.40332 13.5898 6.17969l46.71 51.21c6.76953 7.46094 12.0986 16.2402 15.5898 25.9004z M588.08 142.79c14.8203 0 28.0098 20.9102 13.9199 36.21l-23.4102 25.29c-0.732422 0.783203 -1.28418 1.74121 -1.58984 2.7998l-10.3096 33.9102c-11.5 37.71 -43.5 63 -79.7803 63c-27.9102 0 -42.4004 -7.70996 -76.5801 -22.7998 c-16.7197 -7.2998 -30.3105 -21 -38.6299 -39.2002l-11.5098 -27.21c-7 -16.5 5.70996 -29.8896 18.21 -29.8896c6.5 0 12.9092 3.59961 16.5996 12.2998l11.1904 26.5898c3.6123 8.19629 10.1367 14.7539 18.3096 18.4102c17.3096 7.7002 26.4102 11.7998 35.4102 15 l-15.8203 -69.2998c-3.78027 -16.5 0.320312 -33.9004 11.9102 -47.7002l63.0996 -63.9102c4.76074 -4.76074 8.14062 -10.9287 9.5 -17.79l15.5908 -74.2002c1.90918 -8.70996 9.21973 -16.2998 18.6299 -16.2998 c0.110352 -0.00195312 0.208984 -0.00195312 0.320312 -0.00195312c1.39648 0 2.75391 0.173828 4.0498 0.501953c10.3994 2.58984 16.8096 13.9102 14.3994 25.2002l-15.5898 74.0898c-3.05078 15.0957 -10.4365 28.6992 -20.8096 39.2998l-43 43.4102l20.9092 91.7002 c6 -8.61035 6.09082 -11 17.5 -48.5c2.18848 -7.29883 5.99121 -13.9238 11 -19.4102l23.4805 -25.29c4 -4.41016 8.59961 -6.20996 13 -6.20996z"/>
    <glyph glyph-name="house-night" unicode="" horiz-adv-x="640" d="M112 224c-61.8145 0 -112 50.1855 -112 112s50.1855 112 112 112c6.98242 -0.113281 13.75 -0.750977 20.4404 -1.87988c8.43359 -1.49121 15.0928 -8.22754 16.4697 -16.7002c0.206055 -1.16016 0.334961 -2.32422 0.334961 -3.54395 c0 -7.6123 -4.19922 -14.252 -10.4053 -17.7256c-17.9346 -10.1777 -30.0303 -29.4111 -30.0303 -51.4883c0 -32.6729 26.5264 -59.2002 59.1992 -59.2002c3.84375 0 7.60156 0.367188 11.2412 1.06836c1.24609 0.236328 2.50781 0.34668 3.82227 0.34668 c11.3203 0 20.5107 -9.19043 20.5107 -20.5098c0 -4.89453 -1.71777 -9.38965 -4.58301 -12.917c-20.4463 -25.3213 -51.6953 -41.4502 -86.7432 -41.4502h-0.256836zM97.7803 414.73c-37.2998 -6.7832 -65.6025 -39.415 -65.6025 -78.6592c0 -44.1533 35.8467 -80 80 -80 c14.5967 0 28.2861 3.91797 40.0723 10.7588c-42.752 7.54785 -75.3232 44.9756 -75.3232 89.8789c0 22.0312 7.8291 42.249 20.8535 58.0215zM194.93 379.22c-1.74512 0.878906 -2.94434 2.68066 -2.94434 4.76758c0 2.08594 1.19922 3.89453 2.94434 4.77246 l39.7207 16.5605l16.5596 39.6797c0.87207 1.75781 2.67871 2.9668 4.77148 2.9668c2.09375 0 3.90723 -1.20898 4.77832 -2.9668l16.5605 -39.6797l39.6797 -16.5605c1.75195 -0.873047 2.95703 -2.67773 2.95703 -4.7666c0 -2.08984 -1.20508 -3.89941 -2.95703 -4.77344 l-39.6797 -16.5596l-16.5605 -39.7197c-0.871094 -1.75781 -2.67871 -2.96777 -4.77148 -2.96777c-2.09375 0 -3.90625 1.20996 -4.77832 2.96777l-16.5596 39.7197zM157 68.7598c1.75195 -0.873047 2.95703 -2.67773 2.95703 -4.7666 c0 -2.08984 -1.20508 -3.89941 -2.95703 -4.77344l-39.6797 -16.5596l-16.5605 -39.7197c-0.871094 -1.75781 -2.67871 -2.96777 -4.77148 -2.96777c-2.09375 0 -3.90625 1.20996 -4.77832 2.96777l-16.5596 39.7197l-39.7207 16.5596 c-1.74512 0.878906 -2.94434 2.68066 -2.94434 4.76758c0 2.08594 1.19922 3.89453 2.94434 4.77246l39.7207 16.5703l16.5596 39.6699c0.876953 1.75098 2.68164 2.95508 4.77148 2.95508c2.09082 0 3.90137 -1.2041 4.77832 -2.95508l16.5205 -39.6699zM336 170.66 c0.0332031 11.7695 9.58789 21.3184 21.3604 21.3398h85.3096c11.7578 -0.0380859 21.2969 -9.58105 21.3301 -21.3398v-85.3301c-0.0332031 -11.7568 -9.57324 -21.2969 -21.3301 -21.3301h-85.3096c-11.7715 0.0166016 -21.3271 9.5625 -21.3604 21.3301v85.3301zM368 160 v-64h64v64h-64zM634.49 152c3.11523 -2.91992 5.08691 -7.06543 5.08691 -11.668c0 -8.83105 -7.16895 -16 -16 -16c-3.83594 0 -7.35938 1.35352 -10.1172 3.6084l-37.46 32.7793v-176.72c-0.0332031 -26.4766 -21.5234 -47.9668 -48 -48h-256 c-26.4795 0.0273438 -47.9727 21.5205 -48 48v176.72l-37.4697 -32.8096c-2.81445 -2.46191 -6.51367 -3.95996 -10.543 -3.95996c-8.83203 0 -16.002 7.16992 -16.002 16.002c0 4.80273 2.12012 9.11328 5.47461 12.0479l224 196 c2.81445 2.46191 6.51367 3.95508 10.543 3.95508s7.71289 -1.49316 10.5273 -3.95508l133.47 -116.75v72.75c0 8.83105 7.16895 16 16 16s16 -7.16895 16 -16v-100.75zM544 -16v204.73l-144 126l-144.81 -126.73c0.429688 -1.26367 0.710938 -2.61621 0.80957 -4v-200 c0 -8.83105 7.16895 -16 16 -16h256c8.83105 0 16 7.16895 16 16z"/>
    <glyph glyph-name="house-return" unicode="" horiz-adv-x="640" d="M96 80c0 -8.83105 7.16895 -16 16 -16h215.88l-6.74023 -32h-209.14c-26.4795 0.0273438 -47.9727 21.5205 -48 48v176.72l-37.46 -32.8193c-2.81445 -2.46094 -6.51367 -3.95898 -10.543 -3.95898c-8.83398 0 -16.0059 7.17188 -16.0059 16.0059 c0 4.80469 2.12207 9.11816 5.47852 12.0527l224 196c2.81348 2.45898 6.51172 3.9502 10.5381 3.9502c4.02734 0 7.70898 -1.49121 10.5225 -3.9502l92.3994 -80.8203c1.78613 -18.1328 8.22168 -35.1387 18 -49.4199 c-1.41992 -1.72949 -2.37988 -3.7998 -3.71973 -5.59961l-117.21 102.57l-144.81 -126.73c0.435547 -1.26172 0.717773 -2.61426 0.80957 -4v-200zM181.33 288h85.2998c11.7793 -0.0107422 21.3428 -9.56445 21.3701 -21.3398v-85.3301 c-0.0332031 -11.7705 -9.59473 -21.3193 -21.3701 -21.3301h-85.2998c-11.7568 0.0332031 -21.2969 9.57324 -21.3301 21.3301v85.3301c0.0273438 11.7617 9.56934 21.3066 21.3301 21.3398zM256 192v64h-64v-64h64zM626 25.9004 c18.6699 -20.4004 18.6699 -52.4004 0 -72.9004c-9.15625 -10.1982 -22.4268 -16.6182 -37.1982 -16.6182s-28.0557 6.41992 -37.2119 16.6182l-46.6895 51.2002c-9.52246 10.5361 -17.0371 22.9023 -22 36.5l-8.7207 23.8896l-10.5898 -10.6895 c-0.457031 -0.529297 -0.779297 -1.18457 -0.910156 -1.90039l-15.5898 -74.2002c-5.08984 -24.2998 -26.0898 -41.7998 -49.8994 -41.7998c-4.17676 0.00585938 -8.21289 0.52832 -12.0908 1.5c-27.4092 6.91016 -44 34.5898 -38 62.9102l15.5908 74.0898 c2.77148 13.1338 7.86621 25.6436 14.7197 36.7002c-1.80078 -0.199219 -3.57812 -0.299805 -5.43164 -0.299805h-0.0683594c-20.3105 0 -38.7998 12.6895 -47.4004 32.1895c-8.59961 19.5 -4.68945 41.6104 10 57.6104l19.5898 21.0898l8.7207 28.5 c7.87012 26.1104 23.2793 47.7998 43.1797 62.7998c-19.3779 13.3496 -32.0596 35.5791 -32.0596 60.8682c0 40.8418 33.1582 74 74 74s74 -33.1582 74 -74c0 -15.7051 -4.90332 -30.2734 -13.2607 -42.2578c14.7207 -3.7998 28.4102 -9.7998 45.3105 -17.4102 l8.58984 -3.7998c24 -10.5 43.4102 -30.0898 54.9102 -55.2002l11.8096 -28c7.28027 -17.2002 5.68066 -35.7002 -4.21973 -50.7002c-9.375 -14.1182 -25.3369 -23.4229 -43.5 -23.5898c-0.0263672 0 -0.0664062 0.00195312 -0.0917969 0.00195312 c-12.668 0 -24.2012 4.89648 -32.8086 12.8984c-0.189453 -1.40039 -0.379883 -2.7002 -0.589844 -4.11035l14.21 -38.8896l16.2998 -44.6104zM448 416c-23.1807 0 -42 -18.8193 -42 -42s18.8193 -42 42 -42s42 18.8193 42 42s-18.8193 42 -42 42zM440.9 76.2998 l63.0898 63.9004c11.5996 13.7998 15.6895 31.2002 11.9102 47.7002l-15.8105 69.2998c9 -3.2002 18.0898 -7.2998 35.4004 -15c8.17285 -3.65625 14.6973 -10.2139 18.3096 -18.4102l11.1904 -26.5801c3.68945 -8.7002 10.0898 -12.2998 16.5898 -12.2998 c12.5 0 25.2197 13.3896 18.2197 29.8896l-11.5 27.21c-8.30957 18.2002 -21.8994 31.9004 -38.6201 39.2002c-34.1895 15.0898 -48.6895 22.79 -76.5898 22.79c-36.2803 0 -68.2803 -25.2998 -79.7695 -63l-10.3203 -33.9102 c-0.305664 -1.05859 -0.857422 -2.0166 -1.58984 -2.7998l-23.4004 -25.29c-14.0996 -15.2998 -0.910156 -36.21 13.9004 -36.21c4.41016 0 9 1.7998 13 6.20996l23.5 25.29c5.00879 5.48633 8.81152 12.1113 11 19.4102c11.3994 37.5 11.5 39.8896 17.5 48.5 l20.8994 -91.7002l-43 -43.4102c-10.3662 -10.6064 -17.751 -24.208 -20.8096 -39.2998l-15.5898 -74.0801c-2.41016 -11.29 4 -22.6104 14.4102 -25.2002c1.29395 -0.327148 2.63574 -0.50293 4.03125 -0.50293c0.113281 0 0.225586 0.000976562 0.338867 0.00292969 c9.39941 0 16.7197 7.58984 18.6191 16.2998l15.6006 74.2002c1.35156 6.8623 4.72949 13.0312 9.49023 17.79zM602.49 -25.4004c3.50293 3.95801 5.62988 9.17188 5.62988 14.8672c0 5.68457 -2.11914 10.8779 -5.61035 14.833l-46.6895 51.2002 c-3.08984 3.39551 -5.52344 7.3916 -7.12012 11.79l-16.2803 44.6104l-0.0996094 -0.110352l-1 -1.2002l-29 -29.2998l10.6797 -29.5898c3.49121 -9.66016 8.82031 -18.4395 15.5898 -25.9004l46.71 -51.2002c3.3252 -3.77441 8.18457 -6.15625 13.6006 -6.17969 c5.39453 0.0722656 10.2393 2.44043 13.5898 6.17969z"/>
    <glyph glyph-name="house-signal" unicode="" horiz-adv-x="640" d="M0 224c159.06 0 288 -128.94 288 -288h-32c0 141.38 -114.62 256 -256 256v32zM0 128c106 0 192 -86 192 -192h-32c0 88.3066 -71.6934 160 -160 160v32zM0 32c52.9834 0 96 -43.0166 96 -96h-32c0 35.3223 -28.6777 64 -64 64v32zM634.53 248 c3.1709 -2.9248 5.14258 -7.10742 5.14258 -11.7568c0 -8.83008 -7.16992 -16 -16 -16c-3.88086 0 -7.44141 1.38477 -10.2129 3.68652l-37.46 32.79v-176.72c-0.0273438 -26.4795 -21.5205 -47.9727 -48 -48h-206.1c-3.20898 10.8242 -7.04004 21.665 -11.29 32h217.39 c8.83105 0 16 7.16895 16 16v204.73l-144 126l-144.81 -126.73c0.435547 -1.26172 0.717773 -2.61426 0.80957 -4v-126.69c-9.98926 11.665 -20.5283 22.4053 -32 32.6104v70.79v0l-37.4697 -32.7998c-2.83203 -2.53613 -6.58691 -4.08594 -10.6846 -4.08594 c-8.83008 0 -16 7.16992 -16 16c0 4.87305 2.18359 9.24023 5.62402 12.1758l58.5303 51.2402v0l165.47 144.76c2.81348 2.45898 6.51172 3.9502 10.5381 3.9502c4.02734 0 7.70898 -1.49121 10.5225 -3.9502l133.47 -116.74v72.7402c0 8.83105 7.16895 16 16 16 s16 -7.16895 16 -16v-100.76zM442.67 160h-85.2998c-11.7754 0.0107422 -21.3369 9.55957 -21.3701 21.3301v85.3301c0.0273438 11.7754 9.59082 21.3291 21.3701 21.3398h85.2998c11.7607 -0.0332031 21.3027 -9.57812 21.3301 -21.3398v-85.3301 c-0.0332031 -11.7568 -9.57324 -21.2969 -21.3301 -21.3301zM368 256v-64h64v64h-64z"/>
    <glyph glyph-name="lamp-desk" unicode="" d="M494.42 384c15.6299 0 23.46 -18.9004 12.4004 -30l-60.1504 -60.1299c10.5801 -12.4697 17.3301 -28.2598 17.3301 -45.8701c-0.0439453 -39.7178 -32.2822 -71.9561 -72 -72c-17.6104 0 -33.4004 6.75977 -45.8398 17.3398l-60.1602 -60.1602 c-3.12109 -3.19727 -7.47754 -5.17969 -12.2939 -5.17969h-0.0361328c-0.0478516 0 -0.0927734 -0.00195312 -0.139648 -0.00195312c-9.67578 0 -17.5303 7.85547 -17.5303 17.5303v0.0517578v125.28l-13.2598 13.2598l-96.7402 -96.71l45.3496 -155.41h112.65 c35 0 68 -23.2002 78.4697 -55.1904c0.958984 -2.94336 1.46973 -6.11523 1.46973 -9.37793c0 -6.7334 -2.20801 -12.9561 -5.93945 -17.9814c-5.91016 -8.13281 -15.4678 -13.4062 -26.2695 -13.4502h-319.461c-10.8018 0.0439453 -20.3594 5.31738 -26.2695 13.4502 c-3.75684 5.0332 -5.98828 11.3027 -5.98828 18.0605c0 3.24023 0.511719 6.3623 1.45801 9.28906c10.4102 31.9805 43.4404 55.2002 78.5303 55.2002h78l-45.3799 155.53c-0.408203 1.41309 -0.630859 2.90723 -0.630859 4.45117 c0 4.42871 1.79688 8.44238 4.70117 11.3486l103.43 103.42l-4.69043 4.67969c-14.4805 14.4814 -23.4209 34.5039 -23.4209 56.5811c0 44.1543 35.8477 80.002 80.002 80.002c22.0771 0 42.0781 -8.96191 56.5596 -23.4424l40.5693 -40.5703h125.28zM304 0h-223.98 c-21.6299 0 -41.8398 -12.8096 -48.0898 -32h319.82c-5.91016 18.0596 -26.1504 32 -47.75 32zM392 208c22.0762 0 40 17.9238 40 40c-0.0107422 8.75391 -2.93555 16.8682 -7.83008 23.3701l-55.54 -55.54c6.50098 -4.89551 14.6152 -7.82031 23.3701 -7.83008zM288 180.47 l171.53 171.53h-103.65l-49.9395 49.9404c-8.66602 8.52539 -20.5645 13.7744 -33.6689 13.7744c-26.4912 0 -48 -21.5078 -48 -48c0 -13.1045 5.2627 -24.9893 13.7881 -33.6553l49.9404 -49.9395v-103.65z"/>
    <glyph glyph-name="lamp-floor" unicode="" horiz-adv-x="384" d="M381.38 268.61c1.65723 -3.86426 2.58887 -8.14258 2.58887 -12.6104c0 -17.6504 -14.3223 -31.9834 -31.9688 -32h-144v-192h32c35.0596 0 68.0596 -23.2002 78.5303 -55.1904c0.959961 -2.94531 1.47266 -6.11816 1.47266 -9.38281 c0 -6.7334 -2.20996 -12.9541 -5.94336 -17.9766c-5.91602 -8.14355 -15.4902 -13.4209 -26.3096 -13.4502h-191.5c-10.8193 0.0292969 -20.3936 5.30664 -26.3096 13.4502c-3.7334 5.02051 -5.9502 11.2686 -5.9502 17.999c0 3.26367 0.519531 6.40625 1.47949 9.35059 c10.4102 31.9805 43.4404 55.2002 78.5303 55.2002h32v192h-144c-17.6465 0.0166016 -31.9541 14.3721 -31.9541 32.0234c0 4.46777 0.916992 8.72266 2.57422 12.5869l68.5703 160c4.89258 11.4111 16.2168 19.3896 29.4102 19.3896h0.00976562h182.779 c0.00390625 0 -0.00878906 0.0234375 -0.00488281 0.0234375c13.1934 0 24.5322 -8.00195 29.4248 -19.4131zM240 0h-96c-21.6201 0 -41.8398 -12.8096 -48.0898 -32h191.84c-5.91016 18.0596 -26.1602 32 -47.75 32zM32 256h320l-68.6104 160h-182.779z"/>
    <glyph glyph-name="light-ceiling" unicode="" d="M272 255.26c122.89 -7.46973 222.6 -99.8799 239.68 -218.89c2.76074 -19.1904 -12.6797 -36.3701 -32.2393 -36.3701h-145.061c-7.45117 -36.459 -39.7314 -63.9219 -78.3789 -63.9219s-70.9297 27.4629 -78.3809 63.9219h-145.061 c-19.5596 0 -34.9893 17.1699 -32.2393 36.3604c17.0801 119.02 116.79 211.43 239.68 218.899v192.74h32v-192.74zM256 -32c20.8818 0.00683594 38.6504 13.3613 45.2402 32h-90.4805c6.58984 -18.6387 24.3584 -31.9932 45.2402 -32zM32 31.8203l447.44 0.179688 c-15.1602 109.39 -111.44 192 -223.44 192s-208.28 -82.6201 -224 -192.18z"/>
    <glyph glyph-name="light-switch" unicode="" horiz-adv-x="384" d="M256 352c17.6611 0 32 -14.3389 32 -32v-256c0 -17.6611 -14.3389 -32 -32 -32h-128c-17.6611 0 -32 14.3389 -32 32v256c0 17.6611 14.3389 32 32 32h128zM256 64v112h-128v-112h128zM256 208v112h-128v-112h128zM320 448c35.3223 0 64 -28.6777 64 -64v-384 c0 -35.3223 -28.6777 -64 -64 -64h-256c-35.3223 0 -64 28.6777 -64 64v384c0 35.3223 28.6777 64 64 64h256zM352 0v384c0 17.6611 -14.3389 32 -32 32h-105.61c0.96875 -2.4834 1.53809 -5.19238 1.61035 -8c0 -13.2461 -10.7539 -24 -24 -24s-24 10.7539 -24 24 c0.0673828 2.80859 0.637695 5.51855 1.61035 8h-105.61c-17.6611 0 -32 -14.3389 -32 -32v-384c0 -17.6611 14.3389 -32 32 -32h105.61c-0.975586 2.48145 -1.5498 5.19141 -1.62012 8c0 13.2461 10.7539 24 24 24s24 -10.7539 24 -24 c-0.0722656 -2.80762 -0.642578 -5.5166 -1.61035 -8h105.62c17.6611 0 32 14.3389 32 32z"/>
    <glyph glyph-name="light-switch-off" unicode="" horiz-adv-x="384" d="M256 352c17.6611 0 32 -14.3389 32 -32v-256c0 -17.6611 -14.3389 -32 -32 -32h-128c-17.6611 0 -32 14.3389 -32 32v256c0 17.6611 14.3389 32 32 32h128zM256 64v112h-128v-112h128zM256 208v112h-128v-112h128zM224 128v-32h-64v32h64zM320 448 c35.3223 0 64 -28.6777 64 -64v-384c0 -35.3223 -28.6777 -64 -64 -64h-256c-35.3223 0 -64 28.6777 -64 64v384c0 35.3223 28.6777 64 64 64h256zM352 0v384c0 17.6611 -14.3389 32 -32 32h-105.61c0.96875 -2.4834 1.53809 -5.19238 1.61035 -8 c0 -13.2461 -10.7539 -24 -24 -24s-24 10.7539 -24 24c0.0673828 2.80859 0.637695 5.51855 1.61035 8h-105.61c-17.6611 0 -32 -14.3389 -32 -32v-384c0 -17.6611 14.3389 -32 32 -32h105.61c-0.975586 2.48145 -1.5498 5.19141 -1.62012 8c0 13.2461 10.7539 24 24 24 s24 -10.7539 24 -24c-0.0722656 -2.80762 -0.642578 -5.5166 -1.61035 -8h105.62c17.6611 0 32 14.3389 32 32z"/>
    <glyph glyph-name="light-switch-on" unicode="" horiz-adv-x="384" d="M224 288v-32h-64v32h64zM320 448c35.3223 0 64 -28.6777 64 -64v-384c0 -35.3223 -28.6777 -64 -64 -64h-256c-35.3223 0 -64 28.6777 -64 64v384c0 35.3223 28.6777 64 64 64h256zM352 0v384c0 17.6611 -14.3389 32 -32 32h-105.62 c0.975586 -2.48145 1.5498 -5.19141 1.62012 -8c0 -13.2461 -10.7539 -24 -24 -24s-24 10.7539 -24 24c0.0751953 2.80762 0.648438 5.5166 1.62012 8h-105.62c-17.6611 0 -32 -14.3389 -32 -32v-384c0 -17.6611 14.3389 -32 32 -32h105.62 c-0.967773 2.4834 -1.53809 5.19238 -1.61035 8c0 13.2461 10.7539 24 24 24s24 -10.7539 24 -24c-0.0703125 -2.80859 -0.644531 -5.51855 -1.62012 -8h105.61c17.6611 0 32 14.3389 32 32zM256 352c17.6611 0 32 -14.3389 32 -32v-256c0 -17.6611 -14.3389 -32 -32 -32 h-128c-17.6611 0 -32 14.3389 -32 32v256c0 17.6611 14.3389 32 32 32h128zM256 64v112h-128v-112h128zM256 208v112h-128v-112h128z"/>
    <glyph glyph-name="microwave" unicode="" d="M480 384c17.6611 0 32 -14.3389 32 -32v-320c0 -17.6611 -14.3389 -32 -32 -32h-16l-24 -32h-48l-24 32h-224l-24 -32h-48l-24 32h-16c-17.6611 0 -32 14.3389 -32 32v320c0 17.6611 14.3389 32 32 32h448zM480 32v320h-448v-320h448zM432 192 c-8.83105 0 -16 7.16895 -16 16s7.16895 16 16 16s16 -7.16895 16 -16s-7.16895 -16 -16 -16zM432 256c-8.83105 0 -16 7.16895 -16 16s7.16895 16 16 16s16 -7.16895 16 -16s-7.16895 -16 -16 -16zM96 64c-17.6611 0 -32 14.3389 -32 32v192c0 17.6611 14.3389 32 32 32 h256c17.6611 0 32 -14.3389 32 -32v-192c0 -17.6611 -14.3389 -32 -32 -32h-256zM96 288v-192h256v192h-256z"/>
    <glyph glyph-name="outlet" unicode="" d="M448 448c35.3223 0 64 -28.6777 64 -64v-384c0 -35.3223 -28.6777 -64 -64 -64h-384c-35.3223 0 -64 28.6777 -64 64v384c0 35.3223 28.6777 64 64 64h384zM480 0v384c0 17.6611 -14.3389 32 -32 32h-384c-17.6611 0 -32 -14.3389 -32 -32v-384 c0 -17.6611 14.3389 -32 32 -32h384c17.6611 0 32 14.3389 32 32zM369.85 352c0.0820312 0.000976562 0.162109 0.00488281 0.243164 0.00488281c6.31152 0 12.0293 -2.56348 16.167 -6.70508c38.0303 -39.0098 61.7402 -93.2002 61.7402 -153.3 s-23.7402 -114.29 -61.7402 -153.29c-4.14062 -4.14746 -9.8623 -6.71094 -16.1797 -6.71094c-0.0771484 0 -0.15332 0 -0.230469 0.000976562h-227.699c-0.0771484 -0.000976562 -0.152344 -0.00390625 -0.229492 -0.00390625c-6.31738 0 -12.04 2.56641 -16.1807 6.71387 c-38.0303 39.0098 -61.7402 93.1904 -61.7402 153.29s23.71 114.29 61.7402 153.3c4.1377 4.1416 9.85449 6.70117 16.165 6.70117c0.0820312 0 0.163086 0 0.245117 -0.000976562h227.699zM366.17 64c32.1699 34.4902 49.8301 79.7695 49.8301 128 s-17.6699 93.5195 -49.8301 128h-220.34c-32.1602 -34.4902 -49.8301 -79.7803 -49.8301 -128s17.6602 -93.5098 49.8301 -128h220.34zM192 272c8.83105 0 16 -7.16895 16 -16v-80c0 -8.83105 -7.16895 -16 -16 -16s-16 7.16895 -16 16v80c0 8.83105 7.16895 16 16 16z M256 144c17.6611 0 32 -14.3389 32 -32v-16h-64v16c0 17.6611 14.3389 32 32 32zM320 272c8.83105 0 16 -7.16895 16 -16v-80c0 -8.83105 -7.16895 -16 -16 -16s-16 7.16895 -16 16v80c0 8.83105 7.16895 16 16 16z"/>
    <glyph glyph-name="oven" unicode="" horiz-adv-x="448" d="M384 448c35.3223 0 64 -28.6777 64 -64v-416c0 -17.6611 -14.3389 -32 -32 -32h-384c-17.6611 0 -32 14.3389 -32 32v416c0 35.3223 28.6777 64 64 64h320zM416 -32v320h-384v-320h384zM416 320v64c0 17.6611 -14.3389 32 -32 32h-320c-17.6611 0 -32 -14.3389 -32 -32 v-64h384zM368 384c8.83105 0 16 -7.16895 16 -16s-7.16895 -16 -16 -16s-16 7.16895 -16 16s7.16895 16 16 16zM304 384c8.83105 0 16 -7.16895 16 -16s-7.16895 -16 -16 -16s-16 7.16895 -16 16s7.16895 16 16 16zM144 384c8.83105 0 16 -7.16895 16 -16 s-7.16895 -16 -16 -16s-16 7.16895 -16 16s7.16895 16 16 16zM80 384c8.83105 0 16 -7.16895 16 -16s-7.16895 -16 -16 -16s-16 7.16895 -16 16s7.16895 16 16 16zM80 0c-8.83105 0 -16 7.16895 -16 16v224c0 8.83105 7.16895 16 16 16h288c8.83105 0 16 -7.16895 16 -16 v-224c0 -8.83105 -7.16895 -16 -16 -16h-288zM96 224v-192h256v192h-256zM304 192c8.83105 0 16 -7.16895 16 -16s-7.16895 -16 -16 -16h-160c-8.83105 0 -16 7.16895 -16 16s7.16895 16 16 16h160z"/>
    <glyph glyph-name="planet-moon" unicode="" horiz-adv-x="576" d="M224 384c123.713 0 224 -100.285 224 -224c0 -123.713 -100.287 -224 -224 -224s-224 100.287 -224 224c0 123.715 100.287 224 224 224zM55.0391 245.139c-5.92773 -13.0781 3.16797 -29.1367 18.6816 -29.1367l25.0254 -0.00195312 c11.0391 0 21.0459 -4.47559 28.2871 -11.7168l56.9668 -56.9688v-35.3145c0.015625 -13.2393 10.7607 -23.9844 24 -24h8.04297c-0.0566406 -10.4609 -0.0507812 15.9219 -0.0449219 -55.0684c0.0166016 -4.39648 3.54395 -7.97363 7.91992 -8.07422 c4.18164 0.402344 7.49805 0.861328 10.7832 1.41406c6.60254 1.12012 12.1543 5.34668 15.0625 11.1406l40.3223 64.6484c3.75391 7.53027 5.90332 16.0723 5.91406 25.0488v16.8906c-0.0146484 13.2393 -10.7607 23.9854 -24 24h-64.5469 c-0.0419922 0 -0.0947266 0.000976562 -0.136719 0.000976562c-11.8779 0 -22.6865 4.6123 -30.7324 12.1416c-15.668 14.6074 -15.3281 41.5215 -1.29492 57.707l47.916 55.2656c5.54492 8.65527 8.79492 18.9971 8.79492 30.0303v0.233398 c0 11.0293 -7.57031 20.3887 -24 20.6211c-68.0312 -0.15918 -126.559 -40.6133 -152.961 -98.8613zM224 -32c105.869 0 192 86.1309 192 192c0 94.5078 -68.6973 173.1 -158.742 188.918c4.2373 -7.54102 6.70312 -16.29 6.74219 -25.5391 c0 -0.0283203 -0.0517578 -0.142578 -0.0517578 -0.170898c0 -17.9893 -5.42676 -34.7217 -14.7295 -48.6475l-0.841797 -1.26172l-0.994141 -1.14648l-49.7266 -57.3555c-1.21191 -1.40625 -1.94824 -3.24121 -1.94824 -5.24121 c0 -2.20508 0.891602 -4.2041 2.33301 -5.65527c2.39551 -2.41016 5.71387 -3.90039 9.37695 -3.90039h0.0351562h64.5469c30.8916 -0.0341797 55.9658 -25.1084 56 -56v-16.8906c-0.0175781 -14.1045 -3.39355 -27.5283 -9.29102 -39.3613l-40.3262 -64.6484 c-7.41113 -14.7637 -21.5576 -25.5322 -38.3828 -28.3867c-1.60547 -0.269531 -11.1914 -1.85547 -16.082 -1.85547c-22.043 0.0703125 -39.9199 17.9883 -39.9199 40.0479v0.0244141c-0.00195312 28.0586 -0.00195312 26.7754 0 28.4785 c-18.9258 8.99902 -31.9766 28.2617 -31.998 50.5918v22.0586l-47.5957 47.5977c-1.44043 1.44824 -3.43457 2.34375 -5.63672 2.34375h-0.0214844l-25.0254 0.00195312c-14.7158 0.0527344 -28.0039 6.21875 -37.4355 16.1055 c-2.78906 -12.9746 -4.26953 -26.3086 -4.28516 -40.1074c0 -105.869 86.1309 -192 192 -192zM512 448c35.3223 0 64 -28.6777 64 -64s-28.6777 -64 -64 -64s-64 28.6777 -64 64s28.6777 64 64 64zM512 352c17.6523 0.0205078 31.9795 14.3477 32 32 c0 17.6611 -14.3389 32 -32 32s-32 -14.3389 -32 -32s14.3389 -32 32 -32z"/>
    <glyph glyph-name="planet-ringed" unicode="" d="M500.461 436.64c21.5371 -21.5537 12.9043 -64.7061 -25.7148 -128.264c-7.60742 -12.5176 -16.3301 -25.5791 -25.7891 -38.9365c9.63379 -23.8848 15.0303 -50.0967 15.043 -77.4121c0 -114.888 -93.125 -208.022 -208 -208.022 c-27.1816 0.0166016 -53.2715 5.36621 -77.0586 14.918c-53.2246 -37.9062 -102.344 -62.9229 -136.129 -62.9229c-12.8418 0 -23.4551 3.58203 -31.2734 11.4053c-21.5371 21.5518 -12.9043 64.7041 25.7148 128.262c7.56641 12.4512 16.4238 25.5068 25.8438 38.7969 c-9.66992 23.9268 -15.0859 50.1914 -15.0977 77.5635c0 114.888 93.125 208.022 208 208.022c27.2236 -0.015625 53.3506 -5.37988 77.168 -14.959c73.3613 52.2266 138.916 79.9619 167.293 51.5488zM256 368.046c-97.0469 0 -176 -78.9609 -176 -176.019 c0 -67.8291 38.6211 -126.713 94.9707 -156.091c37.1758 27.5908 79.9277 63.9873 126.492 110.592c42.6895 42.7178 80.2246 86.2178 110.42 126.934c-29.4434 56.1445 -88.2168 94.584 -155.883 94.584zM34.2715 -29.8477 c9.11523 -9.04004 50.4219 4.10742 111.918 45.4404c-27.0645 16.8857 -49.6367 39.4453 -66.5371 66.501c-5.32031 -7.87598 -10.3555 -15.623 -14.9258 -23.1416c-36.9863 -60.8555 -34.5371 -84.7334 -30.4551 -88.7998zM432 192.027 c-0.0527344 15.9551 -2.2666 31.3789 -6.32227 46.0635c-28.8926 -37.207 -63.375 -76.1758 -101.482 -114.307c-36.375 -36.4102 -75.6484 -71.6133 -113.941 -101.533c14.5898 -4.00391 29.9043 -6.18848 45.7461 -6.24219c97.0469 0 176 78.9609 176 176.019z M366.012 368.339c26.8535 -16.7959 49.2695 -39.1758 66.1074 -66.001c5.10938 7.61621 10.7246 15.4648 15.1543 22.752c36.9863 60.8564 34.5371 84.7344 30.4551 88.8027c-1.82031 1.80664 -4.92969 2.74805 -9.23047 2.74805 c-17.1035 0 -53.4863 -15.374 -102.486 -48.3018z"/>
    <glyph glyph-name="police-box" unicode="" horiz-adv-x="384" d="M97.5996 112c-5.29785 0.000976562 -9.59863 4.30176 -9.59961 9.59961v76.8008c0.000976562 5.29785 4.30176 9.59863 9.59961 9.59961h76.8008c5.29785 -0.000976562 9.59863 -4.30176 9.59961 -9.59961v-76.8008 c-0.000976562 -5.29785 -4.30176 -9.59863 -9.59961 -9.59961h-76.8008zM112 184v-48h48v48h-48zM97.5996 0c-5.29785 0.000976562 -9.59863 4.30176 -9.59961 9.59961v76.8008c0.000976562 5.29785 4.30176 9.59863 9.59961 9.59961h76.8008 c5.29785 -0.000976562 9.59863 -4.30176 9.59961 -9.59961v-76.8008c-0.000976562 -5.29785 -4.30176 -9.59863 -9.59961 -9.59961h-76.8008zM112 72v-48h48v48h-48zM209.6 0c-5.29785 0.000976562 -9.59863 4.30176 -9.59961 9.59961v76.8008 c0.000976562 5.29785 4.30176 9.59863 9.59961 9.59961h76.8008c5.29785 -0.000976562 9.59863 -4.30176 9.59961 -9.59961v-76.8008c-0.000976562 -5.29785 -4.30176 -9.59863 -9.59961 -9.59961h-76.8008zM224 72v-48h48v48h-48zM97.5996 224 c-5.29785 0.000976562 -9.59863 4.30176 -9.59961 9.59961v76.8008c0.000976562 5.29785 4.30176 9.59863 9.59961 9.59961h76.8008c5.29785 -0.000976562 9.59863 -4.30176 9.59961 -9.59961v-76.8008c-0.000976562 -5.29785 -4.30176 -9.59863 -9.59961 -9.59961h-76.8008 zM140 296v-20h20v20h-20zM140 268v-20h20v20h-20zM112 296v-20h20v20h-20zM112 268v-20h20v20h-20zM209.6 224c-5.29785 0.000976562 -9.59863 4.30176 -9.59961 9.59961v76.8008c0.000976562 5.29785 4.30176 9.59863 9.59961 9.59961h76.8008 c5.29785 -0.000976562 9.59863 -4.30176 9.59961 -9.59961v-76.8008c-0.000976562 -5.29785 -4.30176 -9.59863 -9.59961 -9.59961h-76.8008zM252 296v-20h20v20h-20zM252 268v-20h20v20h-20zM224 296v-20h20v20h-20zM224 268v-20h20v20h-20zM209.6 112 c-5.29785 0.000976562 -9.59863 4.30176 -9.59961 9.59961v76.8008c0.000976562 5.29785 4.30176 9.59863 9.59961 9.59961h76.8008c5.29785 -0.000976562 9.59863 -4.30176 9.59961 -9.59961v-76.8008c-0.000976562 -5.29785 -4.30176 -9.59863 -9.59961 -9.59961h-76.8008 zM224 184v-48h48v48h-48zM376 -32c4.41504 0 8 -3.58496 8 -8v-16c0 -4.41504 -3.58496 -8 -8 -8h-368c-4.41504 0 -8 3.58496 -8 8v16c0 4.41504 3.58496 8 8 8h24v392c0 13.2461 10.7539 24 24 24h8v16c0 8.83008 7.16992 16 16 16h96v16c0 8.83105 7.16895 16 16 16 s16 -7.16895 16 -16v-16h95.9785c8.83008 0 16 -7.16992 16 -16v-16h8.02148c13.2461 0 24 -10.7539 24 -24v-392h24zM320 -32v384h-256v-384h256z"/>
    <glyph glyph-name="portal-enter" unicode="" d="M448 448c62.2188 0 64 -229.797 64 -256s-1.78125 -256 -64 -256c-38.2852 0 -53.6484 86.957 -59.832 160h31.9355c6.43555 -72.1406 19.1406 -114.83 27.8965 -126.125c12.125 15.6406 32 90.5781 32 222.125s-19.875 206.484 -32 222.125 c-10.959 -14.1367 -28.0215 -77.4609 -31.2402 -186.516c18.3994 -8.00098 31.2412 -26.3203 31.2412 -47.6494c0 -28.6777 -23.2822 -51.96 -51.96 -51.96h-0.0410156h-28.9062c-6.62598 0.000976562 -13.0273 0.765625 -19.2188 2.20312 c9.53418 -13.6426 15.1631 -30.3008 15.1631 -48.1914c0 -7.94336 -1.10254 -15.6309 -3.16309 -22.918l-24.375 -85.4062c-6.29688 -21.7021 -26.2979 -37.6064 -50 -37.6875c-4.96289 0.00878906 -9.75781 0.710938 -14.3125 2 c-21.7441 6.24609 -37.6729 26.2783 -37.6729 50.0195c0 4.9502 0.692383 9.74023 1.98535 14.2773l19.625 68.7344l-43.6875 19.625l-19.3125 -39.7344c-12.8086 -29.9629 -42.5215 -50.9219 -77.1455 -50.9219h-0.0732422h-62.9062c-28.6992 0 -52 23.3008 -52 52 s23.3008 52 52 52h49.75l58.875 131.453l-18.9375 -9.84375c-7.55859 -4.28516 -16.4053 -6.79883 -25.707 -6.79883c-28.7051 0 -52.0107 23.3057 -52.0107 52.0107c0 18.9346 10.1396 35.5195 25.2803 44.6162l46.1875 24.0625 c16.9248 10.1152 36.7773 15.9941 57.9111 15.9941c9.24609 0 18.2354 -1.11328 26.8389 -3.21289c-2.66309 7.40527 -4.15137 15.4092 -4.1875 23.7188c0 39.7383 32.2617 72 72 72s72 -32.2617 72 -72c0 -24.7344 -13 -45.9062 -32.0625 -58.8438 c20.3125 -14.0312 36.375 -33.7188 44.5 -58.0312l9.03125 -27.125h3.35547c2.65039 73.2129 14.0723 216 63.1758 216zM288 416c-22.0752 0 -40 -17.9248 -40 -40c0 -22.0762 17.9238 -40 40 -40s40 17.9238 40 40s-17.9238 40 -40 40zM162.688 63.5156l19.9375 41.2188 c-12.6221 7.64746 -22.9092 18.4199 -29.9688 31.4219l-26.7188 -56.875c-1.83203 -4.28418 -6.08008 -7.28125 -11.0312 -7.28125h-62.9062c-11.0381 0 -20 -8.96191 -20 -20s8.96191 -20 20 -20h62.9375c18.9375 0 40.3125 14.125 47.75 31.5156zM396 160 c11.0381 0 20 8.96191 20 20s-8.96191 20 -20 20h-28.9375c-0.00195312 0 -0.000976562 -0.00195312 -0.00390625 -0.00195312c-5.29297 0 -9.78906 3.44043 -11.3711 8.20508l-13.5938 40.7969c-8.94629 27.0713 -31.3799 48.0166 -59.3125 54.9219l-68.1875 17.0469 c-6.57715 1.6416 -13.4199 2.52344 -20.5 2.53125c-15.7324 -0.0107422 -30.5469 -4.41895 -43.125 -11.9844l-45.25 -23.5312c-5.82129 -3.49805 -9.69824 -9.8623 -9.69824 -17.1416c0 -11.0381 8.96191 -19.999 19.999 -19.999h0.0117188 c3.69629 0.154297 7.21387 1.17578 10.2812 2.84375l45.25 23.5156c6.54883 3.9834 14.2822 6.30762 22.5 6.3125c3.59375 0 20.5 -3.78125 20.5 -3.78125l-37.75 -87.5625c-1.63477 -5.05273 -2.5752 -10.4229 -2.5752 -16.0166 c0 -17.1387 8.29004 -32.3564 21.0752 -41.8584c2.90625 -2.125 84.542 -39.2695 88.7188 -41.1719s7.07031 -6.10547 7.07031 -10.9902c0 -1.12891 -0.155273 -2.22266 -0.445312 -3.25977l-24.4062 -85.375c-7.34375 -25.7402 31.2441 -36.3779 38.4688 -11 l24.4062 85.375c1.26172 4.49805 1.98828 9.20312 1.98828 14.1016c0 21.1572 -12.5879 39.3965 -30.6758 47.6328l-52.7812 23.7188l41.4688 103.688c6.90332 -5.17871 12.1631 -12.3408 15 -20.6719l13.5938 -40.7969c6.53125 -19.625 28.625 -35.5469 49.3125 -35.5469 h28.9688z"/>
    <glyph glyph-name="portal-exit" unicode="" d="M460 232c28.6992 0 52 -23.3008 52 -52s-23.3008 -52 -52 -52h-28.9062c-6.62598 0.000976562 -13.0273 0.765625 -19.2188 2.20312c9.53418 -13.6426 15.1631 -30.3008 15.1631 -48.1914c0 -7.94336 -1.10254 -15.6309 -3.16309 -22.918l-24.375 -85.4062 c-6.29688 -21.7021 -26.2979 -37.6064 -50 -37.6875c-4.96289 0.00878906 -9.75781 0.710938 -14.3125 2c-21.7441 6.24609 -37.6729 26.2783 -37.6729 50.0195c0 4.9502 0.692383 9.74023 1.98535 14.2773l19.625 68.7344l-43.6875 19.625l-19.3125 -39.7344 c-12.8086 -29.9629 -42.5215 -50.9219 -77.1455 -50.9219h-0.0732422h-56.8242c-11.0918 -37.5508 -27.1348 -64 -50.082 -64c-56.8438 0 -72 160.922 -72 256s15.1562 256 72 256c37.7969 0 57.0977 -71.1777 65.832 -146.807 c4.12207 5.77148 9.32031 10.5791 15.418 14.2441l46.1875 24.0625c16.9248 10.1152 36.7773 15.9941 57.9111 15.9941c9.24609 0 18.2354 -1.11328 26.8389 -3.21289c-2.66309 7.40527 -4.15137 15.4092 -4.1875 23.7188c0 39.7383 32.2617 72 72 72s72 -32.2617 72 -72 c0 -24.7344 -13 -45.9062 -32.0625 -58.8438c20.3125 -14.0312 36.375 -33.7188 44.5 -58.0312l9.03125 -27.125h14.5312zM352 416c-22.0752 0 -40 -17.9248 -40 -40c0 -22.0762 17.9238 -40 40 -40s40 17.9238 40 40s-17.9238 40 -40 40zM72.6562 -32.0938 c4.92188 2.0957 11.8203 15.4629 18.4746 38.7168c-16.1846 8.76953 -27.1348 25.874 -27.1348 45.5596c0 28.5986 23.2188 51.8174 51.8174 51.8174h0.186523h49.75l58.875 131.453l-18.9375 -9.84375c-7.5293 -4.28516 -16.2949 -6.77734 -25.5703 -6.77734 c-14.542 0 -27.6895 6.01855 -37.0859 15.6973c0.644531 -15.0117 0.96875 -29.4258 0.96875 -42.5293c0 -14.6797 -0.417969 -31.0156 -1.23828 -48h-31.9082c0.728516 15.1504 1.14648 31.1387 1.14648 48c0 134.672 -25.6562 216.047 -40 223.781 c-14.3438 -7.73438 -40 -89.1094 -40 -223.781c0 -136.797 26.4688 -218.609 40.6562 -224.094zM226.688 63.5156l19.9375 41.2188c-12.6221 7.64746 -22.9092 18.4199 -29.9688 31.4219l-26.7188 -56.875c-1.83203 -4.28418 -6.08008 -7.28125 -11.0312 -7.28125h-62.9062 c-11.0381 0 -20 -8.96191 -20 -20s8.96191 -20 20 -20h62.9375c18.9375 0 40.3125 14.125 47.75 31.5156zM460 160c11.0381 0 20 8.96191 20 20s-8.96191 20 -20 20h-28.9375c-0.00195312 0 -0.000976562 -0.00195312 -0.00390625 -0.00195312 c-5.29297 0 -9.78809 3.44043 -11.3711 8.20508l-13.5938 40.7969c-8.94629 27.0713 -31.3799 48.0166 -59.3125 54.9219l-68.1875 17.0469c-6.57715 1.6416 -13.4199 2.52344 -20.5 2.53125c-15.7324 -0.0107422 -30.5469 -4.41895 -43.125 -11.9844l-45.25 -23.5312 c-5.82129 -3.49805 -9.69824 -9.8623 -9.69824 -17.1416c0 -11.0381 8.96191 -19.999 19.999 -19.999h0.0117188c3.69629 0.154297 7.21387 1.17578 10.2812 2.84375l45.25 23.5156c6.54883 3.9834 14.2822 6.30762 22.5 6.3125c3.59375 0 20.5 -3.78125 20.5 -3.78125 l-37.75 -87.5625c-1.63477 -5.05273 -2.5752 -10.4229 -2.5752 -16.0166c0 -17.1387 8.29004 -32.3564 21.0752 -41.8584c2.90625 -2.125 84.542 -39.2695 88.7188 -41.1719s7.07031 -6.10547 7.07031 -10.9902c0 -1.12891 -0.155273 -2.22266 -0.445312 -3.25977 l-24.4062 -85.375c-0.498047 -1.74609 -0.763672 -3.58203 -0.763672 -5.4873c0 -9.13867 6.13867 -16.8555 14.5137 -19.2471c1.75098 -0.494141 3.59277 -0.762695 5.5 -0.765625l0.00292969 0.00390625c9.12598 0 16.8311 6.13184 19.2158 14.4961l24.4062 85.375 c1.26172 4.49805 1.98828 9.20312 1.98828 14.1016c0 21.1572 -12.5879 39.3965 -30.6758 47.6328l-52.7812 23.7188l41.4688 103.688c6.90332 -5.17871 12.1631 -12.3408 15 -20.6719l13.5938 -40.7969c6.53125 -19.625 28.625 -35.5469 49.3125 -35.5469h28.9688z"/>
    <glyph glyph-name="radar" unicode="" d="M503.996 183.808c-4.32422 -133.175 -113.672 -239.808 -247.932 -239.808c-142.637 0 -257.156 120.354 -247.495 265.025c8.21387 122.999 108.148 222.498 231.195 230.447c69.1289 4.46582 132.34 -19.7188 179.77 -61.4219l35.6152 35.6055 c1.44922 1.44824 3.44922 2.34473 5.65723 2.34473c2.20898 0 4.21094 -0.896484 5.66016 -2.34473l11.3135 -11.3125c1.44824 -1.44824 2.34375 -3.44824 2.34375 -5.65527c0 -2.20801 -0.896484 -4.20996 -2.34473 -5.6582l-212.742 -212.687 c-1.44824 -1.44824 -3.44922 -2.34473 -5.65723 -2.34473s-4.21094 0.896484 -5.66016 2.34473l-11.3135 11.3105c-1.44824 1.44824 -2.34473 3.44824 -2.34473 5.65625s0.896484 4.20996 2.34473 5.6582l45.8955 45.8828 c-9.38379 5.72559 -20.4648 9.08691 -32.2373 9.14844c-35.335 0 -64.0215 -28.6875 -64.0215 -64.0215c0 -35.335 28.6865 -64.0225 64.0215 -64.0225c32.9453 0 60.1094 25.0049 63.6328 57.0176c0.448242 3.94727 3.80273 7.01855 7.86914 7.01855 c0.00878906 0 0.0175781 0.0078125 0.0263672 0.0078125h16.0869c4.44238 -0.0166016 8.04395 -3.62891 8.04395 -8.07422c0 -0.254883 -0.0117188 -0.499023 -0.0341797 -0.748047c-4.51855 -48.8115 -45.6338 -87.082 -95.6172 -87.082 c-53 0 -96.0293 43.0293 -96.0293 96.0293c0 0.640625 0.00292969 1.15137 0.015625 1.78906c0.93457 47.9912 38.8203 88.7041 86.584 93.6016c24.4512 2.50684 46.5586 -4.9082 64.5283 -17.8008l34.0566 34.0488c-24.5938 19.75 -55.2344 32.2363 -89.1631 32.2363 c-70.7354 0 -129.41 -51.3359 -141.47 -118.635c7.94043 -5.82422 13.4365 -14.7637 13.4365 -25.3652c0 -10.5996 -5.49609 -19.541 -13.4365 -25.3652c10.6279 -58.8633 57.2295 -105.455 116.098 -116.068c5.82617 7.93945 14.7676 13.4336 25.3721 13.4336 s19.5459 -5.49414 25.3721 -13.4336c64.8359 11.6123 114.859 66.457 118.457 133.668c0.154297 4.28418 3.66113 7.72461 7.97266 7.76562h16.0312h0.0546875c4.40137 0 7.97363 -3.57324 7.97363 -7.97363c0 -0.0820312 -0.00195312 -0.160156 -0.00390625 -0.241211 c-3.84961 -83.6455 -66.1797 -151.876 -147.027 -165.225c-4.98438 -10.959 -16.0312 -18.5869 -28.8467 -18.5869c-12.8145 0 -23.8301 7.62793 -28.8135 18.5869c-73.8408 12.2725 -132.363 70.7832 -144.654 144.617c-10.9609 4.97852 -18.5918 16.0254 -18.5918 28.8398 s7.63086 23.8281 18.5918 28.8066c13.7871 83.459 86.1006 147.176 173.484 147.176c42.8271 0 81.5586 -15.9082 112.062 -41.3438l28.6553 28.6484c-37.8516 32.6699 -86.9033 52.6953 -140.718 52.6953c-127.271 0 -229.19 -110.583 -214.677 -240.688 c11.0547 -99.0908 90.8604 -178.877 189.977 -189.932c127.464 -14.2158 236.196 83.2402 240.616 206.801c0.0996094 4.31445 3.62012 7.79199 7.95215 7.81934h16.0117h0.0263672c4.43066 0 8.02734 -3.59668 8.02734 -8.02734 c0 -0.0556641 -0.000976562 -0.109375 -0.00195312 -0.165039z"/>
    <glyph glyph-name="raygun" unicode="" horiz-adv-x="576" d="M112 288.003c8.83008 0 16 -7.16992 16 -16c0 -8.83105 -7.16895 -16 -16 -16s-16 7.16895 -16 16s7.16895 16 16 16zM552.844 350.301c2.14746 1.07031 4.58398 1.68262 7.14551 1.68262c8.83008 0 16.001 -7.16504 16.0107 -15.9932v-127.989 c-0.00976562 -8.8291 -7.19629 -15.9844 -16.0273 -15.9844c-2.56055 0 -4.98145 0.602539 -7.12891 1.67285l-96 48.0439c-5.25 2.61914 -8.84375 8.03418 -8.84375 14.2949v0.015625v-0.0410156h-32v-80.001c0 -8.83008 -7.16895 -16 -16 -16s-16 7.16992 -16 16v80.001 h-32v-112.001c0 -8.83105 -7.16895 -16 -16 -16s-16 7.16895 -16 16v49.7852c-4.81738 -4.8877 -9.9834 -9.25391 -15.623 -13.1992l-127.316 -220.531c-8.26855 -14.4004 -23.8223 -24.0264 -41.6055 -24.0264c-8.7373 0 -16.9316 2.34375 -23.9883 6.43652 l-55.4062 31.9922c-14.3955 8.27441 -24.0166 23.8281 -24.0166 41.6094c0 8.72949 2.33887 16.917 6.42285 23.9697l69.5254 120.37c-59.9609 2.16992 -107.992 51.1182 -107.992 111.595c0 0.00878906 -0.0107422 0.0371094 -0.0107422 0.0449219 c0 30.4189 12.2061 58.0098 31.9834 78.1377l0.0273438 81.8193c0 0.00195312 0.0126953 -0.00390625 0.0126953 -0.00195312c0 8.83008 7.16895 15.999 15.999 15.999c2.30859 0 4.50488 -0.490234 6.48828 -1.37207l140.906 -62.626h44.5742 c0.0126953 0 0.0332031 0.0234375 0.0458984 0.0234375c31.3506 0 59.6982 -12.959 79.9736 -33.8086v49.7852c0 8.83105 7.16895 16 16 16s16 -7.16895 16 -16v-112.001h32v80.001c0 8.83105 7.16895 16 16 16s16 -7.16895 16 -16v-80.001h32v-0.00976562 c0.0078125 6.2627 3.59766 11.6807 8.84375 14.3125zM64 407.395l-0.015625 -34.5957c14.4932 7.05957 30.8623 11.1182 48.0352 11.2051h4.59375zM149.357 -23.9316l106.191 183.941h-15.4902c-0.0273438 0 -0.0507812 -0.0078125 -0.078125 -0.0078125h-95.2695 l-78.5332 -135.962c-1.37207 -2.35352 -2.18457 -5.09668 -2.18457 -8.01562c0 -5.94043 3.25781 -11.127 8.08301 -13.8672l55.3945 -31.9873c2.35547 -1.37891 5.10352 -2.19629 8.02734 -2.19629c5.94238 0 11.127 3.26367 13.8594 8.09473zM239.98 192.002 c44.1533 0 80.001 35.8477 80.001 80.001s-35.8477 80.001 -80.001 80.001h-127.961c-44.1533 0 -80.001 -35.8477 -80.001 -80.001s35.8477 -80.001 80.001 -80.001h127.961zM544 233.905v76.1953l-64 -31.9961v-12.1719zM176 288.003c8.83008 0 16 -7.16992 16 -16 c0 -8.83105 -7.16895 -16 -16 -16s-16 7.16895 -16 16s7.16895 16 16 16zM240 288.003c8.83008 0 16 -7.16992 16 -16c0 -8.83105 -7.16895 -16 -16 -16s-16 7.16895 -16 16s7.16895 16 16 16z"/>
    <glyph glyph-name="refrigerator" unicode="" horiz-adv-x="384" d="M336 448c26.4922 0 48 -21.5078 48 -48v-416c0 -26.4922 -21.5078 -48 -48 -48h-288c-26.4922 0 -48 21.5078 -48 48v416c0 26.4922 21.5078 48 48 48h288zM352 -16v272h-64v-184c0 -4.41504 -3.58496 -8 -8 -8h-16c-4.41504 0 -8 3.58496 -8 8v184h-224v-272 c0 -8.83105 7.16895 -16 16 -16h288c8.83105 0 16 7.16895 16 16zM352 288v112c0 8.83105 -7.16895 16 -16 16h-288c-8.83105 0 -16 -7.16895 -16 -16v-112h224v56c0 4.41504 3.58496 8 8 8h16c4.41504 0 8 -3.58496 8 -8v-56h64z"/>
    <glyph glyph-name="rocket-launch" unicode="" d="M368.059 359.971c30.8965 -0.0136719 55.9795 -25.0967 55.9922 -55.9941c0 -30.9043 -25.0879 -55.9961 -55.9922 -55.9961c-30.9053 0 -55.9951 25.0908 -55.9951 55.9951s25.0898 55.9951 55.9951 55.9951zM368.059 279.979 c13.2373 0.0146484 23.9824 10.7598 23.9961 23.998c0 13.2451 -10.752 23.998 -23.9961 23.998c-13.2451 0 -23.998 -10.7529 -23.998 -23.998s10.7529 -23.998 23.998 -23.998zM505.166 428.705c6.9082 -32.1016 6.9082 -57.25 6.81641 -82.3984 c0 -102.678 -55.4141 -164.768 -127.98 -211.074v-104.43c0 -16.2773 -11.9102 -35.5547 -26.4668 -42.8398l-98.7168 -49.4004c-3.27246 -1.47949 -6.91309 -2.375 -10.7012 -2.51562c-13.2432 0.00390625 -23.9941 10.7549 -23.9961 23.998v103.99 c0 52.9766 -43.0098 95.9893 -95.9863 95.9902h-103.922c-13.2422 0.00488281 -23.9922 10.7559 -23.9961 23.998c0.136719 3.79004 1.03223 7.43164 2.51562 10.7031l49.4062 98.7891c7.28906 14.5742 26.584 26.4961 42.877 26.4961h104.172 c46.1953 72.791 108.076 127.988 211.264 127.988c25.0371 0 50.1816 0 82.2676 -6.86133c5.46289 -1.16797 11.2715 -6.9707 12.4473 -12.4336zM37.1543 192.023c23.8633 0 93.9336 -0.400391 95.4531 -0.453125l-0.0664062 0.453125 c15.8418 31.9961 33.6191 67.9316 47.5547 95.9922h-85.0801c-4.14453 0 -12.4082 -5.10547 -14.2598 -8.81055zM352.006 30.8027v85.2871l-0.125 0.00195312c-28.0566 -13.9512 -63.8633 -31.7148 -95.8594 -47.541l-0.367188 0.046875 c0.0566406 -1.54883 0.460938 -71.707 0.460938 -95.6094l87.1016 43.5898c3.69727 1.84961 8.78906 10.0938 8.78906 14.2246zM249.928 101.316c103.08 51.5293 230.059 100.02 230.059 244.99c0.0761719 21.125 0.150391 41.1328 -4.11523 65.5098 c-24.123 4.1875 -44.2559 4.1875 -65.4199 4.1875c-145.389 0 -193.131 -126.146 -245.158 -230.133c40.3721 -12.3613 72.2363 -44.1982 84.6348 -84.5547zM102.434 128.029c24.7891 0 48.4258 -10.4141 63.3672 -25.4297 c51.0879 -51.3438 37.8164 -163.029 -133.801 -166.367v-0.232422h-32v32h0.167969c1.86328 120.682 54.1855 160.029 102.266 160.029zM155.348 18.6309c9.30078 22.5664 0.707031 48.4258 -12.1035 61.2988c-9.69531 9.74414 -25.7148 16.0391 -40.8105 16.0391 c-71.5723 0 -70.3887 -124.334 -70.4531 -127.889c65.7305 1.12109 110.531 19.4023 123.367 50.5508z"/>
    <glyph glyph-name="sensor" unicode="" horiz-adv-x="448" d="M384 416c35.3223 0 64 -28.6777 64 -64v-320c0 -35.3223 -28.6777 -64 -64 -64h-320c-35.3223 0 -64 28.6777 -64 64v320c0 35.3223 28.6777 64 64 64h320zM416 32v320c0 17.6611 -14.3389 32 -32 32h-320c-17.6611 0 -32 -14.3389 -32 -32v-320 c0 -17.6611 14.3389 -32 32 -32h320c17.6611 0 32 14.3389 32 32zM112 320c8.83105 0 16 -7.16895 16 -16v-128c0 -8.83105 -7.16895 -16 -16 -16s-16 7.16895 -16 16v128c0 8.83105 7.16895 16 16 16zM176 320c8.83105 0 16 -7.16895 16 -16v-128 c0 -8.83105 -7.16895 -16 -16 -16s-16 7.16895 -16 16v128c0 8.83105 7.16895 16 16 16zM240 320c8.83105 0 16 -7.16895 16 -16v-128c0 -8.83105 -7.16895 -16 -16 -16s-16 7.16895 -16 16v128c0 8.83105 7.16895 16 16 16z"/>
    <glyph glyph-name="sensor-alert" unicode="" horiz-adv-x="640" d="M629.89 79.7402c6.31934 -10.9424 9.98438 -23.7168 9.98438 -37.25c0 -41.1123 -33.3779 -74.4902 -74.4902 -74.4902h-0.0634766h-234.641c-0.0205078 0 0.00585938 0.0800781 -0.0146484 0.0800781c-41.1123 0 -74.4902 33.3779 -74.4902 74.4893 c0 13.5332 3.61621 26.2285 9.93555 37.1709l117.319 203c12.9033 22.3057 36.9277 37.3271 64.5283 37.3271c27.5996 0 51.7197 -15.0215 64.6221 -37.3271zM565.32 0c32.7598 0 53.25 35.4004 36.8799 63.7305l-117.32 203 c-7.37207 12.7314 -21.0898 21.3047 -36.8477 21.3047c-15.7588 0 -29.5303 -8.57324 -36.9023 -21.3047l-117.33 -203c-16.3701 -28.3301 4.12012 -63.7305 36.8799 -63.7305h234.641zM448 79.8301c11.0381 0 20 -8.96191 20 -20s-8.96191 -20 -20 -20s-20 8.96191 -20 20 s8.96191 20 20 20zM462 199.57c5.51953 0 10.001 -4.4707 10.001 -9.99023c0 -0.34082 -0.0175781 -0.677734 -0.0507812 -1.00977l-8 -79.8203c-0.506836 -5.0459 -4.77246 -9 -9.9502 -9h-11.9004c-5.17773 0 -9.44238 3.9541 -9.94922 9l-8 79.8203 c-0.0341797 0.332031 -0.0507812 0.65918 -0.0507812 1c0 5.51855 4.48145 10 10 10h27.9004zM233.86 0c1.56934 -3.5498 2.46973 -7.26953 4.44922 -10.6904c4.51953 -7.80078 9.90723 -14.8945 16.1602 -21.3096h-190.47c-35.3223 0 -64 28.6777 -64 64v320 c0 35.3223 28.6777 64 64 64h320c35.3223 0 64 -28.6777 64 -64c-11.1416 -0.0439453 -21.8984 -1.80762 -32 -5v5c0 17.6611 -14.3389 32 -32 32h-320c-17.6611 0 -32 -14.3389 -32 -32v-320c0 -17.6611 14.3389 -32 32 -32h169.86zM224 304c0 8.83105 7.16895 16 16 16 s16 -7.16895 16 -16v-128c0 -8.83105 -7.16895 -16 -16 -16s-16 7.16895 -16 16v128zM160 304c0 8.83105 7.16895 16 16 16s16 -7.16895 16 -16v-128c0 -8.83105 -7.16895 -16 -16 -16s-16 7.16895 -16 16v128zM96 304c0 8.83105 7.16895 16 16 16s16 -7.16895 16 -16v-128 c0 -8.83105 -7.16895 -16 -16 -16s-16 7.16895 -16 16v128z"/>
    <glyph glyph-name="sensor-fire" unicode="" horiz-adv-x="640" d="M544 293.56c7.70996 -6.96973 96 -88.6494 96 -165.56c0 -88.2197 -71.7803 -160 -160 -160s-160 71.7803 -160 160c0 15.9502 5.57031 90.5303 124 197.56c13.5898 -12.2393 38.2402 -33.7695 64.5898 -66.0596c13.4902 14.5 22.6602 22.5 35.4102 34.0596zM480 0 c70.6123 0.0712891 127.929 57.3877 128 128c0 24.2803 -24.6602 80.9404 -64.1602 121.88c-8.25 -8.09961 -16.2197 -16.6602 -23.75 -25.6602l-13 -15.5l-12.0898 16.2207c-15.499 20.5938 -32.3379 39.4668 -51 57.1797c-53.1201 -51.4004 -92 -115.87 -92 -154.12 c0.0712891 -70.6123 57.3877 -127.929 128 -128zM160 304c0 8.83105 7.16895 16 16 16s16 -7.16895 16 -16v-128c0 -8.83105 -7.16895 -16 -16 -16s-16 7.16895 -16 16v128zM64 0h273.3c10.9102 -12.2295 23.1289 -22.8633 36.7998 -32h-310.1 c-35.3223 0 -64 28.6777 -64 64v320c0 35.3223 28.6777 64 64 64h320c30.165 -0.0371094 55.46 -21.0557 62.1104 -49.21c-27.6807 -20.54 -21.6406 -15.75 -30.1104 -23.4004v8.61035c0 17.6611 -14.3389 32 -32 32h-320c-17.6611 0 -32 -14.3389 -32 -32v-320 c0 -17.6611 14.3389 -32 32 -32zM224 304c0 8.83105 7.16895 16 16 16s16 -7.16895 16 -16v-128c0 -8.83105 -7.16895 -16 -16 -16s-16 7.16895 -16 16v128zM96 304c0 8.83105 7.16895 16 16 16s16 -7.16895 16 -16v-128c0 -8.83105 -7.16895 -16 -16 -16 s-16 7.16895 -16 16v128zM524.11 191c24.5693 -39.3301 24.6299 -39.2402 27.8398 -45.2305c18.7695 -34.8291 8.85938 -77.46 -23.0801 -99.1895c-13.5303 -9.17188 -29.9287 -14.5801 -47.4912 -14.5801h-0.279297c-47.0195 0 -82.4697 34 -82.4697 79 c0 31.1602 18.7705 50 59.6504 97.6104c28.5293 -32.0703 22.6797 -25.1006 39.8896 -46.3604zM481.11 64c32.9502 0 65.1895 31 38.3398 74.0703l-22.6201 -25.0703s-35.4404 44 -38.1104 47c-18.71 -21.75 -28.0801 -34.5195 -28.0801 -49 c0 -29.0996 22.6406 -47 50.4707 -47z"/>
    <glyph glyph-name="sensor-on" unicode="" horiz-adv-x="640" d="M528 304c-8.83008 0 -16.0186 7.16016 -16.0186 15.9902c0 6.26562 3.6084 11.6943 8.8584 14.3193l64 32c2.15137 1.07617 4.6084 1.7002 7.17578 1.7002c8.83398 0 16.0059 -7.17188 16.0059 -16.0059c0 -6.2666 -3.60938 -11.6973 -8.86133 -14.3242l-64 -32 c-2.1543 -1.06738 -4.5957 -1.67773 -7.16016 -1.67969zM624 208c8.83105 0 16 -7.16895 16 -16s-7.16895 -16 -16 -16h-96c-8.83105 0 -16 7.16895 -16 16s7.16895 16 16 16h96zM384 416c35.3223 0 64 -28.6777 64 -64v-320c0 -35.3223 -28.6777 -64 -64 -64h-320 c-35.3223 0 -64 28.6777 -64 64v320c0 35.3223 28.6777 64 64 64h320zM416 32v320c0 17.6611 -14.3389 32 -32 32h-320c-17.6611 0 -32 -14.3389 -32 -32v-320c0 -17.6611 14.3389 -32 32 -32h320c17.6611 0 32 14.3389 32 32zM112 320c8.83105 0 16 -7.16895 16 -16v-128 c0 -8.83105 -7.16895 -16 -16 -16s-16 7.16895 -16 16v128c0 8.83105 7.16895 16 16 16zM176 320c8.83105 0 16 -7.16895 16 -16v-128c0 -8.83105 -7.16895 -16 -16 -16s-16 7.16895 -16 16v128c0 8.83105 7.16895 16 16 16zM240 320c8.83105 0 16 -7.16895 16 -16v-128 c0 -8.83105 -7.16895 -16 -16 -16s-16 7.16895 -16 16v128c0 8.83105 7.16895 16 16 16zM599.16 46.2998c5.25195 -2.62695 8.83008 -8.03809 8.83008 -14.3057c0 -8.83398 -7.17188 -16.0059 -16.0059 -16.0059c-2.56641 0 -4.99316 0.605469 -7.14453 1.68164l-64 32 c-5.25195 2.62695 -8.83008 8.03906 -8.83008 14.3057c0 8.83398 7.17188 16.0059 16.0059 16.0059c2.56641 0 4.99316 -0.605469 7.14453 -1.68164z"/>
    <glyph glyph-name="sensor-smoke" unicode="" horiz-adv-x="640" d="M586.25 154.39c31.9473 -16.3174 53.7461 -49.4922 53.7461 -87.7998c0 -54.4131 -44.1768 -98.5898 -98.5908 -98.5898h-0.0751953h-186.66c-0.00585938 0 -0.0273438 -0.0253906 -0.0332031 -0.0253906c-54.458 0 -98.6699 44.2129 -98.6699 98.6699 c0 43.6211 28.3662 80.668 67.6436 93.6855c6.70898 47.9463 47.9385 85.0186 97.7217 85.0186c27.8916 0 53.0947 -11.5967 71.0479 -30.2285c6.99316 2.29199 14.4678 3.5498 22.2227 3.5498h0.0673828c37.082 -0.0488281 67.6465 -28.2266 71.5801 -64.2803zM541.33 0 c0.0283203 0 -0.00976562 0.00195312 0.0185547 0.00195312c36.7295 0 66.5498 29.8203 66.5498 66.5498c0 33.1436 -24.2803 60.6602 -56.0088 65.7178c1.79004 4.52734 2.80664 9.51367 2.80664 14.6738c0 21.9824 -17.8467 39.8301 -39.8301 39.8301 c-12.8936 0 -24.3652 -6.14062 -31.6465 -15.6533c-9.72363 24.7422 -33.8086 42.2881 -61.9834 42.2881c-36.7578 0 -66.6006 -29.8428 -66.6006 -66.6006c0 -4.66211 0.480469 -9.21387 1.39453 -13.6074c-0.459961 0.00976562 -0.900391 0.129883 -1.36035 0.129883 c-0.276367 0.00292969 -0.553711 0.00488281 -0.831055 0.00488281c-36.7969 0 -66.6699 -29.874 -66.6699 -66.6699s29.873 -66.6699 66.6699 -66.6699c0.277344 0 0.554688 0.00195312 0.831055 0.00488281h186.66zM224 304c0 8.83105 7.16895 16 16 16 s16 -7.16895 16 -16v-128c0 -8.83105 -7.16895 -16 -16 -16s-16 7.16895 -16 16v128zM64 0h178.94c7.29785 -12.1416 16.3535 -22.833 27.0596 -32h-206c-35.3223 0 -64 28.6777 -64 64v320c0 35.3223 28.6777 64 64 64h320c35.3223 0 64 -28.6777 64 -64v-77.6699 c-8.62695 1.875 -17.5059 2.9082 -26.6699 3c-1.81055 0 -3.53027 -0.370117 -5.33008 -0.44043v75.1104c0 17.6611 -14.3389 32 -32 32h-320c-17.6611 0 -32 -14.3389 -32 -32v-320c0 -17.6611 14.3389 -32 32 -32zM160 304c0 8.83105 7.16895 16 16 16s16 -7.16895 16 -16 v-128c0 -8.83105 -7.16895 -16 -16 -16s-16 7.16895 -16 16v128zM96 304c0 8.83105 7.16895 16 16 16s16 -7.16895 16 -16v-128c0 -8.83105 -7.16895 -16 -16 -16s-16 7.16895 -16 16v128z"/>
    <glyph glyph-name="siren" unicode="" horiz-adv-x="448" d="M416 128c17.6611 0 32 -14.3389 32 -32v-64c0 -17.6611 -14.3389 -32 -32 -32h-384c-17.6611 0 -32 14.3389 -32 32v64c0 17.6611 14.3389 32 32 32h1.87988l23.2402 185.92c4.98242 39.4102 38.6406 70.0205 79.3799 70.0801h175 c40.7393 -0.0595703 74.3975 -30.6699 79.3799 -70.0801l23.2402 -185.92h1.87988zM88.8799 309.95l-22.7598 -181.95h37.4199l24.6602 185.03c0.521484 3.91211 3.86719 6.94238 7.9209 6.94238c0.366211 0 0.726562 -0.0253906 1.0791 -0.0722656l15.8594 -2.13086 c3.91211 -0.521484 6.94238 -3.86719 6.94238 -7.9209c0 -0.366211 -0.0244141 -0.725586 -0.0722656 -1.0791l-24.1094 -180.819h246.06l-22.7598 182c-2.98535 23.6455 -23.1777 42.0137 -47.6201 42.0498h-175c-24.4424 -0.0361328 -44.6348 -18.4043 -47.6201 -42.0498z M416 32v64h-384v-64h384z"/>
    <glyph glyph-name="siren-on" unicode="" horiz-adv-x="640" d="M512 128c17.6611 0 32 -14.3389 32 -32v-64c0 -17.6611 -14.3389 -32 -32 -32h-384c-17.6611 0 -32 14.3389 -32 32v64c0 17.6611 14.3389 32 32 32h1.87988l23.2402 185.92c4.98242 39.4102 38.6406 70.0205 79.3799 70.0801h175 c40.7363 -0.0585938 74.3936 -30.6641 79.3799 -70.0703l23.2402 -185.93h1.87988zM184.88 310l-22.7598 -182h37.4199l24.6602 185.09c0.521484 3.91211 3.86719 6.94238 7.9209 6.94238c0.366211 0 0.726562 -0.0244141 1.0791 -0.0722656l15.8594 -2.12988 c3.91211 -0.522461 6.94238 -3.86816 6.94238 -7.92188c0 -0.365234 -0.0244141 -0.725586 -0.0722656 -1.07812l-24.1094 -180.83h246.06l-22.7598 182c-3.00684 23.624 -23.1924 41.9668 -47.6201 42h-175c-24.4277 -0.0332031 -44.6133 -18.376 -47.6201 -42zM512 32v64 h-384v-64h384zM80 288c8.83105 0 16 -7.16895 16 -16s-7.16895 -16 -16 -16h-64c-8.83105 0 -16 7.16895 -16 16s7.16895 16 16 16h64zM624 288c8.83105 0 16 -7.16895 16 -16s-7.16895 -16 -16 -16h-64c-8.83105 0 -16 7.16895 -16 16s7.16895 16 16 16h64zM40.8398 417.7 c-5.25195 2.62695 -8.83008 8.03809 -8.83008 14.3057c0 8.83398 7.17188 16.0059 16.0059 16.0059c2.56641 0 4.99316 -0.605469 7.14453 -1.68164l64 -32c5.25195 -2.62695 8.83008 -8.03906 8.83008 -14.3057c0 -8.83398 -7.17188 -16.0059 -16.0059 -16.0059 c-2.56641 0 -4.99316 0.605469 -7.14453 1.68164zM528 384c-0.0146484 0 -0.0439453 -0.00976562 -0.0585938 -0.00976562c-8.83105 0 -16 7.16992 -16 16c0 6.28125 3.62695 11.7217 8.89844 14.3398l64 32c2.15137 1.0752 4.60938 1.69922 7.17578 1.69922 c8.83594 0 16.0098 -7.17383 16.0098 -16.0098c0 -6.26953 -3.61133 -11.7021 -8.86523 -14.3291l-64 -32c-2.15332 -1.07129 -4.5957 -1.68457 -7.16016 -1.69043z"/>
    <glyph glyph-name="solar-system" unicode="" d="M380.386 324.285c7.24121 -7.23926 11.7002 -17.2695 11.7002 -28.3076c0 -5.3291 -1.04492 -10.416 -2.93945 -15.0674c16.9707 -25.3965 26.9658 -56.0732 26.9658 -88.8828c0 -88.292 -71.6816 -159.973 -159.973 -159.973 c-88.292 0 -159.973 71.6807 -159.973 159.973c0 88.2666 71.6406 159.933 159.897 159.973c27.8447 0 54.2637 -7.71484 77.8799 -20.9785c15.0635 7.78711 33.8105 5.89062 46.4414 -6.73633zM346.591 101.484c23.1738 23.0156 37.4316 55.0488 37.4316 90.2578 c0 24.4912 -6.94629 47.3721 -18.9756 66.7793c-4.1543 -1.47363 -8.64453 -2.29297 -13.3018 -2.29297c-10.8896 0 -20.7617 4.38672 -27.9463 11.4883c-10.2979 10.2969 -13.1299 24.6992 -9.85156 37.8691c-17.7852 9.07812 -37.3379 14.4141 -57.8828 14.4141 c-0.00683594 0 -0.0322266 -0.0175781 -0.0390625 -0.0175781c-70.6455 0 -128 -57.3555 -128 -128c0 -35.3262 14.3408 -67.3281 37.5137 -90.498c48.3262 -48.3438 132.726 -48.3438 181.052 0zM437.234 373.02c86.7822 -86.7188 97.8516 -219.973 34.0703 -319.078 c5.56543 -8.74023 8.87109 -19.2021 8.87109 -30.3223c0 -31.1289 -25.2725 -56.4023 -56.4023 -56.4023c-31.1289 0 -56.4023 25.2734 -56.4023 56.4023s25.2734 56.4023 56.4023 56.4023c8.2207 0 16.0322 -1.7627 23.0781 -4.92969 c21.082 34.1123 33.2158 74.4287 33.2158 117.439c0 123.407 -100.19 223.599 -223.599 223.599c-32.2754 0 -62.9629 -6.85352 -90.6855 -19.1826c-4.2666 9.48047 -10.1289 18.0059 -17.3271 25.3203c-0.431641 0.431641 -0.951172 0.712891 -1.3916 1.13477 c33.1045 15.6836 70.3711 24.6348 109.408 24.6348c70.5771 0 134.508 -28.6826 180.762 -75.0176zM424.113 0c13.2471 0 24.0039 10.7539 24.0068 24c0 13.2461 -10.7539 24 -24 24s-24 -10.7539 -24 -24c0 -13.2432 10.75 -23.9961 23.9932 -24zM344.926 -13.6348 c4.22559 -9.20508 9.95996 -17.4902 16.9678 -24.6309c0.637695 -0.636719 1.39941 -1.06055 2.05176 -1.67383c-32.8115 -15.3477 -69.6719 -24.0977 -108.262 -24.0977c-70.5742 0 -134.502 28.6836 -180.753 75.0176c-86.8213 86.7598 -98.1348 220.221 -34.2461 319.336 c-5.47949 8.71582 -8.73047 19.1152 -8.73047 30.1611c0 31.2441 25.3662 56.6104 56.6113 56.6104c31.2441 0 56.6104 -25.3662 56.6104 -56.6104s-25.3662 -56.6104 -56.6104 -56.6104c-8.14746 0 -15.8945 1.72461 -22.8965 4.82812 c-21.5264 -34.8652 -33.748 -74.6992 -33.748 -116.695c0.0498047 -123.647 100.616 -223.913 224.275 -223.913c31.5127 0 61.5146 6.51855 88.7295 18.2783zM88.0166 384c-13.2461 0 -24.0049 -10.7539 -24.0068 -24c0 -13.2461 10.7539 -24 24 -24s24 10.7539 24 24 c0 13.2432 -10.75 23.9961 -23.9932 24zM256.064 272c44.1377 -0.0439453 79.9668 -35.8652 80.0234 -80c0 -44.1533 -35.8467 -80 -79.999 -80c-44.1533 0 -80 35.8467 -80 80c0 44.1455 35.834 79.9873 79.9756 80zM256.064 144c26.4941 0 48.0107 21.5078 48.0146 48 c0 26.4922 -21.5078 48 -48 48s-48 -21.5078 -48 -48c0 -26.4873 21.5 -47.9922 47.9854 -48z"/>
    <glyph glyph-name="sort-circle" unicode="" d="M164.75 224c-16.4004 0 -24.5898 19.8496 -13 31.4102l91.25 91.1797c3.29297 3.34082 7.86914 5.41016 12.9258 5.41016h0.0742188c5.07715 -0.00390625 9.67773 -2.07031 13 -5.41016l91.1104 -91.1797c11.5898 -11.5605 3.39941 -31.4102 -13 -31.4102h-182.36z M256 314.33l-58.4102 -58.3301h116.71zM347.11 160c16.4092 0 24.5898 -19.8496 13.0693 -31.4102l-91.1797 -91.1797c-3.32129 -3.34082 -7.92188 -5.4082 -13 -5.41016c-0.0244141 0 -0.0498047 -0.00292969 -0.0742188 -0.00292969 c-5.05664 0 -9.63281 2.07227 -12.9258 5.41309l-91.25 91.1797c-11.5898 11.5605 -3.40039 31.4102 13 31.4102h182.36zM256 69.6699l58.2998 58.3301h-116.71zM350.88 421.06c126.51 -52.3994 186.58 -197.43 134.18 -323.939 c-39.5498 -95.4805 -131.859 -153.12 -229.159 -153.12c-33.5088 0.015625 -65.6328 6.82227 -94.7803 18.9404c-126.51 52.3994 -186.58 197.43 -134.18 323.939c39.5498 95.4805 131.859 153.12 229.159 153.12c33.5088 -0.015625 65.6328 -6.82227 94.7803 -18.9404z M455.5 109.36c45.5596 110.01 -6.86035 236.569 -116.87 282.14c-25.4473 10.5693 -53.3965 16.6396 -82.6504 16.6396c-89.9531 0 -167.122 -55.1748 -199.479 -133.5c-45.5596 -110.01 6.86035 -236.569 116.87 -282.14 c25.4473 -10.5693 53.3965 -16.6396 82.6504 -16.6396c89.9531 0 167.122 55.1748 199.479 133.5z"/>
    <glyph glyph-name="sort-circle-down" unicode="" d="M350.88 421.06c126.51 -52.3994 186.58 -197.43 134.18 -323.939c-39.5498 -95.4805 -131.859 -153.12 -229.159 -153.12c-33.5088 0.015625 -65.6328 6.82227 -94.7803 18.9404c-126.51 52.3994 -186.58 197.43 -134.18 323.939 c39.5498 95.4805 131.859 153.12 229.159 153.12c33.5088 -0.015625 65.6328 -6.82227 94.7803 -18.9404zM455.5 109.36c45.5596 110.01 -6.86035 236.569 -116.87 282.14c-25.4473 10.5693 -53.3965 16.6396 -82.6504 16.6396 c-89.9531 0 -167.122 -55.1748 -199.479 -133.5c-45.5596 -110.01 6.86035 -236.569 116.87 -282.14c25.4473 -10.5693 53.3965 -16.6396 82.6504 -16.6396c89.9531 0 167.122 55.1748 199.479 133.5zM347.25 160c16.4004 0 24.5898 -19.8496 13 -31.4102l-91.25 -91.1797 c-3.29297 -3.34082 -7.86914 -5.41016 -12.9258 -5.41016h-0.0742188c-5.07715 0.00390625 -9.67773 2.07031 -13 5.41016l-91.1104 91.1797c-11.5898 11.5605 -3.39941 31.4102 13 31.4102h182.36zM256 69.6699l58.4102 58.3301h-116.71zM267.27 347.31l96.04 -96 c2.72656 -2.86914 4.39648 -6.75293 4.39648 -11.0195c0 -8.83105 -7.16992 -16 -16 -16c-4.26758 0 -8.14648 1.67383 -11.0156 4.40039l-84.6904 84.6797l-84.7305 -84.6797c-2.86914 -2.72656 -6.75293 -4.39648 -11.0195 -4.39648c-8.83105 0 -16 7.16992 -16 16 c0 4.26758 1.67383 8.14648 4.40039 11.0156l96 96c2.89551 2.89453 6.89844 4.68555 11.3115 4.68555c4.41406 0 8.41211 -1.79102 11.3076 -4.68555z"/>
    <glyph glyph-name="sort-circle-up" unicode="" d="M161.12 -37.0596c-126.51 52.3994 -186.58 197.43 -134.18 323.939c39.5498 95.4805 131.859 153.12 229.159 153.12c33.5088 -0.015625 65.6328 -6.82227 94.7803 -18.9404c126.51 -52.3994 186.58 -197.43 134.18 -323.939 c-39.5498 -95.4805 -131.859 -153.12 -229.159 -153.12c-33.5088 0.015625 -65.6328 6.82227 -94.7803 18.9404zM56.5 274.64c-45.5596 -110.01 6.86035 -236.569 116.87 -282.14c25.4473 -10.5693 53.3965 -16.6396 82.6504 -16.6396 c89.9531 0 167.122 55.1748 199.479 133.5c45.5596 110.01 -6.86035 236.569 -116.86 282.14c-25.4482 10.5693 -53.3984 16.6406 -82.6533 16.6406c-89.9551 0 -167.126 -55.1758 -199.486 -133.501zM164.75 224c-16.4004 0 -24.5801 19.8496 -13 31.4102l91.25 91.1797 c3.29297 3.34082 7.86914 5.41016 12.9258 5.41016h0.0742188c5.07715 -0.00390625 9.67773 -2.07031 13 -5.41016l91.1104 -91.1797c11.5898 -11.5605 3.39941 -31.4102 -13 -31.4102h-182.36zM256 314.33l-58.4102 -58.3301h116.71zM244.69 36.6904l-96 96 c-2.72656 2.86914 -4.39648 6.75293 -4.39648 11.0195c0 8.83105 7.16992 16 16 16c4.26758 0 8.14648 -1.67383 11.0156 -4.40039l84.6904 -84.6797l84.6904 84.6797c2.86914 2.72656 6.75293 4.39648 11.0195 4.39648c8.83105 0 16 -7.16992 16 -16 c0 -4.26758 -1.67383 -8.14648 -4.40039 -11.0156l-96 -96c-2.89551 -2.89453 -6.89844 -4.68555 -11.3115 -4.68555c-4.41406 0 -8.41211 1.79102 -11.3076 4.68555z"/>
    <glyph glyph-name="space-station-moon" unicode="" d="M256 440c136.967 0 248 -111.033 248 -248s-111.033 -248 -248 -248s-248 111.033 -248 248s111.033 248 248 248zM256 -24c93.5723 0 173.207 59.918 203.146 143.314c-65.2598 -15.2188 -132.752 -23.3145 -202.619 -23.3145h-0.527344 c-0.175781 0 0.157227 0.046875 -0.0185547 0.046875c-69.8672 0 -137.868 8.04883 -203.128 23.2676c29.9395 -83.3965 109.574 -143.314 203.146 -143.314zM43.5039 154.359c130.82 -34.1582 294.172 -34.1582 424.992 0c2.24121 12.2725 3.43848 24.7402 3.50391 37.6406 c0 119.104 -96.8965 216 -216 216s-216 -96.8965 -216 -216c0.0654297 -12.9004 1.2627 -25.3682 3.50391 -37.6406zM200 368c48.5684 0 88 -39.4316 88 -88s-39.4316 -88 -88 -88s-88 39.4316 -88 88s39.4316 88 88 88zM200 224c30.8906 0.0351562 55.9648 25.1094 56 56 c0 30.9072 -25.0928 56 -56 56s-56 -25.0928 -56 -56s25.0928 -56 56 -56zM200 304c13.2461 0 24 -10.7539 24 -24s-10.7539 -24 -24 -24s-24 10.7539 -24 24s10.7539 24 24 24z"/>
    <glyph glyph-name="space-station-moon-alt" unicode="" d="M224.04 280c0 -13.248 -10.7559 -24.0098 -24.0049 -24.0098c-13.248 0 -24.0049 10.7568 -24.0049 24.0049c0 13.249 10.7568 24.0049 24.0049 24.0049c13.2471 0 24.0029 -10.7539 24.0049 -24zM496.855 133.555 c-0.694336 -2.83594 -2.86426 -5.09766 -5.64746 -5.91992c-34.6133 -9.76074 -70.8193 -17.4248 -107.138 -22.5312v-41.1035h56.0107h0.000976562c4.41602 0 8 -3.58496 8 -8v-17.9121v-0.0185547c0 -2.00684 -0.719727 -3.85254 -1.91211 -5.28418 c-45.4131 -54.3418 -113.686 -88.9355 -189.974 -88.9355c-0.0751953 0 -0.0751953 0.150391 -0.150391 0.150391c-140.991 0 -254.507 117.611 -247.76 260.059c6.00293 126.732 110.536 230.508 237.328 235.727c3.57812 0.154297 7.17578 0.232422 10.792 0.232422 c59.4678 0 114.052 -21.1475 156.697 -56.2148c1.81836 -1.50879 2.97754 -3.78516 2.97754 -6.33105c0 -0.00683594 -0.00488281 -0.00976562 -0.00488281 -0.0166016v-49.4551c-0.000976562 -4.41504 -3.58594 -8 -8.00098 -8h-24.0049v-32h56.0107h0.000976562 c4.41602 0 8 -3.58496 8 -8v-56l46.6709 0.00195312h0.0859375c4.05469 0 7.40039 -3.06348 7.85938 -6.99609c0.851562 -8.28223 1.28809 -16.6855 1.28809 -25.1914c0 -20.2051 -2.49023 -39.4795 -7.13086 -58.2598zM368.067 32c-8.83105 0 -16.002 7.16895 -16.0029 16 v53.541c-31.8271 -3.5332 -63.292 -5.38672 -96.0186 -5.54102c-0.550781 -0.000976562 -1.10059 -0.00195312 -1.65137 -0.00195312c-69.5156 0 -136.647 8.1084 -201.543 23.3418c29.9385 -83.4082 109.595 -143.34 203.194 -143.34h0.328125 c55.6914 0 106.548 21.2285 144.77 56h-33.0762zM472.087 192h-80.0156c-4.41504 0 -8 3.58496 -8.00098 8v16c0 4.41504 3.58496 8 8 8h0.000976562h24.0049v32h-56.0107c-4.41504 0 -8.00098 3.58496 -8.00098 8v56h-24.0049c-4.41602 0 -8.00098 3.58496 -8.00195 8v16 c0 4.41504 3.58496 8 8 8h0.00195312h56.0107v13.8496c-35.793 26.3867 -80.1963 42.1094 -128.024 42.1504c-119.126 0 -216.041 -96.8965 -216.041 -216c0.0683594 -12.7793 1.24805 -25.1309 3.45215 -37.2949c65.4336 -17.2402 137.391 -26.7051 212.589 -26.7051 c0.422852 -0.000976562 0.84668 -0.000976562 1.26953 -0.000976562c73.1816 0 143.854 9.62598 211.44 27.5225c2.14941 11.8975 3.28809 23.9746 3.33105 36.4785zM288.052 280c0 -48.5771 -39.4385 -88.0342 -88.0166 -88.0342 c-48.5771 0 -88.0166 39.4395 -88.0166 88.0166c0 48.5781 39.4395 88.0176 88.0166 88.0176c48.5703 0 88.0117 -39.4307 88.0166 -88zM256.046 280c0 30.9131 -25.0977 56.0215 -56.0107 56.0215s-56.0107 -25.0977 -56.0107 -56.0107s25.0977 -56.0107 56.0107 -56.0107 c30.8945 0.03125 55.9736 25.1064 56.0107 56z"/>
    <glyph glyph-name="sprinkler" unicode="" d="M16 448c8.83105 0 16 -7.16895 16 -16s-7.16895 -16 -16 -16s-16 7.16895 -16 16s7.16895 16 16 16zM16 224c8.83105 0 16 -7.16895 16 -16s-7.16895 -16 -16 -16s-16 7.16895 -16 16s7.16895 16 16 16zM16 336c8.83105 0 16 -7.16895 16 -16s-7.16895 -16 -16 -16 s-16 7.16895 -16 16s7.16895 16 16 16zM144 304c-8.83105 0 -16 7.16895 -16 16s7.16895 16 16 16s16 -7.16895 16 -16s-7.16895 -16 -16 -16zM496 416c-8.83105 0 -16 7.16895 -16 16s7.16895 16 16 16s16 -7.16895 16 -16s-7.16895 -16 -16 -16zM368 304 c-8.83105 0 -16 7.16895 -16 16s7.16895 16 16 16s16 -7.16895 16 -16s-7.16895 -16 -16 -16zM432 288c8.83105 0 16 -7.16895 16 -16s-7.16895 -16 -16 -16s-16 7.16895 -16 16s7.16895 16 16 16zM432 384c8.83105 0 16 -7.16895 16 -16s-7.16895 -16 -16 -16 s-16 7.16895 -16 16s7.16895 16 16 16zM496 224c8.83105 0 16 -7.16895 16 -16s-7.16895 -16 -16 -16s-16 7.16895 -16 16s7.16895 16 16 16zM80 288c8.83105 0 16 -7.16895 16 -16s-7.16895 -16 -16 -16s-16 7.16895 -16 16s7.16895 16 16 16zM496 336 c8.83105 0 16 -7.16895 16 -16s-7.16895 -16 -16 -16s-16 7.16895 -16 16s7.16895 16 16 16zM398.19 192c0.00292969 0 -0.00195312 -0.0146484 0.000976562 -0.0146484c9.80762 0 17.7705 -7.96289 17.7705 -17.7705c0 -3.99609 -1.32227 -7.68555 -3.55176 -10.6553 l-92.4102 -103.119v-116.44c0 -4.41504 -3.58496 -8 -8 -8h-16c-4.41504 0 -8 3.58496 -8 8v129.7l79.0703 86.2998h-222.141l79.0703 -86.2998v-129.7c0 -4.41504 -3.58496 -8 -8 -8h-16c-4.41504 0 -8 3.58496 -8 8v116.44l-92.4102 103.119 c-2.22949 2.96973 -3.55957 6.6748 -3.55957 10.6709c0 9.80664 7.96191 17.7695 17.7695 17.7695h0.00976562h126.19v184c0 4.41504 3.58496 8 8 8h16c4.41504 0 8 -3.58496 8 -8v-184h126.19zM80 384c8.83105 0 16 -7.16895 16 -16s-7.16895 -16 -16 -16 s-16 7.16895 -16 16s7.16895 16 16 16z"/>
    <glyph glyph-name="star-shooting" unicode="" d="M364.294 180.713c18.7969 -2.70312 26.4072 -25.9053 12.7969 -39.2012l-75.8916 -73.9971l17.8906 -104.59c0.229492 -1.30078 0.326172 -2.60449 0.326172 -3.96973c0 -12.6377 -10.2607 -22.8984 -22.8984 -22.8984c-3.87402 0 -7.52441 0.964844 -10.7246 2.66602 l-93.7988 49.3887l-93.7988 -49.3887c-3.16699 -1.71973 -6.81738 -2.71387 -10.6699 -2.72266c-12.6777 0.0537109 -22.9561 10.3408 -22.9561 23.0312c0 1.32617 0.112305 2.62793 0.328125 3.89355l18 104.59l-75.9072 73.9971 c-13.7031 13.2959 -6.09375 36.498 12.7031 39.2012l104.799 15.2969l46.9072 95.1992c3.73828 7.60645 11.54 12.8477 20.5811 12.8477c9.04199 0 16.8691 -5.24121 20.6074 -12.8477l46.9072 -95.1992zM278.858 90.4258l62.8203 61.251l-86.8047 12.6699l-16.6484 2.42969 l-7.43652 15.0908l-38.7949 78.7373l-38.7959 -78.7373l-7.43555 -15.0908l-16.6475 -2.42969l-86.7217 -12.6582l62.8428 -61.2607l12.0527 -11.752l-2.85352 -16.5889l-14.8848 -86.4873l77.5322 40.8252l14.9111 7.85059l14.9102 -7.85059l77.5537 -40.8369 l-14.8008 86.5322l-2.83594 16.5693zM498.346 253.665l11.3105 -11.3115c1.44824 -1.44824 2.34473 -3.4502 2.34473 -5.65723c0 -2.20801 -0.896484 -4.20703 -2.34473 -5.65527l-68.6885 -68.6865c-1.44922 -1.44727 -3.45117 -2.34375 -5.65918 -2.34375 c-2.20703 0 -4.20703 0.896484 -5.65625 2.34375l-11.3105 11.3115c-1.44824 1.44824 -2.34473 3.4502 -2.34473 5.65723c0 2.20801 0.896484 4.20801 2.34473 5.65527l68.6895 68.6865c1.44824 1.44824 3.4502 2.34375 5.6582 2.34375 c2.20703 0 4.20703 -0.895508 5.65625 -2.34375zM314.342 261.663c-1.44824 1.44824 -2.34473 3.4502 -2.34473 5.6582s0.896484 4.20801 2.34473 5.65625l172.689 172.681c1.44824 1.44727 3.4502 2.34277 5.6582 2.34277c2.20703 0 4.20703 -0.895508 5.65625 -2.34277 l11.3105 -11.3125c1.44824 -1.44727 2.34473 -3.44922 2.34473 -5.65723c0 -2.20703 -0.896484 -4.20703 -2.34473 -5.65527l-172.688 -172.681c-1.44824 -1.44824 -3.45117 -2.34473 -5.65918 -2.34473s-4.20801 0.896484 -5.65625 2.34473zM237.649 354.347 l-11.3115 11.3125c-1.44824 1.44727 -2.34473 3.44922 -2.34473 5.65723c0 2.20703 0.896484 4.20703 2.34473 5.6543l68.6895 68.6875c1.44824 1.44727 3.4502 2.34277 5.6582 2.34277s4.20801 -0.895508 5.65625 -2.34277l11.3105 -11.3125 c1.44824 -1.44727 2.34473 -3.44922 2.34473 -5.65723c0 -2.20703 -0.896484 -4.20703 -2.34473 -5.65527l-68.6885 -68.6865c-1.44922 -1.44727 -3.45117 -2.34277 -5.6582 -2.34277c-2.20801 0 -4.20801 0.895508 -5.65625 2.34277z"/>
    <glyph glyph-name="starfighter" unicode="" horiz-adv-x="640" d="M288 192c0 17.6611 14.3389 32 32 32s32 -14.3389 32 -32v-48c0 -8.83008 -7.16992 -16 -16 -16h-32c-8.83008 0 -16 7.16992 -16 16v48zM624 320h16v-32h-16v-272c0 -8.83105 -7.16895 -16 -16 -16s-16 7.16895 -16 16v8.88867l-92.7227 -41.2109 c-7.01953 -7.69336 -16.5635 -13.0635 -27.2773 -14.8711v-16.8066c0 -8.83008 -7.16992 -16 -16 -16h-16c-8.83008 0 -16 7.16992 -16 16v16.8066c-6.74609 1.27832 -13.0693 4.01855 -18.4746 7.83789c-5.62402 -5.30957 -13.2021 -8.58496 -21.5254 -8.64453h-128 c-8.32227 0.0595703 -15.9004 3.33496 -21.5234 8.64453c-5.40527 -3.81934 -11.7305 -6.55957 -18.4766 -7.83789v-16.8066c0 -8.83008 -7.16992 -16 -16 -16h-16c-8.83008 0 -16 7.16992 -16 16v16.8066c-10.7139 1.80762 -20.2578 7.17773 -27.2773 14.8711 l-92.7227 41.2109v-8.88867c0 -8.83105 -7.16895 -16 -16 -16s-16 7.16895 -16 16v272h-16v32h16v16c0 8.83105 7.16895 16 16 16s16 -7.16895 16 -16v-16h16v-32h-16v-192h80v32c0 26.4922 21.5078 48 48 48h32c8.1748 -0.0537109 15.917 -2.20898 22.6172 -5.90625 l39.4453 250.906c2.34863 15.2646 15.5518 27 31.4688 27h0.15625h36.625c0.0507812 0 0.100586 -0.03125 0.151367 -0.03125c15.9229 0 29.1318 -11.7119 31.4736 -26.9844l39.6074 -250.803c6.66211 3.64258 14.3467 5.76465 22.4551 5.81836h32 c26.4922 0 48 -21.5078 48 -48v-32h80v192h-16v32h16v16c0 8.83105 7.16895 16 16 16s16 -7.16895 16 -16v-16zM128 24.3516v39.6484h-64v-11.2031zM224 16v112c-0.00976562 8.82617 -7.17383 15.9902 -16 16h-32c-8.82617 -0.00976562 -15.9902 -7.17383 -16 -16v-112 c0.00976562 -8.82617 7.17383 -15.9902 16 -16h32c8.82617 0.00976562 15.9902 7.17383 16 16zM384 16v112l-45.6875 288h-36.625l-45.6875 -289.312v-110.688c0 -0.046875 -0.0234375 -0.0839844 -0.0234375 -0.130859l0.0234375 -15.8691h128v16zM480 16v112 c-0.00976562 8.82617 -7.17383 15.9902 -16 16h-32c-8.82617 -0.00976562 -15.9902 -7.17383 -16 -16v-112c0.00976562 -8.82617 7.17383 -15.9902 16 -16h32c8.82617 0.00976562 15.9902 7.17383 16 16zM576 52.7969v11.2031h-64v-39.6484z"/>
    <glyph glyph-name="starfighter-alt" unicode="" horiz-adv-x="576" d="M568 416c4.41504 0 8 -3.58496 8 -8v-432c0 -4.41504 -3.58496 -8 -8 -8h-16c-4.41504 0 -8 3.58496 -8 8v151.016l-84.6523 -21.1641c-31.6445 -62.6738 -96.4746 -105.852 -171.348 -105.852s-139.703 43.1777 -171.348 105.852l-84.6523 21.1641v-151.016 c0 -4.41504 -3.58496 -8 -8 -8h-16c-4.41504 0 -8 3.58496 -8 8v432c0 4.41504 3.58496 8 8 8h16c4.41504 0 8 -3.58496 8 -8v-151.014l84.6523 21.1621c31.6445 62.6738 96.4746 105.852 171.348 105.852s139.703 -43.1777 171.348 -105.852l84.6523 -21.1621v151.014 c0 4.41504 3.58496 8 8 8h16zM102.754 142.312c-4.38574 15.833 -6.72852 32.4209 -6.72852 49.6426c0 17.2207 2.34277 33.8994 6.72852 49.7324l-70.7539 -17.6875v-64zM288 32c88.3066 0 160 71.6934 160 160s-71.6934 160 -160 160s-160 -71.6934 -160 -160 s71.6934 -160 160 -160zM544 160v64l-70.7539 17.6875c4.38574 -15.833 6.72852 -32.4209 6.72852 -49.6426c0 -17.2207 -2.34277 -33.8994 -6.72852 -49.7324zM288 320c70.6445 0 128 -57.3555 128 -128c0 -70.6455 -57.3545 -128 -128 -128s-128 57.3545 -128 128 s57.3545 128 128 128zM300 286.789v-32c8.69531 -1.63086 16.8867 -5.07031 23.9492 -9.85547l22.627 22.627c-13.1514 10.2119 -29.2275 17.0869 -46.5762 19.2285zM276 286.789c-17.3486 -2.1416 -33.4248 -9.0166 -46.5762 -19.2285l22.627 -22.627 c7.0625 4.78516 15.2539 8.22461 23.9492 9.85547v32zM212.439 250.576c-10.2119 -13.1514 -17.0869 -29.2275 -19.2285 -46.5762h32c1.63086 8.69531 5.07031 16.8867 9.85547 23.9492zM193.211 180c2.1416 -17.3486 9.0166 -33.4248 19.2285 -46.5762l22.627 22.627 c-4.78516 7.0625 -8.22461 15.2539 -9.85547 23.9492h-32zM276 97.2109v32c-8.69531 1.63086 -16.8867 5.07031 -23.9492 9.85547l-22.627 -22.627c13.1514 -10.2119 29.2275 -17.0869 46.5762 -19.2285zM256 192c0 -17.6611 14.3389 -32 32 -32s32 14.3389 32 32 s-14.3389 32 -32 32s-32 -14.3389 -32 -32zM300 97.2109c17.3486 2.1416 33.4248 9.0166 46.5762 19.2285l-22.627 22.627c-7.0625 -4.78516 -15.2539 -8.22461 -23.9492 -9.85547v-32zM363.561 133.424c10.2119 13.1514 17.0869 29.2275 19.2285 46.5762h-32 c-1.63086 -8.69531 -5.07031 -16.8867 -9.85547 -23.9492zM350.789 204h32c-2.1416 17.3486 -9.0166 33.4248 -19.2285 46.5762l-22.627 -22.627c4.78516 -7.0625 8.22461 -15.2539 9.85547 -23.9492z"/>
    <glyph glyph-name="starship" unicode="" horiz-adv-x="640" d="M448 384c106.039 0 192 -85.9609 192 -192s-85.9609 -192 -192 -192c-83.9199 0 -155.078 53.9297 -181.189 128.953l-51.8945 4.81055l-55.957 -37.7637h47.4473c26.4922 0 48 -21.5078 48 -48s-21.5078 -48 -48 -48h-174.406 c-17.6533 0.0175781 -31.9824 14.3467 -32 32v32c0.0175781 17.6533 14.3467 31.9824 32 32h69.7695l62.8633 42.4238l-22.2266 2.06055c-26.4688 2.45312 -46.4062 24.5938 -46.4062 51.5156s19.9375 49.0625 46.4062 51.5156l22.2266 2.06055l-62.8633 42.4238h-69.7695 c-17.6533 0.0175781 -31.9824 14.3467 -32 32v32c0.0175781 17.6533 14.3467 31.9824 32 32h174.406c26.4922 0 48 -21.5078 48 -48s-21.5078 -48 -48 -48h-47.4473l55.957 -37.7637l51.8945 4.81055c26.1113 75.0234 97.2695 128.953 181.189 128.953zM32 320h174.406 c8.83105 0 16 7.16895 16 16s-7.16895 16 -16 16h-174.406v-32zM206.406 64h-174.406v-32h174.406c8.83105 0 16 7.16895 16 16s-7.16895 16 -16 16zM258.596 161.861c-1.63867 9.86523 -2.52148 19.8291 -2.5957 30.1387 c0.0742188 10.3096 0.957031 20.2734 2.5957 30.1387l-113.252 -10.498c-9.875 -0.90625 -17.3438 -9.35938 -17.3438 -19.6406s7.46875 -18.7344 17.3438 -19.6406zM448 32c88.3066 0 160 71.6934 160 160s-71.6934 160 -160 160s-160 -71.6934 -160 -160 s71.6934 -160 160 -160zM448 256c35.3223 0 64 -28.6777 64 -64s-28.6777 -64 -64 -64s-64 28.6777 -64 64s28.6777 64 64 64zM448 160c17.6611 0 32 14.3389 32 32s-14.3389 32 -32 32s-32 -14.3389 -32 -32s14.3389 -32 32 -32z"/>
    <glyph glyph-name="starship-freighter" unicode="" horiz-adv-x="576" d="M79.999 208c8.83008 0 16 -7.16992 16 -16c0 -8.83105 -7.16992 -16 -16 -16c-8.83105 0 -16 7.16895 -16 16s7.16895 16 16 16zM111.996 272c-8.8291 0.00195312 -15.9971 7.16992 -15.9971 16c0 8.83105 7.16699 16 15.9971 16c8.83105 0 16 -7.16895 16 -16 s-7.16895 -16 -16 -16zM111.996 112c8.83105 0 16 -7.16992 16 -16c0 -8.83105 -7.16895 -16 -16 -16c-8.83008 0 -16 7.16895 -16 16s7.16992 16 16 16zM560 208h-112.012v-15.834c0 -0.0566406 0.0117188 -0.109375 0.0117188 -0.166016 c0 -0.078125 -0.0117188 -0.154297 -0.0117188 -0.232422v-15.7676h112.012c8.83008 0 16 -7.16992 16 -16v-57.5996c-0.000976562 -13.8193 -8.7666 -25.5938 -21.0469 -30.0684l-97.625 -35.5703c13.7705 -10.1748 22.6611 -26.4961 22.6611 -44.915 c0 -30.8232 -25.0234 -55.8467 -55.8467 -55.8467h-0.154297h-55.998c-0.00585938 0 0.0175781 -0.0507812 0.0107422 -0.0507812c-18.7109 0 -35.2881 9.20605 -45.4463 23.332l-16.3301 22.6797c-26.4727 -8.94727 -54.1855 -13.9609 -81.791 -13.9609 c-29.1484 0 -58.1211 5.41602 -85.2148 17.1504c-143.56 62.1836 -139.204 206.85 -139.204 206.85s-4.10938 144.777 139.205 206.85c27.0967 11.7363 56.0615 17.1504 85.2139 17.1504c30.458 -0.157227 59.7939 -5.69238 86.8926 -15.5625l243.627 -88.7695 c12.2803 -4.47168 21.0469 -16.248 21.0469 -30.0664v-57.6016c0 -8.83008 -7.16992 -16 -16 -16zM224.434 0c20.4941 0 41.1738 3.82422 61.7363 9.81641l-62.0586 86.1953c-0.0390625 0 -0.078125 -0.0117188 -0.117188 -0.0117188 c-52.9824 0 -95.998 43.0156 -95.998 95.998s43.0156 95.998 95.998 95.998s95.9971 -43.0146 95.998 -95.9961c-0.130859 -10.5244 -2.00977 -20.6865 -5.3125 -30.1211l61.4609 -85.3594c24.5547 32.2051 39.8203 71.832 39.8477 115.355v0.357422 c-0.115234 95.082 -69.7559 173.971 -160.676 188.982c-9.94043 1.61328 -19.9766 2.53809 -30.3242 2.73438c-0.263672 0.00195312 -0.513672 0.0410156 -0.777344 0.0410156c-25.7832 -0.0273438 -50.1035 -4.90039 -72.2734 -14.5059 c-120.839 -52.3379 -120.026 -171.676 -119.933 -176.73l0.015625 -0.779297l-0.0195312 -0.9375c-0.0996094 -4.89453 -1.10352 -124.094 119.938 -176.523c22.2334 -9.63086 46.624 -14.5137 72.4951 -14.5137zM287.992 192c0 35.3223 -28.6758 63.999 -63.998 64 c-35.3213 0 -63.998 -28.6768 -63.998 -63.998s28.6768 -63.998 63.998 -63.998s63.9971 28.6758 63.998 63.9961zM423.988 -32c13.2461 0 24 10.7539 24 24s-10.7539 24 -24 24h-43.7168l-82.7871 114.984c-10.2598 -12.4727 -23.5234 -22.2119 -38.7852 -28.2441 l89.8223 -124.756c4.35352 -6.05762 11.4473 -9.98438 19.4688 -9.98438h55.998zM544 144h-101.299c-7.77148 -35.5439 -24.0859 -68.2129 -46.5938 -95.209l0.158203 -0.220703l147.734 53.8281v41.6016zM442.271 240h101.729v41.6016l-148.418 54.0781 c22.6211 -27.1016 38.9814 -59.9434 46.6895 -95.6797z"/>
    </font>
</defs>
</svg>
