<?xml version="1.0" standalone="no"?>
<!DOCTYPE svg PUBLIC "-//W3C//DTD SVG 1.1//EN" "http://www.w3.org/Graphics/SVG/1.1/DTD/svg11.dtd" >
<svg xmlns="http://www.w3.org/2000/svg" xmlns:xlink="http://www.w3.org/1999/xlink" version="1.1">
<metadata>
Created by FontForge 20161013 at Sun Jul 23 14:12:00 2017
 By ,,,
Copyright (c)2016. Cerebri Sans is a trademark of Alfredo Marco Pradil. All rights reserved.
</metadata>
<defs>
<font id="CerebriSans-Italic" horiz-adv-x="0" >
  <font-face 
    font-family="Cerebri Sans"
    font-weight="400"
    font-style="italic"
    font-stretch="normal"
    units-per-em="2048"
    panose-1="0 0 5 0 0 0 0 0 0 0"
    ascent="1536"
    descent="-512"
    x-height="980"
    cap-height="1405"
    bbox="-1625 -559 2827 2378"
    underline-thickness="82"
    underline-position="-348"
    slope="-10"
    unicode-range="U+0020-FB02"
  />
<missing-glyph horiz-adv-x="1273" 
d="M263 0v1536h844v-1536h-844zM398 135h574v1266h-574v-1266z" />
    <glyph glyph-name="fi" unicode="fi" horiz-adv-x="1116" 
d="M693 980l-24 -132h-228l-150 -848h-165l150 848h-190l24 132h189l51 288q25 138 103.5 213t197.5 75q65 0 134 -24l-13 -128q-38 17 -86 17q-64 0 -112.5 -44t-60.5 -120l-49 -277h229zM1034 1480q48 0 79 -34t25 -82q-5 -48 -43.5 -82t-85.5 -34q-48 0 -78.5 34
t-26.5 82q5 48 43.5 82t86.5 34zM692 0l174 983h174l-174 -983h-174z" />
    <glyph glyph-name="fl" unicode="fl" horiz-adv-x="1108" 
d="M693 980l-24 -132h-228l-150 -848h-165l150 848h-190l24 132h189l51 288q25 138 103.5 213t197.5 75q65 0 134 -24l-13 -128q-38 17 -86 17q-64 0 -112.5 -44t-60.5 -120l-49 -277h229zM962 1536h167l-270 -1536h-168z" />
    <glyph glyph-name="f_f" unicode="ff" horiz-adv-x="1223" 
d="M127 0l149 845h-190l25 138h189l51 281q23 141 103 216.5t204 75.5q65 0 134 -25l-13 -131q-44 19 -92 19q-61 0 -107 -42.5t-60 -122.5l-48 -271h427l50 281q24 141 103.5 216.5t204.5 75.5q65 0 134 -25l-14 -131q-44 19 -91 19q-61 0 -107 -42.5t-60 -122.5l-48 -271
h230l-25 -138h-229l-150 -845h-171l149 845h-427l-150 -845h-171z" />
    <glyph glyph-name=".notdef" horiz-adv-x="1273" 
d="M263 0v1536h844v-1536h-844zM398 135h574v1266h-574v-1266z" />
    <glyph glyph-name=".null" 
 />
    <glyph glyph-name="nonmarkingreturn" horiz-adv-x="682" 
 />
    <glyph glyph-name="space" unicode=" " horiz-adv-x="532" 
 />
    <glyph glyph-name="exclam" unicode="!" horiz-adv-x="616" 
d="M218 399l165 1009h173l-189 -1009h-149zM230 -20q-52 0 -83.5 38t-22.5 90q8 44 44 74t79 30q52 0 83.5 -37.5t22.5 -90.5q-8 -43 -44 -73.5t-79 -30.5z" />
    <glyph glyph-name="quotedbl" unicode="&#x22;" horiz-adv-x="949" 
d="M284 763l98 645h164l-125 -645h-137zM624 763l103 645h162l-127 -645h-138z" />
    <glyph glyph-name="numbersign" unicode="#" horiz-adv-x="1474" 
d="M233 0l108 345h-280l42 133h281l146 452h-282l43 132h276l115 350h133l-109 -350h366l111 350h137l-113 -350h283l-46 -132h-278l-143 -452h278l-41 -133h-278l-115 -345h-131l109 345h-370l-111 -345h-131zM518 478h369l145 452h-372z" />
    <glyph glyph-name="dollar" unicode="$" horiz-adv-x="1320" 
d="M767 780q77 -20 129 -37.5t114 -51t95.5 -74t51 -104t3.5 -143.5q-17 -96 -67 -170.5t-122.5 -120.5t-159 -70.5t-185.5 -27.5l-23 -128h-94l23 129q-190 14 -304 114t-120 262l186 34q4 -112 76 -178.5t189 -76.5l91 518q-78 21 -127.5 37.5t-109.5 49t-91.5 70.5
t-48 99t-2.5 137q22 122 100 209t184.5 127.5t231.5 41.5l23 133h94l-24 -138q167 -17 270.5 -104t110.5 -237l-177 -35q-6 101 -68 156.5t-163 67.5zM447 1026q-8 -47 5.5 -82.5t50 -60.5t74.5 -41.5t100 -35.5l82 465q-116 -9 -204 -70.5t-108 -174.5zM979 389
q8 51 -6.5 90t-52 66.5t-77.5 45.5t-103 37l-87 -491q83 7 149.5 34t115.5 83t61 135z" />
    <glyph glyph-name="percent" unicode="%" horiz-adv-x="1494" 
d="M465 847q-109 0 -180 71.5t-71 178.5q0 129 99 230t232 101q110 0 180.5 -72t70.5 -178q0 -130 -99 -230.5t-232 -100.5zM199 -1l999 1411h162l-1000 -1411h-161zM470 973q81 0 142 60.5t61 140.5q0 55 -37.5 91.5t-95.5 36.5q-79 0 -140.5 -59.5t-61.5 -140.5
q0 -56 37.5 -92.5t94.5 -36.5zM1027 -18q-110 0 -181.5 71.5t-71.5 178.5q0 130 100 229.5t233 99.5q107 0 177.5 -71t70.5 -176q0 -130 -98 -231t-230 -101zM1031 107q78 0 141.5 61.5t63.5 139.5q0 56 -38.5 92.5t-95.5 36.5q-80 0 -142 -59.5t-62 -140.5q0 -56 37 -93
t96 -37z" />
    <glyph glyph-name="ampersand" unicode="&#x26;" horiz-adv-x="1477" 
d="M487 -20q-185 0 -294.5 81.5t-109.5 233.5q0 80 16.5 136t68.5 121t147.5 133.5t254.5 161.5q-58 100 -82.5 158t-24.5 114q0 133 104 221t261 88q136 0 215 -65t79 -171q0 -113 -80 -201.5t-261 -191.5l239 -407q85 92 141.5 198.5t74.5 208.5l161 -13
q-25 -143 -102 -280t-191 -249l156 -257h-201l-86 152q-235 -172 -486 -172zM710 912q144 86 198.5 151t54.5 130q0 51 -35.5 80t-97.5 29q-87 0 -144.5 -56t-57.5 -139q0 -36 13 -65.5t69 -129.5zM498 128q199 0 398 154l-254 443q-87 -50 -139 -82t-107.5 -74t-84 -78.5
t-47 -83t-18.5 -99.5q0 -180 252 -180z" />
    <glyph glyph-name="quotesingle" unicode="'" horiz-adv-x="607" 
d="M282 763l103 645h162l-127 -645h-138z" />
    <glyph glyph-name="parenleft" unicode="(" horiz-adv-x="648" 
d="M346 -542q-174 126 -237 405.5t2 666.5q67 373 225.5 652t373.5 405l82 -122q-186 -105 -329 -359.5t-203 -599.5q-60 -346 -9 -590.5t199 -349.5z" />
    <glyph glyph-name="parenright" unicode=")" horiz-adv-x="648" 
d="M-53 -550l-82 123q186 106 329.5 358t204.5 599q60 344 8.5 591.5t-200.5 351.5l104 106q174 -126 237.5 -407.5t-1.5 -665.5q-66 -374 -225 -652.5t-375 -403.5z" />
    <glyph glyph-name="asterisk" unicode="*" horiz-adv-x="955" 
d="M423 908l-83 54l182 204q20 22 17.5 33.5t-27.5 8.5l-261 -23l16 103l243 -26q25 -3 41 14t6 37l-119 201l94 49l65 -231q7 -23 23.5 -19t30.5 29l142 221l86 -49l-184 -209q-20 -20 -18 -32.5t27 -9.5l262 25l-16 -103l-245 24q-25 3 -40.5 -13.5t-4.5 -37.5l120 -196
l-96 -54l-63 232q-6 23 -23 19t-31 -29z" />
    <glyph glyph-name="plus" unicode="+" horiz-adv-x="1184" 
d="M556 206v405h-405v142h405v403h141v-403h404v-142h-404v-405h-141z" />
    <glyph glyph-name="comma" unicode="," horiz-adv-x="616" 
d="M16 -361l232 620h184l-286 -620h-130z" />
    <glyph glyph-name="hyphen" unicode="-" horiz-adv-x="1033" 
d="M152 461l26 143h716l-25 -143h-717z" />
    <glyph glyph-name="period" unicode="." horiz-adv-x="623" 
d="M234 -20q-52 0 -83 37.5t-23 90.5q8 43 44.5 73.5t78.5 30.5q52 0 83.5 -38.5t22.5 -89.5q-8 -44 -44 -74t-79 -30z" />
    <glyph glyph-name="slash" unicode="/" horiz-adv-x="812" 
d="M-158 -372l992 1908h167l-992 -1908h-167z" />
    <glyph glyph-name="zero" unicode="0" horiz-adv-x="1153" 
d="M499 -19q-229 0 -321.5 188t-30.5 548q63 352 211.5 531t371.5 179q231 0 322.5 -187t27.5 -547q-61 -351 -211.5 -531.5t-369.5 -180.5zM503 141q148 0 253 144.5t156 431.5q49 281 -1 415t-186 134q-146 0 -251 -141.5t-157 -431.5q-95 -552 186 -552z" />
    <glyph glyph-name="one" unicode="1" horiz-adv-x="1153" 
d="M748 1408h162l-248 -1408h-171l215 1218l-388 -292l30 185z" />
    <glyph glyph-name="two" unicode="2" horiz-adv-x="1153" 
d="M1090 1018q-20 -107 -82.5 -199t-183.5 -199l-531 -461h698l-28 -159h-949l21 131l665 587q113 98 163 175.5t60 150.5q18 113 -39 174t-163 61q-121 0 -211.5 -76t-113.5 -206q-11 -58 -5 -138l-170 26q-4 80 6 135q33 187 170.5 298t328.5 111q189 0 292.5 -110.5
t71.5 -300.5z" />
    <glyph glyph-name="three" unicode="3" horiz-adv-x="1153" 
d="M489 -19q-99 0 -181 29t-138.5 82.5t-80.5 137.5t-5 186q6 37 16 71l181 -1q-19 -50 -27 -92q-21 -120 48 -188t190 -68q140 0 241.5 80t122.5 207q22 121 -43.5 190t-186.5 69h-75l25 147h63q91 0 170 69t97 168q15 91 -39.5 147t-152.5 56q-106 0 -186.5 -63.5
t-98.5 -162.5q-7 -40 -4 -65l-173 16q0 46 7 70q27 160 157.5 260.5t299.5 100.5q177 0 278 -107t73 -264q-18 -102 -86.5 -178.5t-162.5 -110.5q112 -33 174 -130.5t36 -243.5q-22 -123 -99.5 -217.5t-191.5 -144.5t-248 -50z" />
    <glyph glyph-name="four" unicode="4" horiz-adv-x="1153" 
d="M1101 442l-27 -159h-218l-50 -283h-173l50 283h-673l25 160l756 965h263l-170 -966h217zM711 442l148 837l-640 -837h492z" />
    <glyph glyph-name="five" unicode="5" horiz-adv-x="1153" 
d="M1128 1245h-594l-104 -339h182q257 0 365 -122.5t69 -338.5q-36 -206 -185.5 -334.5t-355.5 -128.5q-76 0 -143 18.5t-121.5 55t-90.5 91t-48.5 126t3.5 160.5q7 38 16 65l179 5q-20 -59 -24 -86q-13 -72 1.5 -127t50.5 -85.5t80.5 -45.5t97.5 -15q141 0 242.5 88.5
t125.5 224.5q55 297 -296 297h-364l204 652h738z" />
    <glyph glyph-name="six" unicode="6" horiz-adv-x="1153" 
d="M693 943q89 -5 163 -39.5t125.5 -95t72.5 -151.5t3 -200q-34 -208 -195.5 -340.5t-361.5 -132.5q-140 0 -243.5 60.5t-151 172.5t-22.5 253q32 174 175 330l581 608h209l-458 -473q48 10 103 8zM892 484q23 146 -48.5 229.5t-205.5 83.5q-144 0 -256.5 -100.5
t-136.5 -243.5q-24 -146 47 -227t210 -81q144 0 255 93.5t135 245.5z" />
    <glyph glyph-name="seven" unicode="7" horiz-adv-x="1153" 
d="M260 1408h962l-23 -145l-910 -1263h-204l912 1248h-765z" />
    <glyph glyph-name="eight" unicode="8" horiz-adv-x="1153" 
d="M500 -19q-186 0 -303 97t-117 259q0 149 88 267.5t247 175.5q-65 36 -103 99.5t-38 143.5q0 69 31 139.5t86.5 130t144.5 97t195 37.5q157 0 255.5 -84.5t98.5 -220.5q0 -114 -66.5 -208t-178.5 -146q95 -36 149.5 -114t54.5 -186q0 -68 -22 -137t-68 -132t-109.5 -111.5
t-153 -77.5t-191.5 -29zM632 831q68 0 125.5 27t92.5 68.5t54 87t19 85.5q0 79 -55.5 129.5t-143.5 50.5q-118 0 -205 -77.5t-87 -190.5q0 -79 55.5 -129.5t144.5 -50.5zM506 141q90 0 163 33t116.5 84.5t66.5 110t23 114.5q0 100 -69.5 158t-181.5 58q-152 0 -260.5 -96
t-108.5 -245q0 -101 69 -159t182 -58z" />
    <glyph glyph-name="nine" unicode="9" horiz-adv-x="1153" 
d="M727 1424q213 0 334.5 -136.5t83.5 -349.5q-34 -173 -177 -330l-581 -608h-214l458 472q-49 -9 -99 -7q-180 9 -288 144t-74 342q23 139 106.5 248t201.5 167t249 58zM980 955q24 145 -47 226t-208 81q-143 0 -255.5 -93.5t-135.5 -245.5q-23 -145 49.5 -228.5
t207.5 -83.5q143 0 254.5 100t134.5 244z" />
    <glyph glyph-name="colon" unicode=":" horiz-adv-x="604" 
d="M346 676q-52 0 -83 37.5t-23 90.5q8 43 44.5 73.5t79.5 30.5q51 0 82.5 -38.5t23.5 -89.5q-9 -44 -45 -74t-79 -30zM224 -20q-52 0 -83.5 38t-22.5 90q8 43 44 73.5t78 30.5q52 0 84 -38.5t23 -89.5q-8 -44 -44 -74t-79 -30z" />
    <glyph glyph-name="semicolon" unicode=";" horiz-adv-x="616" 
d="M380 676q-53 0 -84.5 37.5t-22.5 90.5q8 43 44.5 73.5t80.5 30.5q50 0 82 -38.5t23 -89.5q-8 -44 -44.5 -74t-78.5 -30zM-14 -361l232 620h183l-285 -620h-130z" />
    <glyph glyph-name="less" unicode="&#x3c;" horiz-adv-x="1430" 
d="M1275 1361v-157l-981 -495l981 -496v-160l-1130 572v169z" />
    <glyph glyph-name="equal" unicode="=" horiz-adv-x="1194" 
d="M221 824v142h764v-142h-764zM221 415v142h764v-142h-764z" />
    <glyph glyph-name="greater" unicode="&#x3e;" horiz-adv-x="1430" 
d="M232 1361l1131 -567v-169l-1131 -572v160l981 496l-981 495v157z" />
    <glyph glyph-name="question" unicode="?" horiz-adv-x="1003" 
d="M404 394l23 131q17 95 69 144.5t163 102.5q151 61 185 250q21 119 -34.5 190t-165.5 71q-116 0 -206.5 -83t-112.5 -208q-7 -47 -6 -75l-146 24q0 38 8 94q32 174 161 283.5t304 109.5q184 0 282.5 -119t65.5 -308q-26 -141 -100 -227.5t-172 -127.5q-67 -23 -104 -56.5
t-47 -90.5l-18 -105h-149zM423 -20q-51 0 -82.5 37.5t-21.5 90.5q7 43 43 73.5t78 30.5q51 0 82 -38t22 -90q-8 -44 -43.5 -74t-77.5 -30z" />
    <glyph glyph-name="at" unicode="@" horiz-adv-x="1753" 
d="M770 -201q-137 0 -256 48t-201.5 130.5t-129.5 198t-47 246.5q0 100 29 203t82 199t132.5 180.5t174 147t213.5 99t245 36.5q137 0 254.5 -46.5t200 -128.5t129 -198t46.5 -250q0 -100 -23.5 -193t-69 -170.5t-121 -124t-169.5 -46.5t-153.5 38t-73.5 103h-11
q-104 -125 -269 -125q-97 0 -157.5 45.5t-60.5 132.5q0 112 75.5 180t246.5 97l212 37q12 77 12 91q2 61 -36 90t-100 29q-71 0 -127.5 -35t-75.5 -100l-113 40q32 94 114.5 143.5t201.5 49.5t195.5 -53t76.5 -162q0 -31 -32 -203t-32 -198q0 -95 109 -95q71 0 125 41
t83 107t43 136.5t14 141.5q0 228 -142.5 368.5t-369.5 140.5q-114 0 -220 -33.5t-188 -90.5t-150.5 -132t-113 -158t-68.5 -168.5t-24 -163.5q0 -219 146.5 -363t375.5 -144q169 0 331 89l47 -110q-175 -97 -380 -97zM793 247q54 0 104.5 21.5t92.5 72.5t56 123l15 83
l-187 -38q-203 -39 -203 -170q0 -46 32.5 -69t89.5 -23z" />
    <glyph glyph-name="A" unicode="A" horiz-adv-x="1330" 
d="M1020 0l-61 339h-639l-182 -339h-181l765 1405h206l271 -1405h-179zM402 492h529l-133 740z" />
    <glyph glyph-name="B" unicode="B" horiz-adv-x="1241" 
d="M915 727q210 -67 210 -293q0 -65 -14.5 -123.5t-52.5 -116.5t-96 -100t-151.5 -68t-212.5 -26h-480l248 1405h362q410 0 410 -309q0 -264 -223 -369zM977 1069q0 44 -10.5 74.5t-37.5 57t-81.5 40t-135.5 13.5h-208l-81 -467h236q148 0 233 77t85 205zM590 153
q192 0 282.5 78t90.5 201q0 101 -62 156.5t-187 55.5h-316l-85 -491h277z" />
    <glyph glyph-name="C" unicode="C" horiz-adv-x="1497" 
d="M729 -19q-268 0 -432 154.5t-164 420.5q0 167 59 323.5t164 277.5t262.5 194t341.5 73q211 0 360.5 -99t203.5 -275l-166 -56q-41 129 -147.5 197.5t-257.5 68.5q-116 0 -219.5 -38t-181 -104.5t-134.5 -154t-86 -189.5t-29 -207q0 -200 119.5 -310.5t313.5 -110.5
q155 0 292 72.5t224 203.5l150 -76q-113 -174 -291 -269.5t-382 -95.5z" />
    <glyph glyph-name="D" unicode="D" horiz-adv-x="1414" 
d="M118 0l248 1405h444q266 0 405.5 -144.5t139.5 -390.5q0 -121 -27 -240.5t-88 -234t-149.5 -201.5t-222 -140.5t-294.5 -53.5h-456zM317 157h267q125 0 227 44.5t168.5 116t112.5 166t65.5 190.5t19.5 193q0 182 -96.5 282t-291.5 100h-279z" />
    <glyph glyph-name="E" unicode="E" horiz-adv-x="1060" 
d="M1089 1249h-574l-83 -470h505l-27 -155h-505l-83 -467h574l-27 -157h-751l248 1405h750z" />
    <glyph glyph-name="F" unicode="F" horiz-adv-x="1025" 
d="M1094 1249h-579l-83 -468h506l-28 -157h-506l-110 -624h-176l248 1405h756z" />
    <glyph glyph-name="G" unicode="G" horiz-adv-x="1593" 
d="M722 -19q-266 0 -428.5 152t-162.5 417q0 168 58.5 325t163 279.5t262.5 196t343 73.5q197 0 341 -86t206 -245l-160 -73q-45 123 -148 184t-245 61q-118 0 -222 -39.5t-181 -108t-133 -158.5t-84.5 -194.5t-28.5 -212.5q0 -198 117 -305.5t317 -107.5q203 0 354 113
t211 321l-480 -5l27 146h648l-126 -714h-142l50 264q-96 -138 -238.5 -210.5t-318.5 -72.5z" />
    <glyph glyph-name="H" unicode="H" horiz-adv-x="1473" 
d="M1258 1405h172l-248 -1405h-172l110 626h-718l-111 -626h-173l248 1405h174l-111 -624h719z" />
    <glyph glyph-name="I" unicode="I" horiz-adv-x="582" 
d="M118 0l248 1405h172l-248 -1405h-172z" />
    <glyph glyph-name="J" unicode="J" horiz-adv-x="925" 
d="M255 -19q-157 0 -297 85l92 139q83 -64 198 -64q121 0 204.5 81.5t107.5 220.5l170 962h172l-178 -1004q-34 -196 -161.5 -308t-307.5 -112z" />
    <glyph glyph-name="K" unicode="K" horiz-adv-x="1268" 
d="M679 733l-1 -5l457 -728h-208l-399 658h-122l-116 -658h-172l248 1405h172l-104 -592h127l588 592h218z" />
    <glyph glyph-name="L" unicode="L" horiz-adv-x="908" 
d="M320 157h488l-27 -157h-663l248 1405h172z" />
    <glyph glyph-name="M" unicode="M" horiz-adv-x="1836" 
d="M1510 1405h230l-143 -1405h-167l113 1164l-659 -1164h-102l-249 1164l-300 -1164h-168l354 1405h223l239 -1108z" />
    <glyph glyph-name="N" unicode="N" horiz-adv-x="1524" 
d="M1310 1405h170l-247 -1405h-178l-565 1147l-203 -1147h-169l248 1405h175l567 -1142z" />
    <glyph glyph-name="O" unicode="O" horiz-adv-x="1611" 
d="M729 -19q-268 0 -432 154.5t-164 420.5q0 167 59 323.5t164 277.5t262.5 194t341.5 73q265 0 429.5 -154t164.5 -419q0 -133 -37 -261.5t-109.5 -238t-171 -192.5t-229.5 -130.5t-278 -47.5zM736 144q143 0 266.5 59.5t205.5 157t128 223t46 257.5q0 198 -118 308.5
t-311 110.5q-116 0 -219.5 -38.5t-181 -105.5t-134.5 -154.5t-86 -189.5t-29 -207q0 -199 119.5 -310t313.5 -111z" />
    <glyph glyph-name="P" unicode="P" horiz-adv-x="1237" 
d="M833 1405q200 0 304.5 -107t104.5 -281q0 -102 -32 -186.5t-96 -148t-168.5 -98.5t-241.5 -35h-317l-97 -549h-172l248 1405h467zM695 700q204 0 290.5 81.5t86.5 229.5q0 113 -64.5 179.5t-202.5 66.5h-294l-98 -557h282z" />
    <glyph glyph-name="Q" unicode="Q" horiz-adv-x="1632" 
d="M1559 850q0 -194 -77.5 -371.5t-217.5 -300.5l191 -249l-162 -53l-160 209q-181 -104 -402 -104q-269 0 -434 154.5t-165 421.5q0 167 59.5 323t164.5 277t263 194t342 73q268 0 433 -154t165 -420zM302 562q0 -201 119.5 -312t314.5 -111q145 0 269.5 60t206.5 158.5
t128.5 224.5t46.5 259q0 198 -119 308.5t-313 110.5q-146 0 -270.5 -59.5t-207 -157.5t-129 -223t-46.5 -258z" />
    <glyph glyph-name="R" unicode="R" horiz-adv-x="1233" 
d="M1186 1083q0 -53 -12 -106.5t-40.5 -109.5t-71 -101.5t-109 -79.5t-148.5 -45l273 -641h-189l-255 635h-231l-112 -635h-173l248 1405h457q180 0 271.5 -88.5t91.5 -233.5zM511 1254l-86 -491h263q77 0 138 22t96.5 55t59 75.5t32 78.5t8.5 70q0 89 -58 139.5t-178 50.5
h-275z" />
    <glyph glyph-name="S" unicode="S" horiz-adv-x="1238" 
d="M582 -19q-225 0 -366.5 101.5t-148.5 273.5l178 32q8 -119 103 -188.5t243 -69.5q156 0 255 68.5t99 186.5q0 43 -12 78t-36.5 60.5t-52 44.5t-69 34.5t-75.5 26.5t-83 24q-5 1 -8 2q-50 14 -83 24t-77 27.5t-73 35.5t-60.5 45.5t-49.5 58.5t-30 74t-12 94
q0 118 66.5 212t181.5 146t257 52q131 0 236.5 -36t175 -115.5t74.5 -192.5l-170 -33q-7 113 -96 170.5t-217 57.5q-142 0 -239 -71.5t-97 -173.5q0 -34 9 -62t21 -48.5t37 -39t44.5 -30t56 -24.5t60 -19.5t67.5 -18.5q56 -15 88.5 -24.5t84.5 -28.5t82.5 -37t68 -48
t58 -63.5t34.5 -80.5t14 -102q0 -197 -151 -310t-388 -113z" />
    <glyph glyph-name="T" unicode="T" horiz-adv-x="976" 
d="M1097 1405l-27 -156h-363l-220 -1249h-171l220 1249h-362l27 156h896z" />
    <glyph glyph-name="U" unicode="U" horiz-adv-x="1373" 
d="M605 -19q-199 0 -321 104.5t-122 286.5q0 55 9 99l165 934h172l-162 -923q-8 -43 -8 -88q0 -127 74 -191.5t198 -64.5q100 0 185 39.5t146.5 121t81.5 195.5l161 911h172l-166 -947q-27 -149 -113 -258.5t-207.5 -164t-264.5 -54.5z" />
    <glyph glyph-name="V" unicode="V" horiz-adv-x="1294" 
d="M1226 1405h185l-764 -1405h-175l-267 1405h176l214 -1188z" />
    <glyph glyph-name="W" unicode="W" horiz-adv-x="1999" 
d="M372 0l-157 1405h176l129 -1164l562 1164h152l145 -1164l547 1164h180l-652 -1405h-200l-146 1095l-536 -1095h-200z" />
    <glyph glyph-name="X" unicode="X" horiz-adv-x="1382" 
d="M-47 0l680 734l-401 671h204l318 -550l513 550h213l-643 -671l416 -734h-212l-323 602l-541 -602h-224z" />
    <glyph glyph-name="Y" unicode="Y" horiz-adv-x="1157" 
d="M1289 1405l-595 -738l-118 -667h-174l119 673l-331 732h189l250 -581l456 581h204z" />
    <glyph glyph-name="Z" unicode="Z" horiz-adv-x="1198" 
d="M1257 1405l-24 -142l-994 -1106h824l-28 -157h-1041l24 141l1000 1108h-801l28 156h1012z" />
    <glyph glyph-name="bracketleft" unicode="[" horiz-adv-x="618" 
d="M-15 -512l361 2048h415l-21 -128h-263l-316 -1792h262l-23 -128h-415z" />
    <glyph glyph-name="backslash" unicode="\" horiz-adv-x="1453" 
d="M1155 -372l-992 1908h166l993 -1908h-167z" />
    <glyph glyph-name="bracketright" unicode="]" horiz-adv-x="619" 
d="M-136 -512l23 128h263l316 1792h-263l22 128h415l-361 -2048h-415z" />
    <glyph glyph-name="asciicircum" unicode="^" horiz-adv-x="1358" 
d="M1234 277h-146l-270 975l-615 -975h-154l711 1131h161z" />
    <glyph glyph-name="underscore" unicode="_" horiz-adv-x="1341" 
d="M46 -143l25 143h1024l-25 -143h-1024z" />
    <glyph glyph-name="grave" unicode="`" horiz-adv-x="457" 
d="M408 1229l-178 259l104 67l193 -326h-119z" />
    <glyph glyph-name="a" unicode="a" horiz-adv-x="1219" 
d="M976 980h165l-173 -980h-156l23 185q-63 -95 -163 -150.5t-211 -55.5q-171 0 -279 112t-108 299q0 110 40 219t109.5 195.5t173 140.5t221.5 54q119 0 205.5 -59.5t117.5 -159.5zM504 124q88 0 165.5 42.5t128.5 108t80.5 143.5t29.5 151q0 125 -72.5 206t-191.5 81
q-117 0 -211 -69.5t-142.5 -172t-48.5 -210.5q0 -128 72.5 -204t189.5 -76z" />
    <glyph glyph-name="b" unicode="b" horiz-adv-x="1218" 
d="M756 999q170 0 278 -112t108 -297q0 -111 -40 -220t-109 -196t-172.5 -141t-221.5 -54q-121 0 -207.5 60.5t-117.5 162.5l-37 -202h-162l271 1536h165l-125 -732q64 92 161.5 143.5t208.5 51.5zM568 124q72 0 137 27t113.5 72.5t84.5 103.5t54.5 122.5t18.5 127.5
q0 128 -72 203.5t-190 75.5q-87 0 -164.5 -42t-129.5 -108t-82 -145.5t-30 -155.5q0 -125 72.5 -203t187.5 -78z" />
    <glyph glyph-name="c" unicode="c" horiz-adv-x="1081" 
d="M489 -18q-188 0 -302.5 112t-114.5 299q0 114 41 222.5t113.5 194t182 137.5t236.5 52q166 0 273.5 -87t126.5 -239l-157 -16q-16 99 -81.5 151t-164.5 52q-90 0 -168 -42t-129 -109t-79.5 -150t-28.5 -166q0 -125 69.5 -198t183.5 -73q106 0 196.5 56.5t142.5 156.5
l153 -35q-73 -150 -205 -234t-288 -84z" />
    <glyph glyph-name="d" unicode="d" horiz-adv-x="1217" 
d="M1073 1536h165l-270 -1536h-161l27 182q-65 -94 -164.5 -148.5t-208.5 -54.5q-170 0 -278.5 111.5t-108.5 297.5q0 112 40 221t109.5 196t173 140.5t221.5 53.5q119 0 205.5 -59.5t117.5 -159.5zM506 124q87 0 164.5 42t128 107t79.5 143t29 152q0 128 -73.5 208
t-191.5 80q-87 0 -164 -40.5t-127.5 -105t-79.5 -144t-29 -159.5q0 -130 73 -206.5t191 -76.5z" />
    <glyph glyph-name="e" unicode="e" horiz-adv-x="1099" 
d="M643 999q179 0 283 -96t104 -277q0 -67 -10 -122l-10 -40h-771q-6 -42 -6 -85q0 -126 71.5 -192.5t187.5 -66.5q93 0 178 50t141 134l145 -42q-75 -132 -199.5 -206.5t-265.5 -74.5q-191 0 -303.5 106.5t-112.5 294.5q0 94 24.5 184t73 168.5t116 137.5t159 93t195.5 34z
M642 873q-138 0 -233.5 -80t-140.5 -208h600q5 35 5 59q0 114 -62 171.5t-169 57.5z" />
    <glyph glyph-name="f" unicode="f" horiz-adv-x="616" 
d="M686 1421q-64 0 -112.5 -44t-60.5 -120l-49 -277h229l-24 -132h-228l-150 -848h-165l150 848h-190l24 132h189l51 288q25 138 103.5 213t197.5 75q65 0 134 -24l-13 -128q-38 17 -86 17z" />
    <glyph glyph-name="g" unicode="g" horiz-adv-x="1202" 
d="M961 980h162l-165 -937q-43 -246 -188.5 -377.5t-364.5 -131.5q-359 0 -431 305l145 59q45 -225 282 -225q157 0 259 100t131 273l29 170q-61 -85 -160.5 -137t-207.5 -52q-165 0 -272.5 111.5t-107.5 288.5q0 149 72.5 281.5t195 211.5t262.5 79q118 0 206 -58.5
t118 -152.5zM496 170q101 0 193.5 59t148 155.5t55.5 200.5q0 118 -72.5 196.5t-189.5 78.5q-104 0 -196 -60t-146 -156.5t-54 -201.5q0 -119 73.5 -195.5t187.5 -76.5z" />
    <glyph glyph-name="h" unicode="h" horiz-adv-x="1084" 
d="M699 999q126 0 202 -69.5t76 -194.5q0 -24 -8 -82l-116 -653h-166l113 634q5 38 5 63q0 83 -45 122.5t-120 39.5q-95 0 -174.5 -58t-112.5 -167l-112 -634h-166l271 1536h166l-121 -688q57 72 136.5 111.5t171.5 39.5z" />
    <glyph glyph-name="i" unicode="i" horiz-adv-x="500" 
d="M393 1248q-48 0 -78.5 34t-26.5 82q5 48 43.5 82t86.5 34t79 -34t25 -82q-5 -48 -43.5 -82t-85.5 -34zM76 0l174 983h174l-174 -983h-174z" />
    <glyph glyph-name="j" unicode="j" horiz-adv-x="501" 
d="M394 1248q-48 0 -78.5 34t-26.5 82q5 48 43.5 82t86.5 34t79 -34t25 -82q-5 -48 -43.5 -82t-85.5 -34zM-225 -460l24 147q135 0 190.5 67t90.5 266l170 963h175l-172 -975q-46 -261 -152.5 -364.5t-325.5 -103.5z" />
    <glyph glyph-name="k" unicode="k" horiz-adv-x="1001" 
d="M1034 980l-484 -452l358 -528h-200l-308 467h-75l-82 -467h-168l271 1536h167l-165 -941h84l398 385h204z" />
    <glyph glyph-name="l" unicode="l" horiz-adv-x="492" 
d="M75 0l271 1536h167l-270 -1536h-168z" />
    <glyph glyph-name="m" unicode="m" horiz-adv-x="1602" 
d="M1229 999q120 0 193 -65.5t73 -182.5q0 -29 -7 -75l-119 -676h-166l113 645q6 33 6 61q0 78 -41 115.5t-110 37.5q-88 0 -157 -60t-93 -171l-112 -628h-169l112 638q5 40 5 64q0 80 -40.5 118.5t-111.5 38.5q-90 0 -162 -65.5t-92 -184.5h-2l-107 -609h-166l174 980h165
l-23 -133q114 152 285 152q93 0 158.5 -43.5t88.5 -123.5q57 79 136 123t169 44z" />
    <glyph glyph-name="n" unicode="n" horiz-adv-x="1086" 
d="M701 999q126 0 202 -69.5t76 -194.5q0 -24 -8 -82l-116 -653h-167l113 634q6 34 6 63q0 84 -46 123t-124 39q-98 0 -177.5 -63.5t-108.5 -180.5l-109 -615h-166l174 980h165l-23 -133q122 152 309 152z" />
    <glyph glyph-name="o" unicode="o" horiz-adv-x="1148" 
d="M495 -19q-189 0 -305 110.5t-116 298.5q0 116 40.5 225t113.5 194.5t183.5 137.5t240.5 52q190 0 305.5 -110.5t115.5 -297.5q0 -116 -41 -225t-114 -195t-183.5 -138t-239.5 -52zM499 121q120 0 216 70.5t145 175t49 216.5q0 127 -72 202t-191 75q-121 0 -216 -71.5
t-142.5 -176t-47.5 -216.5q0 -127 70.5 -201t188.5 -74z" />
    <glyph glyph-name="p" unicode="p" horiz-adv-x="1219" 
d="M755 999q171 0 279 -110t108 -295q0 -152 -66 -291.5t-193 -231.5t-285 -92q-118 0 -204.5 60t-118.5 159l-119 -692h-167l260 1474h161l-27 -182q64 94 163 147.5t209 53.5zM573 124q117 0 211 69t142.5 171.5t48.5 211.5q0 129 -73 203.5t-188 74.5q-88 0 -166 -41.5
t-129.5 -106.5t-81 -143t-29.5 -154q0 -127 73.5 -206t191.5 -79z" />
    <glyph glyph-name="q" unicode="q" horiz-adv-x="1217" 
d="M980 980h161l-259 -1474h-167l116 671q-64 -92 -162 -145t-206 -53q-170 0 -278.5 110t-108.5 296q0 154 66.5 293.5t193.5 230t284 90.5q118 0 205 -59.5t117 -158.5zM502 124q89 0 167 41.5t129 106t80.5 143t29.5 153.5q0 126 -73.5 206t-190.5 80q-71 0 -135 -26
t-111.5 -70.5t-82.5 -102t-53 -122.5t-18 -131q0 -129 71.5 -203.5t186.5 -74.5z" />
    <glyph glyph-name="r" unicode="r" horiz-adv-x="644" 
d="M384 811q51 80 141 129.5t193 50.5l-32 -167q-138 0 -232 -77.5t-121 -233.5l-90 -513h-167l174 980h162z" />
    <glyph glyph-name="s" unicode="s" horiz-adv-x="910" 
d="M386 -19q-163 0 -255.5 73.5t-91.5 203.5l155 32q-4 -86 49.5 -135.5t147.5 -49.5q99 0 165 50.5t66 138.5q0 28 -11 49t-26.5 35t-47 27.5t-57 21.5t-73.5 20q-60 15 -99.5 30.5t-80.5 42t-61.5 67.5t-20.5 96q0 147 107 230.5t271 83.5q145 0 235.5 -66t90.5 -194
l-146 -26q4 83 -47 124t-129 41q-93 0 -158 -49t-65 -132q0 -22 6 -39t23 -30.5t29 -22t42.5 -18t44.5 -13.5t53 -14q50 -12 85 -23.5t75.5 -32t65.5 -45t41.5 -62.5t16.5 -86q0 -154 -113 -241t-287 -87z" />
    <glyph glyph-name="t" unicode="t" horiz-adv-x="668" 
d="M393 0q-105 0 -164.5 55.5t-59.5 153.5q0 28 6 61l103 578h-202l24 132h68q66 0 111 38t58 106l32 184h156l-58 -328h227l-23 -132h-227l-102 -573q-3 -14 -3 -38q0 -51 29.5 -77.5t81.5 -26.5h94l-23 -133h-128z" />
    <glyph glyph-name="u" unicode="u" horiz-adv-x="1086" 
d="M843 980h166l-173 -980h-159l20 138q-122 -157 -311 -157q-128 0 -204 69.5t-76 194.5q0 24 8 82l117 653h165l-110 -623q-6 -37 -6 -67q0 -84 45.5 -124.5t121.5 -40.5q109 0 189 69.5t101 191.5h1z" />
    <glyph glyph-name="v" unicode="v" horiz-adv-x="968" 
d="M855 980h183l-571 -980h-141l-223 980h172l151 -787z" />
    <glyph glyph-name="w" unicode="w" horiz-adv-x="1559" 
d="M1444 980h177l-511 -981h-150l-134 762l-403 -762h-151l-159 981h172l110 -757l403 757h128l134 -760z" />
    <glyph glyph-name="x" unicode="x" horiz-adv-x="1006" 
d="M-64 0l465 491l-287 489h200l205 -378l343 378h207l-466 -489l288 -491h-198l-203 377l-344 -377h-210z" />
    <glyph glyph-name="y" unicode="y" horiz-adv-x="961" 
d="M848 980h180l-820 -1441h-176l283 493l-209 948h181l143 -768z" />
    <glyph glyph-name="z" unicode="z" horiz-adv-x="872" 
d="M908 980l-668 -844h517l-24 -136h-782l664 845h-482l24 135h751z" />
    <glyph glyph-name="braceleft" unicode="{" horiz-adv-x="592" 
d="M274 -507q-106 0 -161 70t-36 173l76 434q16 86 16 141.5t-25 89.5t-88 62l9 108q104 41 145.5 103t67.5 199l75 431q18 105 91.5 168.5t179.5 63.5h94l-21 -119h-53q-54 0 -91.5 -42t-49.5 -114l-74 -418q-9 -50 -18 -84t-27.5 -74t-43.5 -68t-65.5 -56t-95.5 -50
q72 -33 107 -86t35.5 -115t-11.5 -137l-74 -420q-14 -73 4 -105.5t76 -32.5h63l-20 -122h-85z" />
    <glyph glyph-name="bar" unicode="|" horiz-adv-x="605" 
d="M105 -307l324 1843h115l-324 -1843h-115z" />
    <glyph glyph-name="braceright" unicode="}" horiz-adv-x="592" 
d="M-117 -507l20 122h53q58 0 94 39t48 112l74 420q12 64 25 104.5t39 86.5t72 80.5t114 61.5q-72 33 -107 86t-35.5 114.5t10.5 136.5l74 418q26 143 -79 143h-64l21 119h84q106 0 161.5 -70t36.5 -175l-77 -431q-27 -129 -10 -191t106 -103l-8 -108q-105 -41 -146 -102.5
t-66 -198.5l-76 -433q-18 -104 -91.5 -167.5t-179.5 -63.5h-93z" />
    <glyph glyph-name="asciitilde" unicode="~" horiz-adv-x="1389" 
d="M919 351q-48 0 -89.5 13t-75.5 38t-55 45t-47 49q-5 5 -7 8q-39 45 -72.5 66.5t-73.5 21.5q-77 0 -123 -63.5t-48 -156.5h-134q-4 157 81 255.5t226 98.5q82 0 139 -37t116 -112q26 -32 43.5 -49t46.5 -31.5t62 -14.5q74 0 122.5 60.5t45.5 157.5h132q9 -149 -74 -249
t-215 -100z" />
    <glyph glyph-name="exclamdown" unicode="&#xa1;" horiz-adv-x="616" 
d="M369 771q-52 0 -83 37.5t-23 90.5q8 44 44.5 74.5t80.5 30.5q51 0 82 -38.5t22 -90.5q-8 -44 -43.5 -74t-79.5 -30zM60 -425l189 1009h149l-166 -1009h-172z" />
    <glyph glyph-name="cent" unicode="&#xa2;" horiz-adv-x="1164" 
d="M615 371q88 0 170.5 45.5t143.5 122.5l111 -111q-170 -189 -391 -206l-39 -222h-109l40 226q-190 27 -290 181.5t-61 374.5q39 218 192 367t351 168l39 219h109l-39 -221q104 -12 183 -67.5t128 -144.5l-132 -92q-35 75 -97.5 116.5t-144.5 41.5q-149 0 -272.5 -116.5
t-155.5 -294.5q-30 -170 47 -278.5t217 -108.5z" />
    <glyph glyph-name="sterling" unicode="&#xa3;" horiz-adv-x="1301" 
d="M61 0l21 116l56 7q47 5 79 34.5t40 76.5l69 384h-155l23 137h155l41 229q34 197 177.5 321t339.5 124q148 0 243.5 -80.5t95.5 -221.5q0 -60 -24 -139l-157 -22q31 86 31 134q0 83 -55.5 128t-142.5 45q-133 0 -228 -82.5t-119 -219.5l-39 -216h332l-23 -137h-332
l-82 -463h683l-27 -155h-1002z" />
    <glyph glyph-name="currency" unicode="&#xa4;" horiz-adv-x="1356" 
d="M273 277l-82 100l126 107q-49 86 -49 191q0 192 140 337l-86 96l108 100l87 -103q129 88 274 88q153 0 252 -93l125 107l83 -95l-124 -108q49 -86 49 -193q0 -189 -139 -338l83 -96l-106 -100l-87 103q-125 -86 -273 -86q-152 0 -256 92zM662 427q86 0 159.5 34.5
t120 89.5t72.5 121t26 133q0 109 -66 181t-191 72q-86 0 -159.5 -34.5t-120.5 -90t-73.5 -123t-26.5 -134.5q0 -107 66 -178t193 -71z" />
    <glyph glyph-name="yen" unicode="&#xa5;" horiz-adv-x="1394" 
d="M521 0l45 250h-405l21 118h404l37 213h-404l21 118h386l-335 709h197l264 -579l471 579h207l-586 -709h379l-21 -118h-402l-36 -213h401l-20 -118h-402l-44 -250h-178z" />
    <glyph glyph-name="brokenbar" unicode="&#xa6;" horiz-adv-x="605" 
d="M299 799l130 737h115l-130 -737h-115zM105 -307l129 737h115l-129 -737h-115z" />
    <glyph glyph-name="section" unicode="&#xa7;" horiz-adv-x="1309" 
d="M721 798q85 -21 134 -36t117.5 -48.5t102.5 -72t53.5 -102.5t5.5 -145q-28 -146 -130 -238q72 -91 47 -231q-17 -97 -68.5 -170.5t-126.5 -117t-164 -65t-190 -21.5q-205 0 -330.5 97.5t-131.5 263.5l162 28q4 -119 89 -185.5t218 -66.5q94 0 172.5 24t138.5 84t74 150
q9 58 -7.5 99.5t-71.5 72t-92 44.5t-125 40q-19 6 -29 9q-75 19 -125 35.5t-108 47t-89 68t-46.5 96t-2.5 132.5q25 147 137 235q-81 89 -55 234q16 90 64 161t117 114.5t150.5 65.5t170.5 22q194 0 318 -84.5t132 -246.5l-155 -30q-7 113 -86.5 168.5t-203.5 55.5
q-81 0 -152 -24t-128 -82t-73 -143q-7 -43 5 -76.5t33.5 -55.5t64.5 -42t79 -32t94 -29q7 -2 11 -3zM353 567q-8 -43 5 -77t31.5 -55t66 -42.5t77 -31.5t96.5 -29q7 -2 10 -3q164 -41 244 -81q77 62 94 167q8 46 -6.5 83.5t-35.5 61t-71.5 46.5t-82 34t-100.5 31l-30 9
q-124 33 -187 60q-92 -63 -111 -173z" />
    <glyph glyph-name="dieresis" unicode="&#xa8;" horiz-adv-x="847" 
d="M378 1248q-48 0 -79 34t-25 82q4 48 42.5 82t86.5 34q47 0 77.5 -33.5t26.5 -82.5q-5 -48 -43.5 -82t-85.5 -34zM752 1248q-48 0 -79 34t-25 82q4 48 42.5 82t86.5 34q47 0 77.5 -33.5t26.5 -82.5q-5 -48 -43.5 -82t-85.5 -34z" />
    <glyph glyph-name="copyright" unicode="&#xa9;" horiz-adv-x="1748" 
d="M911 -20q-148 0 -282.5 58t-232 155.5t-155.5 232.5t-58 283t58 283t155.5 232.5t232 155.5t282.5 58q198 0 366.5 -98t266.5 -266t98 -365t-98 -365t-266.5 -266t-366.5 -98zM911 87q128 0 243.5 49t198 131.5t131.5 198t49 243.5q0 170 -82.5 313t-225.5 226t-314 83
q-170 0 -312.5 -83t-225 -226t-82.5 -313q0 -171 82.5 -314t225 -225.5t312.5 -82.5zM912 289q-171 0 -292.5 122t-121.5 294t121 293t293 121q90 0 173.5 -38t140.5 -105l-88 -76q-41 49 -101 77t-125 28q-124 0 -210.5 -87t-86.5 -213q0 -127 86.5 -213.5t210.5 -86.5
q66 0 125.5 27t100.5 76l88 -76q-57 -67 -140.5 -105t-173.5 -38z" />
    <glyph glyph-name="ordfeminine" unicode="&#xaa;" horiz-adv-x="1000" 
d="M871 1536h110l-109 -614h-110l20 110q-102 -123 -253 -123q-118 0 -193.5 78t-75.5 195q0 144 108.5 255t252.5 111q83 0 141 -36.5t87 -100.5zM548 1006q92 0 169.5 62.5t97.5 152.5l4 23q2 18 2 29q0 78 -51 127t-129 49q-111 0 -192 -82t-81 -184q0 -80 50 -128.5
t130 -48.5z" />
    <glyph glyph-name="guillemotleft" unicode="&#xab;" horiz-adv-x="971" 
d="M325 229l-247 377l375 377h153l-380 -377l242 -377h-143zM707 229l-247 377l374 377h154l-380 -377l242 -377h-143z" />
    <glyph glyph-name="logicalnot" unicode="&#xac;" horiz-adv-x="1669" 
d="M1306 313v525h-1112v145h1257v-670h-145z" />
    <glyph glyph-name="uni00AD" unicode="&#xad;" horiz-adv-x="1036" 
d="M158 481l25 148h717l-25 -148h-717z" />
    <glyph glyph-name="registered" unicode="&#xae;" horiz-adv-x="1748" 
d="M911 1438q198 0 366.5 -98t266.5 -266t98 -365t-98 -365t-266.5 -266t-366.5 -98q-148 0 -282.5 58t-232 155.5t-155.5 232.5t-58 283t58 283t155.5 232.5t232 155.5t282.5 58zM911 87q128 0 243.5 49t198 131.5t131.5 198t49 243.5q0 170 -82.5 313t-225.5 226t-314 83
q-170 0 -312.5 -83t-225 -226t-82.5 -313q0 -171 82.5 -314t225 -225.5t312.5 -82.5zM1223 891q0 -73 -39 -131.5t-104 -85.5l172 -388h-122l-159 368h-190v-368h-110v846h311q100 0 170.5 -70t70.5 -171zM781 1028v-277h188q61 0 102.5 40t41.5 99q0 60 -41 99t-103 39
h-188z" />
    <glyph glyph-name="macron" unicode="&#xaf;" horiz-adv-x="965" 
d="M295 1254l19 111h647l-20 -111h-646z" />
    <glyph glyph-name="degree" unicode="&#xb0;" horiz-adv-x="936" 
d="M582 853q-120 0 -204 84.5t-84 203.5t84 203t204 84q119 0 203 -84t84 -203t-84 -203.5t-203 -84.5zM582 956q76 0 129.5 53.5t53.5 131.5q0 77 -53.5 131t-129.5 54t-130 -54t-54 -131q0 -78 53.5 -131.5t130.5 -53.5z" />
    <glyph glyph-name="plusminus" unicode="&#xb1;" horiz-adv-x="1284" 
d="M575 339v405h-403v141h403v405h143v-405h404v-141h-404v-405h-143zM162 2v143h945v-143h-945z" />
    <glyph glyph-name="acute" unicode="&#xb4;" horiz-adv-x="457" 
d="M177 1229l309 326l80 -67l-270 -259h-119z" />
    <glyph glyph-name="uni00B5" unicode="&#xb5;" horiz-adv-x="1317" 
d="M1062 983h155l-174 -983h-155l26 149q-69 -79 -159.5 -124t-187.5 -45q-156 0 -256 105l-105 -597h-138l156 883l3 20l105 592h156l-104 -589q-20 -117 44.5 -196t178.5 -79q118 0 219 78t130 189z" />
    <glyph glyph-name="paragraph" unicode="&#xb6;" horiz-adv-x="1159" 
d="M389 -307l181 1028h-59q-171 0 -254 93.5t-54 263.5q28 161 136.5 245.5t279.5 84.5h167l-302 -1715h-95zM676 -307l302 1715h97l-301 -1715h-98z" />
    <glyph glyph-name="periodcentered" unicode="&#xb7;" horiz-adv-x="587" 
d="M331 643q-42 0 -68 31t-19 75q6 34 35 57.5t64 23.5q40 0 66 -31.5t19 -73.5q-6 -35 -34.5 -58.5t-62.5 -23.5z" />
    <glyph glyph-name="cedilla" unicode="&#xb8;" horiz-adv-x="589" 
d="M105 -532q-72 0 -132 37t-81 93l93 36q16 -32 55 -53.5t80 -21.5q49 0 89.5 34t49.5 85q10 54 -19.5 84t-84.5 30q-44 0 -85 -20l-65 49l148 219h95l-119 -178q40 8 57 8q87 0 133.5 -53t32.5 -139q-16 -88 -87 -149t-160 -61z" />
    <glyph glyph-name="ordmasculine" unicode="&#xba;" horiz-adv-x="926" 
d="M547 909q-127 0 -208 79t-81 198q0 144 114 253t264 109q128 0 209.5 -78t81.5 -196q0 -148 -114.5 -256.5t-265.5 -108.5zM547 1006q105 0 188.5 81t83.5 185q0 76 -52 126.5t-131 50.5q-110 0 -190 -82.5t-80 -183.5q0 -76 51 -126.5t130 -50.5z" />
    <glyph glyph-name="guillemotright" unicode="&#xbb;" horiz-adv-x="968" 
d="M20 229l381 377l-242 377h141l249 -377l-376 -377h-153zM401 229l381 377l-242 377h142l249 -377l-376 -377h-154z" />
    <glyph glyph-name="onequarter" unicode="&#xbc;" horiz-adv-x="1717" 
d="M1334 1536h131l-1136 -1536h-134zM307 614l143 804l-248 -168l18 116l256 170h109l-162 -922h-116zM1589 922l-112 -634h102l-16 -93h-103l-34 -195h-112l34 195h-436l14 90l513 637h150zM1364 288l93 529l-416 -529h323z" />
    <glyph glyph-name="onehalf" unicode="&#xbd;" horiz-adv-x="1783" 
d="M1334 1536h132l-1137 -1536h-133zM307 614l143 804l-249 -168l21 116l254 170h110l-163 -922h-116zM1686 660q-17 -117 -137 -237t-429 -328h495l-17 -95h-626l15 113q240 172 364 274.5t169 161.5t55 119q15 84 -22 124.5t-106 40.5q-82 0 -141 -52t-75 -131l-117 10
q24 124 117 200t217 76q123 0 190 -76t48 -200z" />
    <glyph glyph-name="threequarters" unicode="&#xbe;" horiz-adv-x="1922" 
d="M635 1122q53 -30 82.5 -81t32.5 -108t-18.5 -116.5t-62.5 -107t-107.5 -77.5t-146.5 -30q-127 0 -201 80.5t-54 196.5l116 -13q-12 -73 27 -117.5t108 -44.5q110 0 177 86q56 71 47 151q-9 82 -85 109q-30 11 -68 11h-66l16 96h50q92 0 148 78q47 65 36 132
q-11 66 -77 79q-14 3 -29 3q-64 0 -114 -42.5t-62 -108.5l-115 14q19 104 100 170t186 66q67 0 116 -24t73.5 -62t30 -86t-8.5 -95t-48 -90t-83 -69zM1540 1536h131l-1137 -1536h-133zM1794 922l-111 -634h101l-16 -93h-102l-34 -195h-113l34 195h-436l14 90l513 637h150z
M1570 288l93 531l-417 -531h324z" />
    <glyph glyph-name="questiondown" unicode="&#xbf;" horiz-adv-x="1003" 
d="M550 771q-51 0 -82 38t-22 90q8 44 43.5 74t77.5 30q51 0 82.5 -38t21.5 -90q-7 -43 -43 -73.5t-78 -30.5zM344 -445q-184 0 -282.5 119t-65.5 308q26 141 100 227.5t172 126.5q67 24 104 57.5t48 89.5l17 106h149l-23 -132q-9 -50 -27.5 -86.5t-50.5 -65t-65.5 -48.5
t-88.5 -46q-151 -63 -185 -250q-21 -120 34.5 -190.5t165.5 -70.5q116 0 206.5 83t112.5 208q7 37 6 75l146 -25q0 -37 -8 -93q-32 -174 -161 -283.5t-304 -109.5z" />
    <glyph glyph-name="Agrave" unicode="&#xc0;" horiz-adv-x="1330" 
d="M911 1551h-119l-179 259l105 67zM1020 0l-61 339h-639l-182 -339h-181l765 1405h206l271 -1405h-179zM402 492h529l-133 740z" />
    <glyph glyph-name="Aacute" unicode="&#xc1;" horiz-adv-x="1330" 
d="M1174 1810l-270 -259h-119l310 326zM1020 0l-61 339h-639l-182 -339h-181l765 1405h206l271 -1405h-179zM402 492h529l-133 740z" />
    <glyph glyph-name="Acircumflex" unicode="&#xc2;" horiz-adv-x="1330" 
d="M890 1775l-196 -224h-118l263 295h127l160 -295h-119zM1020 0l-61 339h-639l-182 -339h-181l765 1405h206l271 -1405h-179zM402 492h529l-133 740z" />
    <glyph glyph-name="Atilde" unicode="&#xc3;" horiz-adv-x="1330" 
d="M742 1714q-49 0 -87 -44.5t-51 -114.5h-97q21 112 89.5 183t160.5 71q113 0 164 -111q28 -62 92 -62q51 0 87.5 42t48.5 114h98q-20 -111 -87.5 -182t-161.5 -71q-115 0 -166 110q-27 65 -90 65zM722 1405h206l271 -1405h-179l-61 339h-639l-182 -339h-181zM402 492h529
l-133 740z" />
    <glyph glyph-name="Adieresis" unicode="&#xc4;" horiz-adv-x="1330" 
d="M667 1551q-44 0 -70 31.5t-19 75.5q9 44 46.5 75.5t81.5 31.5q43 0 69.5 -31.5t17.5 -75.5q-7 -44 -44.5 -75.5t-81.5 -31.5zM1035 1551q-44 0 -70 31.5t-19 75.5q9 44 46.5 75.5t81.5 31.5t69.5 -31.5t17.5 -75.5q-7 -44 -44.5 -75.5t-81.5 -31.5zM1020 0l-61 339h-639
l-182 -339h-181l765 1405h206l271 -1405h-179zM402 492h529l-133 740z" />
    <glyph glyph-name="Aring" unicode="&#xc5;" horiz-adv-x="1330" 
d="M858 1551q-81 0 -131 49t-52 128q-2 97 68.5 169.5t173.5 72.5q82 0 131 -49t51 -126q2 -96 -68.5 -170t-172.5 -74zM910 1889q-61 0 -104.5 -46t-43.5 -105q0 -46 29 -74t77 -28q61 0 104 43.5t43 102.5q0 46 -29 76.5t-76 30.5zM1020 0l-61 339h-639l-182 -339h-181
l765 1405h206l271 -1405h-179zM402 492h529l-133 740z" />
    <glyph glyph-name="AE" unicode="&#xc6;" horiz-adv-x="1737" 
d="M-43 0l768 1408h1069l-28 -162h-607l-82 -462h531l-29 -162h-531l-80 -459h607l-29 -163h-786l59 337h-491l-180 -337h-191zM410 495h438l132 750h-168z" />
    <glyph glyph-name="Ccedilla" unicode="&#xc7;" horiz-adv-x="1497" 
d="M736 146q155 0 292 72.5t224 203.5l150 -76q-109 -168 -279.5 -263t-366.5 -102l-80 -119q40 8 57 8q87 0 133.5 -53t32.5 -139q-16 -88 -87 -149t-160 -61q-72 0 -132 37t-81 93l93 36q16 -32 55 -53.5t80 -21.5q49 0 89.5 34t49.5 85q10 54 -19.5 84t-84.5 30
q-44 0 -85 -20l-65 49l110 163q-241 19 -385 171t-144 401q0 167 59 323.5t164 277.5t262.5 194t341.5 73q211 0 360.5 -99t203.5 -275l-166 -56q-41 129 -147.5 197.5t-257.5 68.5q-116 0 -219.5 -38t-181 -104.5t-134.5 -154t-86 -189.5t-29 -207q0 -200 119.5 -310.5
t313.5 -110.5z" />
    <glyph glyph-name="Egrave" unicode="&#xc8;" horiz-adv-x="1060" 
d="M829 1551h-119l-179 259l105 67zM1089 1249h-574l-83 -470h505l-27 -155h-505l-83 -467h574l-27 -157h-751l248 1405h750z" />
    <glyph glyph-name="Eacute" unicode="&#xc9;" horiz-adv-x="1060" 
d="M1092 1810l-270 -259h-119l310 326zM1089 1249h-574l-83 -470h505l-27 -155h-505l-83 -467h574l-27 -157h-751l248 1405h750z" />
    <glyph glyph-name="Ecircumflex" unicode="&#xca;" horiz-adv-x="1060" 
d="M808 1775l-196 -224h-118l263 295h127l160 -295h-119zM1089 1249h-574l-83 -470h505l-27 -155h-505l-83 -467h574l-27 -157h-751l248 1405h750z" />
    <glyph glyph-name="Edieresis" unicode="&#xcb;" horiz-adv-x="1060" 
d="M585 1551q-44 0 -70 31.5t-19 75.5q9 44 46.5 75.5t81.5 31.5q43 0 69.5 -31.5t17.5 -75.5q-7 -44 -44.5 -75.5t-81.5 -31.5zM953 1551q-44 0 -70 31.5t-19 75.5q9 44 46.5 75.5t81.5 31.5t69.5 -31.5t17.5 -75.5q-7 -44 -44.5 -75.5t-81.5 -31.5zM1089 1249h-574
l-83 -470h505l-27 -155h-505l-83 -467h574l-27 -157h-751l248 1405h750z" />
    <glyph glyph-name="Igrave" unicode="&#xcc;" horiz-adv-x="582" 
d="M417 1551l-179 259l105 67l193 -326h-119zM118 0l248 1405h172l-248 -1405h-172z" />
    <glyph glyph-name="Iacute" unicode="&#xcd;" horiz-adv-x="582" 
d="M410 1551l310 326l79 -67l-270 -259h-119zM118 0l248 1405h172l-248 -1405h-172z" />
    <glyph glyph-name="Icircumflex" unicode="&#xce;" horiz-adv-x="582" 
d="M319 1551h-118l263 295h127l160 -295h-119l-117 224zM118 0l248 1405h172l-248 -1405h-172z" />
    <glyph glyph-name="Idieresis" unicode="&#xcf;" horiz-adv-x="582" 
d="M292 1551q-44 0 -70 31.5t-19 75.5q9 44 46.5 75.5t81.5 31.5q43 0 69.5 -31.5t17.5 -75.5q-7 -44 -44.5 -75.5t-81.5 -31.5zM660 1551q-44 0 -70 31.5t-19 75.5q9 44 46.5 75.5t81.5 31.5t69.5 -31.5t17.5 -75.5q-7 -44 -44.5 -75.5t-81.5 -31.5zM118 0l248 1405h172
l-248 -1405h-172z" />
    <glyph glyph-name="Eth" unicode="&#xd0;" horiz-adv-x="1414" 
d="M810 1405q266 0 405.5 -144.5t139.5 -390.5q0 -121 -27 -240.5t-88 -234t-149.5 -201.5t-222 -140.5t-294.5 -53.5h-456l114 645h-165l20 115h165l114 645h444zM584 157q125 0 227 44.5t168.5 116t112.5 166t65.5 190.5t19.5 193q0 182 -96.5 282t-291.5 100h-279
l-86 -489h270l-21 -115h-270l-86 -488h267z" />
    <glyph glyph-name="Ntilde" unicode="&#xd1;" horiz-adv-x="1524" 
d="M839 1714q-49 0 -87 -44.5t-51 -114.5h-97q21 112 89.5 183t160.5 71q113 0 164 -111q28 -62 92 -62q51 0 87.5 42t48.5 114h98q-20 -111 -87.5 -182t-161.5 -71q-115 0 -166 110q-27 65 -90 65zM1310 1405h170l-247 -1405h-178l-565 1147l-203 -1147h-169l248 1405h175
l567 -1142z" />
    <glyph glyph-name="Ograve" unicode="&#xd2;" horiz-adv-x="1611" 
d="M934 1551l-179 259l105 67l193 -326h-119zM729 -19q-268 0 -432 154.5t-164 420.5q0 167 59 323.5t164 277.5t262.5 194t341.5 73q265 0 429.5 -154t164.5 -419q0 -133 -37 -261.5t-109.5 -238t-171 -192.5t-229.5 -130.5t-278 -47.5zM736 144q143 0 266.5 59.5
t205.5 157t128 223t46 257.5q0 198 -118 308.5t-311 110.5q-116 0 -219.5 -38.5t-181 -105.5t-134.5 -154.5t-86 -189.5t-29 -207q0 -199 119.5 -310t313.5 -111z" />
    <glyph glyph-name="Oacute" unicode="&#xd3;" horiz-adv-x="1611" 
d="M927 1551l310 326l79 -67l-270 -259h-119zM729 -19q-268 0 -432 154.5t-164 420.5q0 167 59 323.5t164 277.5t262.5 194t341.5 73q265 0 429.5 -154t164.5 -419q0 -133 -37 -261.5t-109.5 -238t-171 -192.5t-229.5 -130.5t-278 -47.5zM736 144q143 0 266.5 59.5
t205.5 157t128 223t46 257.5q0 198 -118 308.5t-311 110.5q-116 0 -219.5 -38.5t-181 -105.5t-134.5 -154.5t-86 -189.5t-29 -207q0 -199 119.5 -310t313.5 -111z" />
    <glyph glyph-name="Ocircumflex" unicode="&#xd4;" horiz-adv-x="1611" 
d="M836 1551h-118l263 295h127l160 -295h-119l-117 224zM729 -19q-268 0 -432 154.5t-164 420.5q0 167 59 323.5t164 277.5t262.5 194t341.5 73q265 0 429.5 -154t164.5 -419q0 -133 -37 -261.5t-109.5 -238t-171 -192.5t-229.5 -130.5t-278 -47.5zM736 144
q143 0 266.5 59.5t205.5 157t128 223t46 257.5q0 198 -118 308.5t-311 110.5q-116 0 -219.5 -38.5t-181 -105.5t-134.5 -154.5t-86 -189.5t-29 -207q0 -199 119.5 -310t313.5 -111z" />
    <glyph glyph-name="Otilde" unicode="&#xd5;" horiz-adv-x="1611" 
d="M1140 1539q-115 0 -166 110q-27 65 -90 65q-49 0 -87 -44.5t-51 -114.5h-97q21 112 89.5 183t160.5 71q113 0 164 -111q28 -62 92 -62q51 0 87.5 42t48.5 114h98q-20 -111 -87.5 -182t-161.5 -71zM729 -19q-268 0 -432 154.5t-164 420.5q0 167 59 323.5t164 277.5
t262.5 194t341.5 73q265 0 429.5 -154t164.5 -419q0 -133 -37 -261.5t-109.5 -238t-171 -192.5t-229.5 -130.5t-278 -47.5zM736 144q143 0 266.5 59.5t205.5 157t128 223t46 257.5q0 198 -118 308.5t-311 110.5q-116 0 -219.5 -38.5t-181 -105.5t-134.5 -154.5t-86 -189.5
t-29 -207q0 -199 119.5 -310t313.5 -111z" />
    <glyph glyph-name="Odieresis" unicode="&#xd6;" horiz-adv-x="1611" 
d="M809 1551q-44 0 -70 31.5t-19 75.5q9 44 46.5 75.5t81.5 31.5q43 0 69.5 -31.5t17.5 -75.5q-7 -44 -44.5 -75.5t-81.5 -31.5zM1177 1551q-44 0 -70 31.5t-19 75.5q9 44 46.5 75.5t81.5 31.5t69.5 -31.5t17.5 -75.5q-7 -44 -44.5 -75.5t-81.5 -31.5zM729 -19
q-268 0 -432 154.5t-164 420.5q0 167 59 323.5t164 277.5t262.5 194t341.5 73q265 0 429.5 -154t164.5 -419q0 -133 -37 -261.5t-109.5 -238t-171 -192.5t-229.5 -130.5t-278 -47.5zM736 144q143 0 266.5 59.5t205.5 157t128 223t46 257.5q0 198 -118 308.5t-311 110.5
q-116 0 -219.5 -38.5t-181 -105.5t-134.5 -154.5t-86 -189.5t-29 -207q0 -199 119.5 -310t313.5 -111z" />
    <glyph glyph-name="multiply" unicode="&#xd7;" horiz-adv-x="1070" 
d="M283 281l-100 102l280 280l-280 280l100 101l282 -279l278 277l102 -99l-281 -280l281 -280l-102 -101l-278 281z" />
    <glyph glyph-name="Oslash" unicode="&#xd8;" horiz-adv-x="1611" 
d="M1335 1315q105 -75 162 -193t57 -271q0 -133 -37 -261.5t-109.5 -238t-171 -192.5t-229.5 -130.5t-278 -47.5q-158 0 -284 56l-106 -152l-91 53l105 151q-105 75 -162.5 194t-57.5 273q0 167 59 323.5t164 277.5t262.5 194t341.5 73q157 0 283 -56l107 154l90 -57z
M303 565q0 -221 148 -335l693 996q-88 34 -191 34q-116 0 -219.5 -38.5t-181 -105.5t-134.5 -154.5t-86 -189.5t-29 -207zM736 144q143 0 266.5 59.5t205.5 157t128 223t46 257.5q0 220 -145 332l-694 -995q88 -34 193 -34z" />
    <glyph glyph-name="Ugrave" unicode="&#xd9;" horiz-adv-x="1373" 
d="M811 1551l-179 259l105 67l193 -326h-119zM605 -19q-199 0 -321 104.5t-122 286.5q0 55 9 99l165 934h172l-162 -923q-8 -43 -8 -88q0 -127 74 -191.5t198 -64.5q100 0 185 39.5t146.5 121t81.5 195.5l161 911h172l-166 -947q-27 -149 -113 -258.5t-207.5 -164
t-264.5 -54.5z" />
    <glyph glyph-name="Uacute" unicode="&#xda;" horiz-adv-x="1373" 
d="M804 1551l310 326l79 -67l-270 -259h-119zM605 -19q-199 0 -321 104.5t-122 286.5q0 55 9 99l165 934h172l-162 -923q-8 -43 -8 -88q0 -127 74 -191.5t198 -64.5q100 0 185 39.5t146.5 121t81.5 195.5l161 911h172l-166 -947q-27 -149 -113 -258.5t-207.5 -164
t-264.5 -54.5z" />
    <glyph glyph-name="Ucircumflex" unicode="&#xdb;" horiz-adv-x="1373" 
d="M713 1551h-118l263 295h127l160 -295h-119l-117 224zM605 -19q-199 0 -321 104.5t-122 286.5q0 55 9 99l165 934h172l-162 -923q-8 -43 -8 -88q0 -127 74 -191.5t198 -64.5q100 0 185 39.5t146.5 121t81.5 195.5l161 911h172l-166 -947q-27 -149 -113 -258.5t-207.5 -164
t-264.5 -54.5z" />
    <glyph glyph-name="Udieresis" unicode="&#xdc;" horiz-adv-x="1373" 
d="M686 1551q-44 0 -70 31.5t-19 75.5q9 44 46.5 75.5t81.5 31.5q43 0 69.5 -31.5t17.5 -75.5q-7 -44 -44.5 -75.5t-81.5 -31.5zM1054 1551q-44 0 -70 31.5t-19 75.5q9 44 46.5 75.5t81.5 31.5t69.5 -31.5t17.5 -75.5q-7 -44 -44.5 -75.5t-81.5 -31.5zM605 -19
q-199 0 -321 104.5t-122 286.5q0 55 9 99l165 934h172l-162 -923q-8 -43 -8 -88q0 -127 74 -191.5t198 -64.5q100 0 185 39.5t146.5 121t81.5 195.5l161 911h172l-166 -947q-27 -149 -113 -258.5t-207.5 -164t-264.5 -54.5z" />
    <glyph glyph-name="Yacute" unicode="&#xdd;" horiz-adv-x="1157" 
d="M1085 1810l-270 -259h-119l310 326zM1289 1405l-595 -738l-118 -667h-174l119 673l-331 732h189l250 -581l456 581h204z" />
    <glyph glyph-name="Thorn" unicode="&#xde;" horiz-adv-x="1181" 
d="M754 1322q119 0 203.5 -25t132 -73t68.5 -110t21 -145q0 -71 -19 -140.5t-62 -135.5t-104.5 -116t-154.5 -80.5t-204 -30.5h-262l-82 -466h-173l82 466l187 1062h173l-36 -206h230zM654 624q97 0 170.5 29.5t114 78.5t59.5 103.5t19 113.5q0 51 -11.5 87t-41.5 66.5
t-87.5 46t-142.5 15.5h-237l-96 -540h253z" />
    <glyph glyph-name="germandbls" unicode="&#xdf;" horiz-adv-x="1184" 
d="M75 0l183 1037q24 140 75 242.5t122 162t153 87t178 27.5q173 0 276.5 -87.5t103.5 -226.5q0 -151 -119 -268q-66 -65 -84 -91q-30 -44 -30 -92q0 -30 17.5 -58t42.5 -54t49.5 -56.5t42 -78.5t17.5 -107q0 -185 -124.5 -311t-305.5 -126h-198l25 138h142q121 0 206.5 89
t85.5 213q0 47 -17 85.5t-41 65t-48 52.5t-41 61.5t-17 78.5q0 39 7.5 71t27 60.5t32.5 44.5t44.5 47t43.5 43q79 85 79 188q0 81 -57.5 129.5t-158.5 48.5q-141 0 -233 -90.5t-126 -276.5l-185 -1048h-168z" />
    <glyph glyph-name="agrave" unicode="&#xe0;" horiz-adv-x="1219" 
d="M785 1153h-119l-178 259l104 67zM976 980h165l-173 -980h-156l23 185q-63 -95 -163 -150.5t-211 -55.5q-171 0 -279 112t-108 299q0 110 40 219t109.5 195.5t173 140.5t221.5 54q119 0 205.5 -59.5t117.5 -159.5zM504 124q88 0 165.5 42.5t128.5 108t80.5 143.5t29.5 151
q0 125 -72.5 206t-191.5 81q-117 0 -211 -69.5t-142.5 -172t-48.5 -210.5q0 -128 72.5 -204t189.5 -76z" />
    <glyph glyph-name="aacute" unicode="&#xe1;" horiz-adv-x="1219" 
d="M1048 1412l-270 -259h-119l309 326zM976 980h165l-173 -980h-156l23 185q-63 -95 -163 -150.5t-211 -55.5q-171 0 -279 112t-108 299q0 110 40 219t109.5 195.5t173 140.5t221.5 54q119 0 205.5 -59.5t117.5 -159.5zM504 124q88 0 165.5 42.5t128.5 108t80.5 143.5
t29.5 151q0 125 -72.5 206t-191.5 81q-117 0 -211 -69.5t-142.5 -172t-48.5 -210.5q0 -128 72.5 -204t189.5 -76z" />
    <glyph glyph-name="acircumflex" unicode="&#xe2;" horiz-adv-x="1219" 
d="M766 1389l-196 -224h-118l263 295h128l159 -295h-119zM976 980h165l-173 -980h-156l23 185q-63 -95 -163 -150.5t-211 -55.5q-171 0 -279 112t-108 299q0 110 40 219t109.5 195.5t173 140.5t221.5 54q119 0 205.5 -59.5t117.5 -159.5zM504 124q88 0 165.5 42.5t128.5 108
t80.5 143.5t29.5 151q0 125 -72.5 206t-191.5 81q-117 0 -211 -69.5t-142.5 -172t-48.5 -210.5q0 -128 72.5 -204t189.5 -76z" />
    <glyph glyph-name="atilde" unicode="&#xe3;" horiz-adv-x="1219" 
d="M635 1292q-40 0 -70 -37t-41 -97h-97q18 101 78.5 165t143.5 64q102 0 144 -98q21 -49 74 -49q41 0 69.5 35.5t39.5 96.5h98q-18 -99 -78 -163.5t-143 -64.5q-103 0 -148 97q-23 51 -70 51zM976 980h165l-173 -980h-156l23 185q-63 -95 -163 -150.5t-211 -55.5
q-171 0 -279 112t-108 299q0 110 40 219t109.5 195.5t173 140.5t221.5 54q119 0 205.5 -59.5t117.5 -159.5zM504 124q88 0 165.5 42.5t128.5 108t80.5 143.5t29.5 151q0 125 -72.5 206t-191.5 81q-117 0 -211 -69.5t-142.5 -172t-48.5 -210.5q0 -128 72.5 -204t189.5 -76z
" />
    <glyph glyph-name="adieresis" unicode="&#xe4;" horiz-adv-x="1219" 
d="M564 1248q-48 0 -79 34t-25 82q4 48 42.5 82t86.5 34q47 0 77.5 -33.5t26.5 -82.5q-5 -48 -43.5 -82t-85.5 -34zM938 1248q-48 0 -79 34t-25 82q4 48 42.5 82t86.5 34q47 0 77.5 -33.5t26.5 -82.5q-5 -48 -43.5 -82t-85.5 -34zM976 980h165l-173 -980h-156l23 185
q-63 -95 -163 -150.5t-211 -55.5q-171 0 -279 112t-108 299q0 110 40 219t109.5 195.5t173 140.5t221.5 54q119 0 205.5 -59.5t117.5 -159.5zM504 124q88 0 165.5 42.5t128.5 108t80.5 143.5t29.5 151q0 125 -72.5 206t-191.5 81q-117 0 -211 -69.5t-142.5 -172
t-48.5 -210.5q0 -128 72.5 -204t189.5 -76z" />
    <glyph glyph-name="aring" unicode="&#xe5;" horiz-adv-x="1219" 
d="M734 1116q-87 0 -142.5 62.5t-47.5 148.5q10 87 78.5 148t156.5 61q85 0 139.5 -61.5t44.5 -147.5q-8 -86 -76 -148.5t-153 -62.5zM631 1327q-6 -54 26.5 -89.5t85.5 -35.5t92.5 35.5t44.5 89.5q6 52 -26.5 90t-83.5 38q-53 0 -93.5 -38t-45.5 -90zM976 980h165
l-173 -980h-156l23 185q-63 -95 -163 -150.5t-211 -55.5q-171 0 -279 112t-108 299q0 110 40 219t109.5 195.5t173 140.5t221.5 54q119 0 205.5 -59.5t117.5 -159.5zM504 124q88 0 165.5 42.5t128.5 108t80.5 143.5t29.5 151q0 125 -72.5 206t-191.5 81q-117 0 -211 -69.5
t-142.5 -172t-48.5 -210.5q0 -128 72.5 -204t189.5 -76z" />
    <glyph glyph-name="ae" unicode="&#xe6;" horiz-adv-x="1705" 
d="M1247 1002q179 0 284.5 -96.5t105.5 -278.5q0 -68 -11 -122l-11 -44h-768q-8 -46 -8 -81q0 -125 71.5 -190t185.5 -65q92 0 176 49t140 133l152 -43q-77 -135 -202 -209t-270 -74q-126 0 -220.5 48.5t-144.5 139.5h-17q-101 -107 -197 -147.5t-203 -40.5
q-123 0 -197.5 55t-74.5 164q0 72 22 128t58.5 93t93 65t115.5 44t136 29l163 27q114 20 114 141q0 142 -177 142q-97 0 -170.5 -47t-99.5 -141l-151 43q92 276 429 276q235 0 303 -141q156 143 373 143zM1245 872q-123 0 -222.5 -73t-146.5 -211h593q4 28 4 58
q0 112 -60 169t-168 57zM361 115q88 0 170 53t150 143q-5 38 -5 74q0 47 6 92l-219 -40q-253 -41 -253 -208q0 -58 41 -86t110 -28z" />
    <glyph glyph-name="ccedilla" unicode="&#xe7;" horiz-adv-x="1081" 
d="M490 122q106 0 196.5 56.5t142.5 156.5l153 -35q-70 -146 -196.5 -229.5t-277.5 -88.5l-80 -120q40 8 57 8q87 0 133.5 -53t32.5 -139q-16 -88 -87 -149t-160 -61q-72 0 -132 37t-81 93l93 36q16 -32 55 -53.5t80 -21.5q49 0 89.5 34t49.5 85q10 54 -19.5 84t-84.5 30
q-44 0 -85 -20l-65 49l112 166q-158 21 -251 129.5t-93 276.5q0 114 41 222.5t113.5 194t182 137.5t236.5 52q166 0 273.5 -87t126.5 -239l-157 -16q-16 99 -81.5 151t-164.5 52q-90 0 -168 -42t-129 -109t-79.5 -150t-28.5 -166q0 -125 69.5 -198t183.5 -73z" />
    <glyph glyph-name="egrave" unicode="&#xe8;" horiz-adv-x="1099" 
d="M746 1154h-119l-178 259l104 67zM643 999q179 0 283 -96t104 -277q0 -67 -10 -122l-10 -40h-771q-6 -42 -6 -85q0 -126 71.5 -192.5t187.5 -66.5q93 0 178 50t141 134l145 -42q-75 -132 -199.5 -206.5t-265.5 -74.5q-191 0 -303.5 106.5t-112.5 294.5q0 94 24.5 184
t73 168.5t116 137.5t159 93t195.5 34zM642 873q-138 0 -233.5 -80t-140.5 -208h600q5 35 5 59q0 114 -62 171.5t-169 57.5z" />
    <glyph glyph-name="eacute" unicode="&#xe9;" horiz-adv-x="1099" 
d="M1009 1413l-270 -259h-119l309 326zM643 999q179 0 283 -96t104 -277q0 -67 -10 -122l-10 -40h-771q-6 -42 -6 -85q0 -126 71.5 -192.5t187.5 -66.5q93 0 178 50t141 134l145 -42q-75 -132 -199.5 -206.5t-265.5 -74.5q-191 0 -303.5 106.5t-112.5 294.5q0 94 24.5 184
t73 168.5t116 137.5t159 93t195.5 34zM642 873q-138 0 -233.5 -80t-140.5 -208h600q5 35 5 59q0 114 -62 171.5t-169 57.5z" />
    <glyph glyph-name="ecircumflex" unicode="&#xea;" horiz-adv-x="1099" 
d="M727 1390l-196 -224h-118l263 295h128l159 -295h-119zM643 999q179 0 283 -96t104 -277q0 -67 -10 -122l-10 -40h-771q-6 -42 -6 -85q0 -126 71.5 -192.5t187.5 -66.5q93 0 178 50t141 134l145 -42q-75 -132 -199.5 -206.5t-265.5 -74.5q-191 0 -303.5 106.5
t-112.5 294.5q0 94 24.5 184t73 168.5t116 137.5t159 93t195.5 34zM642 873q-138 0 -233.5 -80t-140.5 -208h600q5 35 5 59q0 114 -62 171.5t-169 57.5z" />
    <glyph glyph-name="edieresis" unicode="&#xeb;" horiz-adv-x="1099" 
d="M525 1249q-48 0 -79 34t-25 82q4 48 42.5 82t86.5 34q47 0 77.5 -33.5t26.5 -82.5q-5 -48 -43.5 -82t-85.5 -34zM899 1249q-48 0 -79 34t-25 82q4 48 42.5 82t86.5 34q47 0 77.5 -33.5t26.5 -82.5q-5 -48 -43.5 -82t-85.5 -34zM643 999q179 0 283 -96t104 -277
q0 -67 -10 -122l-10 -40h-771q-6 -42 -6 -85q0 -126 71.5 -192.5t187.5 -66.5q93 0 178 50t141 134l145 -42q-75 -132 -199.5 -206.5t-265.5 -74.5q-191 0 -303.5 106.5t-112.5 294.5q0 94 24.5 184t73 168.5t116 137.5t159 93t195.5 34zM642 873q-138 0 -233.5 -80
t-140.5 -208h600q5 35 5 59q0 114 -62 171.5t-169 57.5z" />
    <glyph glyph-name="igrave" unicode="&#xec;" horiz-adv-x="500" 
d="M308 1153l-178 259l104 67l193 -326h-119zM76 0l174 983h174l-174 -983h-174z" />
    <glyph glyph-name="iacute" unicode="&#xed;" horiz-adv-x="500" 
d="M301 1153l309 326l80 -67l-270 -259h-119zM76 0l174 983h174l-174 -983h-174z" />
    <glyph glyph-name="icircumflex" unicode="&#xee;" horiz-adv-x="500" 
d="M212 1165h-118l263 295h128l159 -295h-119l-117 224zM76 0l174 983h174l-174 -983h-174z" />
    <glyph glyph-name="idieresis" unicode="&#xef;" horiz-adv-x="500" 
d="M206 1248q-48 0 -79 34t-25 82q4 48 42.5 82t86.5 34q47 0 77.5 -33.5t26.5 -82.5q-5 -48 -43.5 -82t-85.5 -34zM580 1248q-48 0 -79 34t-25 82q4 48 42.5 82t86.5 34q47 0 77.5 -33.5t26.5 -82.5q-5 -48 -43.5 -82t-85.5 -34zM76 0l174 983h174l-174 -983h-174z" />
    <glyph glyph-name="eth" unicode="&#xf0;" horiz-adv-x="1143" 
d="M996 836q69 -127 69 -277q0 -112 -41 -216t-113.5 -184.5t-181 -128.5t-234.5 -48q-193 0 -307.5 112.5t-114.5 301.5q0 156 71.5 295t195.5 223.5t267 84.5q73 0 130 -23l-149 259l-276 -68l-6 68l246 61l-138 240h200l108 -198l279 70l7 -69l-252 -62zM507 143
q76 0 142 26t112 69.5t79 99.5t48.5 116t15.5 120q0 122 -71.5 200t-189.5 78q-75 0 -140.5 -26.5t-112 -70.5t-80 -101.5t-50 -120.5t-16.5 -126q0 -123 72 -193.5t191 -70.5z" />
    <glyph glyph-name="ntilde" unicode="&#xf1;" horiz-adv-x="1086" 
d="M566 1289q-40 0 -70 -37t-41 -97h-97q18 101 78.5 165t143.5 64q102 0 144 -98q21 -49 74 -49q41 0 69.5 35.5t39.5 96.5h98q-18 -99 -78 -163.5t-143 -64.5q-103 0 -148 97q-23 51 -70 51zM701 999q126 0 202 -69.5t76 -194.5q0 -24 -8 -82l-116 -653h-167l113 634
q6 34 6 63q0 84 -46 123t-124 39q-98 0 -177.5 -63.5t-108.5 -180.5l-109 -615h-166l174 980h165l-23 -133q122 152 309 152z" />
    <glyph glyph-name="ograve" unicode="&#xf2;" horiz-adv-x="1148" 
d="M629 1150l-178 259l104 67l193 -326h-119zM495 -19q-189 0 -305 110.5t-116 298.5q0 116 40.5 225t113.5 194.5t183.5 137.5t240.5 52q190 0 305.5 -110.5t115.5 -297.5q0 -116 -41 -225t-114 -195t-183.5 -138t-239.5 -52zM499 121q120 0 216 70.5t145 175t49 216.5
q0 127 -72 202t-191 75q-121 0 -216 -71.5t-142.5 -176t-47.5 -216.5q0 -127 70.5 -201t188.5 -74z" />
    <glyph glyph-name="oacute" unicode="&#xf3;" horiz-adv-x="1148" 
d="M622 1150l309 326l80 -67l-270 -259h-119zM495 -19q-189 0 -305 110.5t-116 298.5q0 116 40.5 225t113.5 194.5t183.5 137.5t240.5 52q190 0 305.5 -110.5t115.5 -297.5q0 -116 -41 -225t-114 -195t-183.5 -138t-239.5 -52zM499 121q120 0 216 70.5t145 175t49 216.5
q0 127 -72 202t-191 75q-121 0 -216 -71.5t-142.5 -176t-47.5 -216.5q0 -127 70.5 -201t188.5 -74z" />
    <glyph glyph-name="ocircumflex" unicode="&#xf4;" horiz-adv-x="1148" 
d="M533 1162h-118l263 295h128l159 -295h-119l-117 224zM495 -19q-189 0 -305 110.5t-116 298.5q0 116 40.5 225t113.5 194.5t183.5 137.5t240.5 52q190 0 305.5 -110.5t115.5 -297.5q0 -116 -41 -225t-114 -195t-183.5 -138t-239.5 -52zM499 121q120 0 216 70.5t145 175
t49 216.5q0 127 -72 202t-191 75q-121 0 -216 -71.5t-142.5 -176t-47.5 -216.5q0 -127 70.5 -201t188.5 -74z" />
    <glyph glyph-name="otilde" unicode="&#xf5;" horiz-adv-x="1148" 
d="M816 1141q-103 0 -148 97q-23 51 -70 51q-40 0 -70 -37t-41 -97h-97q18 101 78.5 165t143.5 64q102 0 144 -98q21 -49 74 -49q41 0 69.5 35.5t39.5 96.5h98q-18 -99 -78 -163.5t-143 -64.5zM495 -19q-189 0 -305 110.5t-116 298.5q0 116 40.5 225t113.5 194.5
t183.5 137.5t240.5 52q190 0 305.5 -110.5t115.5 -297.5q0 -116 -41 -225t-114 -195t-183.5 -138t-239.5 -52zM499 121q120 0 216 70.5t145 175t49 216.5q0 127 -72 202t-191 75q-121 0 -216 -71.5t-142.5 -176t-47.5 -216.5q0 -127 70.5 -201t188.5 -74z" />
    <glyph glyph-name="odieresis" unicode="&#xf6;" horiz-adv-x="1148" 
d="M527 1245q-48 0 -79 34t-25 82q4 48 42.5 82t86.5 34q47 0 77.5 -33.5t26.5 -82.5q-5 -48 -43.5 -82t-85.5 -34zM901 1245q-48 0 -79 34t-25 82q4 48 42.5 82t86.5 34q47 0 77.5 -33.5t26.5 -82.5q-5 -48 -43.5 -82t-85.5 -34zM495 -19q-189 0 -305 110.5t-116 298.5
q0 116 40.5 225t113.5 194.5t183.5 137.5t240.5 52q190 0 305.5 -110.5t115.5 -297.5q0 -116 -41 -225t-114 -195t-183.5 -138t-239.5 -52zM499 121q120 0 216 70.5t145 175t49 216.5q0 127 -72 202t-191 75q-121 0 -216 -71.5t-142.5 -176t-47.5 -216.5q0 -127 70.5 -201
t188.5 -74z" />
    <glyph glyph-name="divide" unicode="&#xf7;" horiz-adv-x="1003" 
d="M530 934q-45 0 -77.5 32t-32.5 79q0 44 33 77.5t77 33.5q45 0 78.5 -33.5t33.5 -77.5q0 -47 -33 -79t-79 -32zM152 611v142h764v-142h-764zM530 208q-45 0 -77.5 32.5t-32.5 80.5q0 44 33 76.5t77 32.5q45 0 78.5 -32.5t33.5 -76.5q0 -48 -33 -80.5t-79 -32.5z" />
    <glyph glyph-name="oslash" unicode="&#xf8;" horiz-adv-x="1148" 
d="M929 914q144 -112 144 -323q0 -116 -41 -225t-114 -195t-183.5 -138t-239.5 -52q-103 0 -191 36l-94 -134l-86 52l93 133q-143 113 -143 322q0 116 40.5 225t113.5 194.5t183.5 137.5t240.5 52q105 0 190 -35l94 134l85 -52zM240 396q0 -125 68 -198l448 642
q-51 20 -110 20q-121 0 -216 -71.5t-142.5 -176t-47.5 -216.5zM499 121q120 0 216 70.5t145 175t49 216.5q0 125 -71 201l-448 -643q49 -20 109 -20z" />
    <glyph glyph-name="ugrave" unicode="&#xf9;" horiz-adv-x="1086" 
d="M722 1150h-119l-178 259l104 67zM843 980h166l-173 -980h-159l20 138q-122 -157 -311 -157q-128 0 -204 69.5t-76 194.5q0 24 8 82l117 653h165l-110 -623q-6 -37 -6 -67q0 -84 45.5 -124.5t121.5 -40.5q109 0 189 69.5t101 191.5h1z" />
    <glyph glyph-name="uacute" unicode="&#xfa;" horiz-adv-x="1086" 
d="M985 1409l-270 -259h-119l309 326zM843 980h166l-173 -980h-159l20 138q-122 -157 -311 -157q-128 0 -204 69.5t-76 194.5q0 24 8 82l117 653h165l-110 -623q-6 -37 -6 -67q0 -84 45.5 -124.5t121.5 -40.5q109 0 189 69.5t101 191.5h1z" />
    <glyph glyph-name="ucircumflex" unicode="&#xfb;" horiz-adv-x="1086" 
d="M703 1386l-196 -224h-118l263 295h128l159 -295h-119zM843 980h166l-173 -980h-159l20 138q-122 -157 -311 -157q-128 0 -204 69.5t-76 194.5q0 24 8 82l117 653h165l-110 -623q-6 -37 -6 -67q0 -84 45.5 -124.5t121.5 -40.5q109 0 189 69.5t101 191.5h1z" />
    <glyph glyph-name="udieresis" unicode="&#xfc;" horiz-adv-x="1086" 
d="M501 1245q-48 0 -79 34t-25 82q4 48 42.5 82t86.5 34q47 0 77.5 -33.5t26.5 -82.5q-5 -48 -43.5 -82t-85.5 -34zM875 1245q-48 0 -79 34t-25 82q4 48 42.5 82t86.5 34q47 0 77.5 -33.5t26.5 -82.5q-5 -48 -43.5 -82t-85.5 -34zM843 980h166l-173 -980h-159l20 138
q-122 -157 -311 -157q-128 0 -204 69.5t-76 194.5q0 24 8 82l117 653h165l-110 -623q-6 -37 -6 -67q0 -84 45.5 -124.5t121.5 -40.5q109 0 189 69.5t101 191.5h1z" />
    <glyph glyph-name="yacute" unicode="&#xfd;" horiz-adv-x="961" 
d="M918 1409l-270 -259h-119l309 326zM848 980h180l-820 -1441h-176l283 493l-209 948h181l143 -768z" />
    <glyph glyph-name="thorn" unicode="&#xfe;" horiz-adv-x="1223" 
d="M771 1002q168 0 273 -107t105 -290q0 -116 -41 -228t-113 -200.5t-178.5 -143t-227.5 -54.5q-113 0 -195.5 55.5t-112.5 150.5l-120 -680h-173l357 2031h173l-130 -739q64 94 166.5 149.5t216.5 55.5zM581 129q87 0 162 39.5t124.5 103t77.5 142.5t28 159
q0 128 -73.5 203.5t-190.5 75.5q-86 0 -161.5 -40t-125.5 -103.5t-78.5 -140t-28.5 -151.5q0 -127 73.5 -207.5t192.5 -80.5z" />
    <glyph glyph-name="ydieresis" unicode="&#xff;" horiz-adv-x="961" 
d="M434 1245q-48 0 -79 34t-25 82q4 48 42.5 82t86.5 34q47 0 77.5 -33.5t26.5 -82.5q-5 -48 -43.5 -82t-85.5 -34zM808 1245q-48 0 -79 34t-25 82q4 48 42.5 82t86.5 34q47 0 77.5 -33.5t26.5 -82.5q-5 -48 -43.5 -82t-85.5 -34zM848 980h180l-820 -1441h-176l283 493
l-209 948h181l143 -768z" />
    <glyph glyph-name="Amacron" unicode="&#x100;" horiz-adv-x="1330" 
d="M1194 1661l-19 -110h-647l19 110h647zM1020 0l-61 339h-639l-182 -339h-181l765 1405h206l271 -1405h-179zM402 492h529l-133 740z" />
    <glyph glyph-name="amacron" unicode="&#x101;" horiz-adv-x="1219" 
d="M1074 1289l-20 -111h-646l19 111h647zM976 980h165l-173 -980h-156l23 185q-63 -95 -163 -150.5t-211 -55.5q-171 0 -279 112t-108 299q0 110 40 219t109.5 195.5t173 140.5t221.5 54q119 0 205.5 -59.5t117.5 -159.5zM504 124q88 0 165.5 42.5t128.5 108t80.5 143.5
t29.5 151q0 125 -72.5 206t-191.5 81q-117 0 -211 -69.5t-142.5 -172t-48.5 -210.5q0 -128 72.5 -204t189.5 -76z" />
    <glyph glyph-name="Abreve" unicode="&#x102;" horiz-adv-x="1330" 
d="M850 1551q-155 0 -235 67t-55 203h107q-17 -91 38.5 -135.5t161.5 -44.5q107 0 177.5 44.5t87.5 135.5h107q-16 -92 -72 -154t-135.5 -89t-181.5 -27zM722 1405h206l271 -1405h-179l-61 339h-639l-182 -339h-181zM402 492h529l-133 740z" />
    <glyph glyph-name="abreve" unicode="&#x103;" horiz-adv-x="1219" 
d="M723 1143q-149 0 -229 86t-54 231h107q-17 -99 36.5 -162.5t154.5 -63.5q103 0 180 63.5t94 162.5h107q-26 -145 -136 -231t-260 -86zM976 980h165l-173 -980h-156l23 185q-63 -95 -163 -150.5t-211 -55.5q-171 0 -279 112t-108 299q0 110 40 219t109.5 195.5t173 140.5
t221.5 54q119 0 205.5 -59.5t117.5 -159.5zM504 124q88 0 165.5 42.5t128.5 108t80.5 143.5t29.5 151q0 125 -72.5 206t-191.5 81q-117 0 -211 -69.5t-142.5 -172t-48.5 -210.5q0 -128 72.5 -204t189.5 -76z" />
    <glyph glyph-name="Aogonek" unicode="&#x104;" horiz-adv-x="1330" 
d="M991 -228q-4 -21 12.5 -32t55.5 -11q54 0 98 30l-23 -127q-50 -18 -110 -18q-87 0 -127.5 24.5t-32.5 69.5q17 95 247 292h-91l-61 339h-639l-182 -339h-181l765 1405h206l271 -1405q-5 -4 -22.5 -19t-27 -23.5t-28 -25t-30.5 -28t-28 -27.5t-26.5 -29t-21 -27
t-16.5 -26.5t-8 -22.5zM402 492h529l-133 740z" />
    <glyph glyph-name="aogonek" unicode="&#x105;" horiz-adv-x="1219" 
d="M968 0q-5 -4 -22.5 -19t-27 -23.5t-28 -25t-30.5 -28t-28 -27.5t-26.5 -29t-21 -27t-16.5 -26.5t-8 -22.5q-4 -21 12.5 -32t55.5 -11q54 0 98 30l-23 -127q-49 -18 -110 -18q-87 0 -127.5 24.5t-32.5 69.5q17 95 247 292h-68l23 185q-63 -95 -163 -150.5t-211 -55.5
q-171 0 -279 112t-108 299q0 110 40 219t109.5 195.5t173 140.5t221.5 54q119 0 205.5 -59.5t117.5 -159.5l35 200h165zM504 124q88 0 165.5 42.5t128.5 108t80.5 143.5t29.5 151q0 125 -72.5 206t-191.5 81q-117 0 -211 -69.5t-142.5 -172t-48.5 -210.5q0 -128 72.5 -204
t189.5 -76z" />
    <glyph glyph-name="Cacute" unicode="&#x106;" horiz-adv-x="1497" 
d="M928 1551l310 326l79 -67l-270 -259h-119zM729 -19q-268 0 -432 154.5t-164 420.5q0 167 59 323.5t164 277.5t262.5 194t341.5 73q211 0 360.5 -99t203.5 -275l-166 -56q-41 129 -147.5 197.5t-257.5 68.5q-116 0 -219.5 -38t-181 -104.5t-134.5 -154t-86 -189.5
t-29 -207q0 -200 119.5 -310.5t313.5 -110.5q155 0 292 72.5t224 203.5l150 -76q-113 -174 -291 -269.5t-382 -95.5z" />
    <glyph glyph-name="cacute" unicode="&#x107;" horiz-adv-x="1081" 
d="M609 1150l309 326l80 -67l-270 -259h-119zM489 -18q-188 0 -302.5 112t-114.5 299q0 114 41 222.5t113.5 194t182 137.5t236.5 52q166 0 273.5 -87t126.5 -239l-157 -16q-16 99 -81.5 151t-164.5 52q-90 0 -168 -42t-129 -109t-79.5 -150t-28.5 -166q0 -125 69.5 -198
t183.5 -73q106 0 196.5 56.5t142.5 156.5l153 -35q-73 -150 -205 -234t-288 -84z" />
    <glyph glyph-name="Cdotaccent" unicode="&#x10a;" horiz-adv-x="1497" 
d="M995 1551q-48 0 -76.5 34.5t-20.5 81.5q9 48 50 82t89 34q47 0 75.5 -34t18.5 -82q-7 -47 -48 -81.5t-88 -34.5zM729 -19q-268 0 -432 154.5t-164 420.5q0 167 59 323.5t164 277.5t262.5 194t341.5 73q211 0 360.5 -99t203.5 -275l-166 -56q-41 129 -147.5 197.5
t-257.5 68.5q-116 0 -219.5 -38t-181 -104.5t-134.5 -154t-86 -189.5t-29 -207q0 -200 119.5 -310.5t313.5 -110.5q155 0 292 72.5t224 203.5l150 -76q-113 -174 -291 -269.5t-382 -95.5z" />
    <glyph glyph-name="cdotaccent" unicode="&#x10b;" horiz-adv-x="1081" 
d="M701 1245q-48 0 -78.5 34t-26.5 82q5 48 43.5 82t86.5 34t79 -34t25 -82q-5 -48 -43.5 -82t-85.5 -34zM489 -18q-188 0 -302.5 112t-114.5 299q0 114 41 222.5t113.5 194t182 137.5t236.5 52q166 0 273.5 -87t126.5 -239l-157 -16q-16 99 -81.5 151t-164.5 52
q-90 0 -168 -42t-129 -109t-79.5 -150t-28.5 -166q0 -125 69.5 -198t183.5 -73q106 0 196.5 56.5t142.5 156.5l153 -35q-73 -150 -205 -234t-288 -84z" />
    <glyph glyph-name="Ccaron" unicode="&#x10c;" horiz-adv-x="1497" 
d="M930 1551l-160 295h118l117 -226l196 226h119l-263 -295h-127zM729 -19q-268 0 -432 154.5t-164 420.5q0 167 59 323.5t164 277.5t262.5 194t341.5 73q211 0 360.5 -99t203.5 -275l-166 -56q-41 129 -147.5 197.5t-257.5 68.5q-116 0 -219.5 -38t-181 -104.5t-134.5 -154
t-86 -189.5t-29 -207q0 -200 119.5 -310.5t313.5 -110.5q155 0 292 72.5t224 203.5l150 -76q-113 -174 -291 -269.5t-382 -95.5z" />
    <glyph glyph-name="ccaron" unicode="&#x10d;" horiz-adv-x="1081" 
d="M614 1162l-159 295h117l117 -226l196 226h119l-263 -295h-127zM489 -18q-188 0 -302.5 112t-114.5 299q0 114 41 222.5t113.5 194t182 137.5t236.5 52q166 0 273.5 -87t126.5 -239l-157 -16q-16 99 -81.5 151t-164.5 52q-90 0 -168 -42t-129 -109t-79.5 -150t-28.5 -166
q0 -125 69.5 -198t183.5 -73q106 0 196.5 56.5t142.5 156.5l153 -35q-73 -150 -205 -234t-288 -84z" />
    <glyph glyph-name="Dcaron" unicode="&#x10e;" horiz-adv-x="1414" 
d="M706 1551l-160 295h118l117 -226l196 226h119l-263 -295h-127zM118 0l248 1405h444q266 0 405.5 -144.5t139.5 -390.5q0 -121 -27 -240.5t-88 -234t-149.5 -201.5t-222 -140.5t-294.5 -53.5h-456zM317 157h267q125 0 227 44.5t168.5 116t112.5 166t65.5 190.5t19.5 193
q0 182 -96.5 282t-291.5 100h-279z" />
    <glyph glyph-name="dcaron" unicode="&#x10f;" horiz-adv-x="1361" 
d="M944 786l131 750h171l-271 -1536h-166l25 179q-63 -93 -161.5 -146.5t-207.5 -53.5q-172 0 -281 112t-109 298q0 89 25 178t73.5 167t114 138t152 95t181.5 35q119 0 205 -58.5t118 -157.5zM1423 1536h181l-177 -620h-128zM504 129q88 0 166.5 42.5t129.5 108.5t81 144.5
t30 152.5q0 122 -71.5 199t-185.5 77q-88 0 -166 -41t-129.5 -106t-81 -145.5t-29.5 -160.5q0 -124 71 -197.5t185 -73.5z" />
    <glyph glyph-name="Dcroat" unicode="&#x110;" horiz-adv-x="1414" 
d="M810 1405q266 0 405.5 -144.5t139.5 -390.5q0 -121 -27 -240.5t-88 -234t-149.5 -201.5t-222 -140.5t-294.5 -53.5h-456l114 645h-165l20 115h165l114 645h444zM584 157q125 0 227 44.5t168.5 116t112.5 166t65.5 190.5t19.5 193q0 182 -96.5 282t-291.5 100h-279
l-86 -489h270l-21 -115h-270l-86 -488h267z" />
    <glyph glyph-name="dcroat" unicode="&#x111;" horiz-adv-x="1217" 
d="M1363 1302l-21 -115h-165l-209 -1187h-161l27 182q-65 -94 -164.5 -148.5t-208.5 -54.5q-170 0 -278.5 111.5t-108.5 297.5q0 112 40 221t109.5 196t173 140.5t221.5 53.5q119 0 205.5 -59.5t117.5 -159.5l71 407h-276l20 115h276l41 234h165l-41 -234h166zM506 124
q87 0 164.5 42t128 107t79.5 143t29 152q0 128 -73.5 208t-191.5 80q-87 0 -164 -40.5t-127.5 -105t-79.5 -144t-29 -159.5q0 -130 73 -206.5t191 -76.5z" />
    <glyph glyph-name="Emacron" unicode="&#x112;" horiz-adv-x="1060" 
d="M1112 1661l-19 -110h-647l19 110h647zM1089 1249h-574l-83 -470h505l-27 -155h-505l-83 -467h574l-27 -157h-751l248 1405h750z" />
    <glyph glyph-name="emacron" unicode="&#x113;" horiz-adv-x="1099" 
d="M1035 1290l-20 -111h-646l19 111h647zM643 999q179 0 283 -96t104 -277q0 -67 -10 -122l-10 -40h-771q-6 -42 -6 -85q0 -126 71.5 -192.5t187.5 -66.5q93 0 178 50t141 134l145 -42q-75 -132 -199.5 -206.5t-265.5 -74.5q-191 0 -303.5 106.5t-112.5 294.5q0 94 24.5 184
t73 168.5t116 137.5t159 93t195.5 34zM642 873q-138 0 -233.5 -80t-140.5 -208h600q5 35 5 59q0 114 -62 171.5t-169 57.5z" />
    <glyph glyph-name="Edotaccent" unicode="&#x116;" horiz-adv-x="1060" 
d="M770 1551q-48 0 -76.5 34.5t-20.5 81.5q9 48 50 82t89 34q47 0 75.5 -34t18.5 -82q-7 -47 -48 -81.5t-88 -34.5zM1089 1249h-574l-83 -470h505l-27 -155h-505l-83 -467h574l-27 -157h-751l248 1405h750z" />
    <glyph glyph-name="edotaccent" unicode="&#x117;" horiz-adv-x="1099" 
d="M712 1249q-48 0 -78.5 34t-26.5 82q5 48 43.5 82t86.5 34t79 -34t25 -82q-5 -48 -43.5 -82t-85.5 -34zM643 999q179 0 283 -96t104 -277q0 -67 -10 -122l-10 -40h-771q-6 -42 -6 -85q0 -126 71.5 -192.5t187.5 -66.5q93 0 178 50t141 134l145 -42q-75 -132 -199.5 -206.5
t-265.5 -74.5q-191 0 -303.5 106.5t-112.5 294.5q0 94 24.5 184t73 168.5t116 137.5t159 93t195.5 34zM642 873q-138 0 -233.5 -80t-140.5 -208h600q5 35 5 59q0 114 -62 171.5t-169 57.5z" />
    <glyph glyph-name="Eogonek" unicode="&#x118;" horiz-adv-x="1060" 
d="M1089 1249h-574l-83 -470h505l-27 -155h-505l-83 -467h574l-27 -157q-5 -4 -22.5 -19t-27 -23.5t-28 -25t-30.5 -28t-28 -27.5t-26.5 -29t-21 -27t-16.5 -26.5t-8 -22.5q-4 -21 12.5 -32t55.5 -11q54 0 98 30l-23 -127q-50 -18 -110 -18q-87 0 -127.5 24.5t-32.5 69.5
q17 95 247 292h-663l248 1405h750z" />
    <glyph glyph-name="eogonek" unicode="&#x119;" horiz-adv-x="1099" 
d="M643 999q179 0 283 -96t104 -277q0 -67 -10 -122l-10 -40h-771q-6 -42 -6 -85q0 -126 71.5 -192.5t187.5 -66.5q93 0 178 50t141 134l145 -42q-65 -116 -176 -192q-125 -111 -135 -164q-4 -21 12.5 -32t55.5 -11q54 0 98 30l-23 -127q-50 -18 -110 -18q-87 0 -127.5 24.5
t-32.5 69.5q11 59 101 156q-63 -17 -128 -17q-191 0 -303.5 106.5t-112.5 294.5q0 94 24.5 184t73 168.5t116 137.5t159 93t195.5 34zM642 873q-138 0 -233.5 -80t-140.5 -208h600q5 35 5 59q0 114 -62 171.5t-169 57.5z" />
    <glyph glyph-name="Ecaron" unicode="&#x11a;" horiz-adv-x="1060" 
d="M832 1551h-127l-160 295h118l117 -226l196 226h119zM1089 1249h-574l-83 -470h505l-27 -155h-505l-83 -467h574l-27 -157h-751l248 1405h750z" />
    <glyph glyph-name="ecaron" unicode="&#x11b;" horiz-adv-x="1099" 
d="M752 1166h-127l-159 295h117l117 -226l196 226h119zM643 999q179 0 283 -96t104 -277q0 -67 -10 -122l-10 -40h-771q-6 -42 -6 -85q0 -126 71.5 -192.5t187.5 -66.5q93 0 178 50t141 134l145 -42q-75 -132 -199.5 -206.5t-265.5 -74.5q-191 0 -303.5 106.5t-112.5 294.5
q0 94 24.5 184t73 168.5t116 137.5t159 93t195.5 34zM642 873q-138 0 -233.5 -80t-140.5 -208h600q5 35 5 59q0 114 -62 171.5t-169 57.5z" />
    <glyph glyph-name="Gbreve" unicode="&#x11e;" horiz-adv-x="1593" 
d="M982 1551q-155 0 -235 67t-55 203h107q-17 -91 38.5 -135.5t161.5 -44.5q107 0 177.5 44.5t87.5 135.5h107q-16 -92 -72 -154t-135.5 -89t-181.5 -27zM722 -19q-266 0 -428.5 152t-162.5 417q0 168 58.5 325t163 279.5t262.5 196t343 73.5q197 0 341 -86t206 -245
l-160 -73q-45 123 -148 184t-245 61q-118 0 -222 -39.5t-181 -108t-133 -158.5t-84.5 -194.5t-28.5 -212.5q0 -198 117 -305.5t317 -107.5q203 0 354 113t211 321l-480 -5l27 146h648l-126 -714h-142l50 264q-96 -138 -238.5 -210.5t-318.5 -72.5z" />
    <glyph glyph-name="gbreve" unicode="&#x11f;" horiz-adv-x="1202" 
d="M674 1140q-149 0 -229 86t-54 231h107q-17 -99 36.5 -162.5t154.5 -63.5q103 0 180 63.5t94 162.5h107q-26 -145 -136 -231t-260 -86zM961 980h162l-165 -937q-43 -246 -188.5 -377.5t-364.5 -131.5q-359 0 -431 305l145 59q45 -225 282 -225q157 0 259 100t131 273
l29 170q-61 -85 -160.5 -137t-207.5 -52q-165 0 -272.5 111.5t-107.5 288.5q0 149 72.5 281.5t195 211.5t262.5 79q118 0 206 -58.5t118 -152.5zM496 170q101 0 193.5 59t148 155.5t55.5 200.5q0 118 -72.5 196.5t-189.5 78.5q-104 0 -196 -60t-146 -156.5t-54 -201.5
q0 -119 73.5 -195.5t187.5 -76.5z" />
    <glyph glyph-name="Gdotaccent" unicode="&#x120;" horiz-adv-x="1593" 
d="M984 1551q-48 0 -76.5 34.5t-20.5 81.5q9 48 50 82t89 34q47 0 75.5 -34t18.5 -82q-7 -47 -48 -81.5t-88 -34.5zM722 -19q-266 0 -428.5 152t-162.5 417q0 168 58.5 325t163 279.5t262.5 196t343 73.5q197 0 341 -86t206 -245l-160 -73q-45 123 -148 184t-245 61
q-118 0 -222 -39.5t-181 -108t-133 -158.5t-84.5 -194.5t-28.5 -212.5q0 -198 117 -305.5t317 -107.5q203 0 354 113t211 321l-480 -5l27 146h648l-126 -714h-142l50 264q-96 -138 -238.5 -210.5t-318.5 -72.5z" />
    <glyph glyph-name="gdotaccent" unicode="&#x121;" horiz-adv-x="1202" 
d="M702 1245q-48 0 -78.5 34t-26.5 82q5 48 43.5 82t86.5 34t79 -34t25 -82q-5 -48 -43.5 -82t-85.5 -34zM961 980h162l-165 -937q-43 -246 -188.5 -377.5t-364.5 -131.5q-359 0 -431 305l145 59q45 -225 282 -225q157 0 259 100t131 273l29 170q-61 -85 -160.5 -137
t-207.5 -52q-165 0 -272.5 111.5t-107.5 288.5q0 149 72.5 281.5t195 211.5t262.5 79q118 0 206 -58.5t118 -152.5zM496 170q101 0 193.5 59t148 155.5t55.5 200.5q0 118 -72.5 196.5t-189.5 78.5q-104 0 -196 -60t-146 -156.5t-54 -201.5q0 -119 73.5 -195.5t187.5 -76.5z
" />
    <glyph glyph-name="Gcommaaccent" unicode="&#x122;" horiz-adv-x="1593" 
d="M722 -19q-266 0 -428.5 152t-162.5 417q0 168 58.5 325t163 279.5t262.5 196t343 73.5q197 0 341 -86t206 -245l-160 -73q-45 123 -148 184t-245 61q-118 0 -222 -39.5t-181 -108t-133 -158.5t-84.5 -194.5t-28.5 -212.5q0 -198 117 -305.5t317 -107.5q203 0 354 113
t211 321l-480 -5l27 146h648l-126 -714h-142l50 264q-96 -138 -238.5 -210.5t-318.5 -72.5zM461 -559l-85 41l225 366h158z" />
    <glyph glyph-name="gcommaaccent" unicode="&#x123;" horiz-adv-x="1202" 
d="M1053 1450l-286 -306h-184l340 306h130zM961 980h162l-165 -937q-43 -246 -188.5 -377.5t-364.5 -131.5q-359 0 -431 305l145 59q45 -225 282 -225q157 0 259 100t131 273l29 170q-61 -85 -160.5 -137t-207.5 -52q-165 0 -272.5 111.5t-107.5 288.5q0 149 72.5 281.5
t195 211.5t262.5 79q118 0 206 -58.5t118 -152.5zM496 170q101 0 193.5 59t148 155.5t55.5 200.5q0 118 -72.5 196.5t-189.5 78.5q-104 0 -196 -60t-146 -156.5t-54 -201.5q0 -119 73.5 -195.5t187.5 -76.5z" />
    <glyph glyph-name="Hbar" unicode="&#x126;" horiz-adv-x="1473" 
d="M1527 1143l-15 -91h-144l-186 -1052h-172l110 626h-718l-111 -626h-173l186 1052h-145l14 91h147l46 262h174l-46 -262h718l46 262h172l-46 -262h143zM1148 781l48 271h-719l-48 -271h719z" />
    <glyph glyph-name="hbar" unicode="&#x127;" horiz-adv-x="1084" 
d="M699 999q126 0 202 -69.5t76 -194.5q0 -24 -8 -82l-116 -653h-166l113 634q5 38 5 63q0 83 -45 122.5t-120 39.5q-95 0 -174.5 -58t-112.5 -167l-112 -634h-166l210 1188h-141l20 115h141l41 233h166l-41 -233h300l-21 -115h-299l-60 -340q57 72 136.5 111.5t171.5 39.5z
" />
    <glyph glyph-name="Itilde" unicode="&#x128;" horiz-adv-x="582" 
d="M623 1539q-115 0 -166 110q-27 65 -90 65q-49 0 -87 -44.5t-51 -114.5h-97q21 112 89.5 183t160.5 71q113 0 164 -111q28 -62 92 -62q51 0 87.5 42t48.5 114h98q-20 -111 -87.5 -182t-161.5 -71zM118 0l248 1405h172l-248 -1405h-172z" />
    <glyph glyph-name="itilde" unicode="&#x129;" horiz-adv-x="500" 
d="M495 1144q-103 0 -148 97q-23 51 -70 51q-40 0 -70 -37t-41 -97h-97q18 101 78.5 165t143.5 64q102 0 144 -98q21 -49 74 -49q41 0 69.5 35.5t39.5 96.5h98q-18 -99 -78 -163.5t-143 -64.5zM76 0l174 983h174l-174 -983h-174z" />
    <glyph glyph-name="Imacron" unicode="&#x12a;" horiz-adv-x="582" 
d="M153 1551l19 110h647l-19 -110h-647zM118 0l248 1405h172l-248 -1405h-172z" />
    <glyph glyph-name="imacron" unicode="&#x12b;" horiz-adv-x="500" 
d="M50 1178l19 111h647l-20 -111h-646zM76 0l174 983h174l-174 -983h-174z" />
    <glyph glyph-name="Iogonek" unicode="&#x12e;" horiz-adv-x="582" 
d="M291 0q-5 -4 -22.5 -19t-27 -23.5t-28 -25t-30.5 -28t-28 -27.5t-26.5 -29t-21 -27t-16.5 -26.5t-8 -22.5q-4 -21 12.5 -32t55.5 -11q54 0 98 30l-23 -127q-50 -18 -110 -18q-87 0 -127.5 24.5t-32.5 69.5q17 95 247 292h-85l248 1405h172l-248 -1405h1z" />
    <glyph glyph-name="iogonek" unicode="&#x12f;" horiz-adv-x="500" 
d="M418 1480q48 0 79 -34t25 -82q-5 -48 -43.5 -82t-85.5 -34q-48 0 -78.5 34t-26.5 82q5 48 43.5 82t86.5 34zM76 0l174 983h174l-174 -983q-5 -4 -22.5 -19t-27 -23.5t-28 -25t-30.5 -28t-28 -27.5t-26.5 -29t-21 -27t-16.5 -26.5t-8 -22.5q-4 -21 12.5 -32t55.5 -11
q54 0 98 30l-23 -127q-50 -18 -110 -18q-87 0 -127.5 24.5t-32.5 69.5q17 95 247 292h-86z" />
    <glyph glyph-name="Idotaccent" unicode="&#x130;" horiz-adv-x="582" 
d="M477 1551q-48 0 -76.5 34.5t-20.5 81.5q9 48 50 82t89 34q47 0 75.5 -34t18.5 -82q-7 -47 -48 -81.5t-88 -34.5zM118 0l248 1405h172l-248 -1405h-172z" />
    <glyph glyph-name="dotlessi" unicode="&#x131;" horiz-adv-x="500" 
d="M76 0l174 983h174l-174 -983h-174z" />
    <glyph glyph-name="Kcommaaccent" unicode="&#x136;" horiz-adv-x="1268" 
d="M679 733l-1 -5l457 -728h-208l-399 658h-122l-116 -658h-172l248 1405h172l-104 -592h127l588 592h218zM196 -518l225 366h158l-298 -407z" />
    <glyph glyph-name="kcommaaccent" unicode="&#x137;" horiz-adv-x="1001" 
d="M1034 980l-484 -452l358 -528h-200l-308 467h-75l-82 -467h-168l271 1536h167l-165 -941h84l398 385h204zM81 -518l225 366h158l-298 -407z" />
    <glyph glyph-name="Lacute" unicode="&#x139;" horiz-adv-x="908" 
d="M800 1810l-270 -259h-119l310 326zM320 157h488l-27 -157h-663l248 1405h172z" />
    <glyph glyph-name="lacute" unicode="&#x13a;" horiz-adv-x="492" 
d="M393 1706l309 326l80 -67l-270 -259h-119zM75 0l271 1536h167l-270 -1536h-168z" />
    <glyph glyph-name="Lcommaaccent" unicode="&#x13b;" horiz-adv-x="908" 
d="M320 157h488l-27 -157h-663l248 1405h172zM117 -518l225 366h158l-298 -407z" />
    <glyph glyph-name="lcommaaccent" unicode="&#x13c;" horiz-adv-x="492" 
d="M75 0l271 1536h167l-270 -1536h-168zM-89 -559l-85 41l225 366h158z" />
    <glyph glyph-name="Lcaron" unicode="&#x13d;" horiz-adv-x="979" 
d="M1024 1408l-286 -620h-130l232 620h184zM538 1405l-218 -1248h488l-27 -157h-663l248 1405h172z" />
    <glyph glyph-name="lcaron" unicode="&#x13e;" horiz-adv-x="623" 
d="M75 0l271 1536h174l-271 -1536h-174zM563 916l125 620h181l-178 -620h-128z" />
    <glyph glyph-name="Lslash" unicode="&#x141;" horiz-adv-x="908" 
d="M320 157h488l-27 -157h-663l99 559l-187 -123l23 128l186 123l127 718h172l-103 -588l229 151l-23 -128l-228 -151z" />
    <glyph glyph-name="lslash" unicode="&#x142;" horiz-adv-x="492" 
d="M600 982l-23 -128l-208 -138l-126 -716h-168l104 591l-213 -141l23 128l213 141l144 817h167l-122 -692z" />
    <glyph glyph-name="Nacute" unicode="&#x143;" horiz-adv-x="1524" 
d="M1271 1810l-270 -259h-119l310 326zM1310 1405h170l-247 -1405h-178l-565 1147l-203 -1147h-169l248 1405h175l567 -1142z" />
    <glyph glyph-name="nacute" unicode="&#x144;" horiz-adv-x="1086" 
d="M979 1409l-270 -259h-119l309 326zM701 999q126 0 202 -69.5t76 -194.5q0 -24 -8 -82l-116 -653h-167l113 634q6 34 6 63q0 84 -46 123t-124 39q-98 0 -177.5 -63.5t-108.5 -180.5l-109 -615h-166l174 980h165l-23 -133q122 152 309 152z" />
    <glyph glyph-name="Ncommaaccent" unicode="&#x145;" horiz-adv-x="1524" 
d="M1310 1405h170l-247 -1405h-178l-565 1147l-203 -1147h-169l248 1405h175l567 -1142zM344 -518l225 366h158l-298 -407z" />
    <glyph glyph-name="ncommaaccent" unicode="&#x146;" horiz-adv-x="1086" 
d="M701 999q126 0 202 -69.5t76 -194.5q0 -24 -8 -82l-116 -653h-167l113 634q6 34 6 63q0 84 -46 123t-124 39q-98 0 -177.5 -63.5t-108.5 -180.5l-109 -615h-166l174 980h165l-23 -133q122 152 309 152zM122 -518l225 366h158l-298 -407z" />
    <glyph glyph-name="Ncaron" unicode="&#x147;" horiz-adv-x="1524" 
d="M1011 1551h-127l-160 295h118l117 -226l196 226h119zM1310 1405h170l-247 -1405h-178l-565 1147l-203 -1147h-169l248 1405h175l567 -1142z" />
    <glyph glyph-name="ncaron" unicode="&#x148;" horiz-adv-x="1086" 
d="M722 1162h-127l-159 295h117l117 -226l196 226h119zM701 999q126 0 202 -69.5t76 -194.5q0 -24 -8 -82l-116 -653h-167l113 634q6 34 6 63q0 84 -46 123t-124 39q-98 0 -177.5 -63.5t-108.5 -180.5l-109 -615h-166l174 980h165l-23 -133q122 152 309 152z" />
    <glyph glyph-name="Eng" unicode="&#x14a;" horiz-adv-x="1567" 
d="M1524 1408l-220 -1251l-28 -157q-39 -220 -190 -340.5t-370 -120.5l24 142q92 0 166.5 34t124.5 107.5t58 177.5l-593 1155l-203 -1155h-175l248 1408h184l595 -1151l203 1151h176z" />
    <glyph glyph-name="eng" unicode="&#x14b;" horiz-adv-x="1096" 
d="M703 1002q154 0 230.5 -93.5t46.5 -263.5l-146 -826q-23 -129 -106.5 -205.5t-204.5 -76.5h-137l23 129h85q59 0 107 43.5t60 113.5l142 801q21 119 -25 174t-140 55q-104 0 -182 -64.5t-100 -183.5h-1l-106 -605h-173l174 983h172l-21 -119q58 66 136.5 102t165.5 36z
" />
    <glyph glyph-name="Omacron" unicode="&#x14c;" horiz-adv-x="1611" 
d="M670 1551l19 110h647l-19 -110h-647zM729 -19q-268 0 -432 154.5t-164 420.5q0 167 59 323.5t164 277.5t262.5 194t341.5 73q265 0 429.5 -154t164.5 -419q0 -133 -37 -261.5t-109.5 -238t-171 -192.5t-229.5 -130.5t-278 -47.5zM736 144q143 0 266.5 59.5t205.5 157
t128 223t46 257.5q0 198 -118 308.5t-311 110.5q-116 0 -219.5 -38.5t-181 -105.5t-134.5 -154.5t-86 -189.5t-29 -207q0 -199 119.5 -310t313.5 -111z" />
    <glyph glyph-name="omacron" unicode="&#x14d;" horiz-adv-x="1148" 
d="M371 1175l19 111h647l-20 -111h-646zM495 -19q-189 0 -305 110.5t-116 298.5q0 116 40.5 225t113.5 194.5t183.5 137.5t240.5 52q190 0 305.5 -110.5t115.5 -297.5q0 -116 -41 -225t-114 -195t-183.5 -138t-239.5 -52zM499 121q120 0 216 70.5t145 175t49 216.5
q0 127 -72 202t-191 75q-121 0 -216 -71.5t-142.5 -176t-47.5 -216.5q0 -127 70.5 -201t188.5 -74z" />
    <glyph glyph-name="Ohungarumlaut" unicode="&#x150;" horiz-adv-x="1611" 
d="M753 1551l310 326l79 -67l-270 -259h-119zM1113 1551l309 326l80 -67l-270 -259h-119zM729 -19q-268 0 -432 154.5t-164 420.5q0 167 59 323.5t164 277.5t262.5 194t341.5 73q265 0 429.5 -154t164.5 -419q0 -133 -37 -261.5t-109.5 -238t-171 -192.5t-229.5 -130.5
t-278 -47.5zM736 144q143 0 266.5 59.5t205.5 157t128 223t46 257.5q0 198 -118 308.5t-311 110.5q-116 0 -219.5 -38.5t-181 -105.5t-134.5 -154.5t-86 -189.5t-29 -207q0 -199 119.5 -310t313.5 -111z" />
    <glyph glyph-name="ohungarumlaut" unicode="&#x151;" horiz-adv-x="1148" 
d="M448 1150l309 326l80 -67l-270 -259h-119zM808 1150l309 326l80 -67l-270 -259h-119zM495 -19q-189 0 -305 110.5t-116 298.5q0 116 40.5 225t113.5 194.5t183.5 137.5t240.5 52q190 0 305.5 -110.5t115.5 -297.5q0 -116 -41 -225t-114 -195t-183.5 -138t-239.5 -52z
M499 121q120 0 216 70.5t145 175t49 216.5q0 127 -72 202t-191 75q-121 0 -216 -71.5t-142.5 -176t-47.5 -216.5q0 -127 70.5 -201t188.5 -74z" />
    <glyph glyph-name="OE" unicode="&#x152;" horiz-adv-x="1928" 
d="M735 0q-305 0 -455 135t-150 385q0 134 28 257.5t93.5 239.5t161.5 201t242.5 136t326.5 51h1003l-29 -163h-610l-82 -459h525l-29 -163h-524l-81 -457h611l-29 -163h-1002zM771 163h206l191 1079h-207q-144 0 -257.5 -41t-185 -108.5t-118.5 -160t-66 -188.5t-19 -202
q0 -187 110.5 -283t345.5 -96z" />
    <glyph glyph-name="oe" unicode="&#x153;" horiz-adv-x="1922" 
d="M1466 999q179 0 283 -96t104 -277q0 -67 -10 -122l-10 -40h-771q-6 -42 -6 -85q0 -126 71.5 -192.5t187.5 -66.5q93 0 178 50t141 134l145 -42q-75 -132 -199.5 -206.5t-265.5 -74.5q-135 0 -233.5 55t-144.5 157q-78 -98 -191 -155t-250 -57q-189 0 -305 110.5
t-116 298.5q0 116 40.5 225t113.5 194.5t183.5 137.5t240.5 52q132 0 231 -55.5t148 -156.5q77 99 187.5 155.5t247.5 56.5zM1465 873q-138 0 -233.5 -80t-140.5 -208h600q5 35 5 59q0 114 -62 171.5t-169 57.5zM499 121q120 0 216 70.5t145 175t49 216.5q0 127 -72 202
t-191 75q-121 0 -216 -71.5t-142.5 -176t-47.5 -216.5q0 -127 70.5 -201t188.5 -74z" />
    <glyph glyph-name="Racute" unicode="&#x154;" horiz-adv-x="1233" 
d="M1126 1810l-270 -259h-119l310 326zM1186 1083q0 -53 -12 -106.5t-40.5 -109.5t-71 -101.5t-109 -79.5t-148.5 -45l273 -641h-189l-255 635h-231l-112 -635h-173l248 1405h457q180 0 271.5 -88.5t91.5 -233.5zM511 1254l-86 -491h263q77 0 138 22t96.5 55t59 75.5
t32 78.5t8.5 70q0 89 -58 139.5t-178 50.5h-275z" />
    <glyph glyph-name="racute" unicode="&#x155;" horiz-adv-x="644" 
d="M767 1409l-270 -259h-119l309 326zM384 811q51 80 141 129.5t193 50.5l-32 -167q-138 0 -232 -77.5t-121 -233.5l-90 -513h-167l174 980h162z" />
    <glyph glyph-name="Rcommaaccent" unicode="&#x156;" horiz-adv-x="1233" 
d="M1186 1083q0 -53 -12 -106.5t-40.5 -109.5t-71 -101.5t-109 -79.5t-148.5 -45l273 -641h-189l-255 635h-231l-112 -635h-173l248 1405h457q180 0 271.5 -88.5t91.5 -233.5zM511 1254l-86 -491h263q77 0 138 22t96.5 55t59 75.5t32 78.5t8.5 70q0 89 -58 139.5t-178 50.5
h-275zM198 -518l225 366h158l-298 -407z" />
    <glyph glyph-name="rcommaaccent" unicode="&#x157;" horiz-adv-x="644" 
d="M384 811q51 80 141 129.5t193 50.5l-32 -167q-138 0 -232 -77.5t-121 -233.5l-90 -513h-167l174 980h162zM-172 -518l225 366h158l-298 -407z" />
    <glyph glyph-name="Rcaron" unicode="&#x158;" horiz-adv-x="1233" 
d="M866 1551h-127l-160 295h118l117 -226l196 226h119zM1186 1083q0 -53 -12 -106.5t-40.5 -109.5t-71 -101.5t-109 -79.5t-148.5 -45l273 -641h-189l-255 635h-231l-112 -635h-173l248 1405h457q180 0 271.5 -88.5t91.5 -233.5zM511 1254l-86 -491h263q77 0 138 22t96.5 55
t59 75.5t32 78.5t8.5 70q0 89 -58 139.5t-178 50.5h-275z" />
    <glyph glyph-name="rcaron" unicode="&#x159;" horiz-adv-x="644" 
d="M510 1162h-127l-159 295h117l117 -226l196 226h119zM384 811q51 80 141 129.5t193 50.5l-32 -167q-138 0 -232 -77.5t-121 -233.5l-90 -513h-167l174 980h162z" />
    <glyph glyph-name="Sacute" unicode="&#x15a;" horiz-adv-x="1238" 
d="M739 1551l310 326l79 -67l-270 -259h-119zM582 -19q-225 0 -366.5 101.5t-148.5 273.5l178 32q8 -119 103 -188.5t243 -69.5q156 0 255 68.5t99 186.5q0 43 -12 78t-36.5 60.5t-52 44.5t-69 34.5t-75.5 26.5t-83 24q-5 1 -8 2q-50 14 -83 24t-77 27.5t-73 35.5
t-60.5 45.5t-49.5 58.5t-30 74t-12 94q0 118 66.5 212t181.5 146t257 52q131 0 236.5 -36t175 -115.5t74.5 -192.5l-170 -33q-7 113 -96 170.5t-217 57.5q-142 0 -239 -71.5t-97 -173.5q0 -34 9 -62t21 -48.5t37 -39t44.5 -30t56 -24.5t60 -19.5t67.5 -18.5
q56 -15 88.5 -24.5t84.5 -28.5t82.5 -37t68 -48t58 -63.5t34.5 -80.5t14 -102q0 -197 -151 -310t-388 -113z" />
    <glyph glyph-name="sacute" unicode="&#x15b;" horiz-adv-x="910" 
d="M508 1150l309 326l80 -67l-270 -259h-119zM386 -19q-163 0 -255.5 73.5t-91.5 203.5l155 32q-4 -86 49.5 -135.5t147.5 -49.5q99 0 165 50.5t66 138.5q0 28 -11 49t-26.5 35t-47 27.5t-57 21.5t-73.5 20q-60 15 -99.5 30.5t-80.5 42t-61.5 67.5t-20.5 96q0 147 107 230.5
t271 83.5q145 0 235.5 -66t90.5 -194l-146 -26q4 83 -47 124t-129 41q-93 0 -158 -49t-65 -132q0 -22 6 -39t23 -30.5t29 -22t42.5 -18t44.5 -13.5t53 -14q50 -12 85 -23.5t75.5 -32t65.5 -45t41.5 -62.5t16.5 -86q0 -154 -113 -241t-287 -87z" />
    <glyph glyph-name="Scedilla" unicode="&#x15e;" horiz-adv-x="1238" 
d="M691 788q56 -15 88.5 -24.5t84.5 -28.5t82.5 -37t68 -48t58 -63.5t34.5 -80.5t14 -102q0 -197 -151 -310t-388 -113h-15l-80 -119q40 8 57 8q87 0 133.5 -53t32.5 -139q-16 -88 -87 -149t-160 -61q-72 0 -132 37t-81 93l93 36q16 -32 55 -53.5t80 -21.5q49 0 89.5 34
t49.5 85q10 54 -19.5 84t-84.5 30q-44 0 -85 -20l-65 49l113 167q-183 23 -293 120.5t-116 247.5l178 32q8 -119 103 -188.5t243 -69.5q156 0 255 68.5t99 186.5q0 43 -12 78t-36.5 60.5t-52 44.5t-69 34.5t-75.5 26.5t-83 24q-5 1 -8 2q-50 14 -83 24t-77 27.5t-73 35.5
t-60.5 45.5t-49.5 58.5t-30 74t-12 94q0 118 66.5 212t181.5 146t257 52q131 0 236.5 -36t175 -115.5t74.5 -192.5l-170 -33q-7 113 -96 170.5t-217 57.5q-142 0 -239 -71.5t-97 -173.5q0 -34 9 -62t21 -48.5t37 -39t44.5 -30t56 -24.5t60 -19.5t67.5 -18.5z" />
    <glyph glyph-name="scedilla" unicode="&#x15f;" horiz-adv-x="910" 
d="M502 558q50 -12 85 -23.5t75.5 -32t65.5 -45t41.5 -62.5t16.5 -86q0 -150 -106.5 -236.5t-273.5 -91.5l-79 -118q40 8 57 8q87 0 133.5 -53t32.5 -139q-16 -88 -87 -149t-160 -61q-72 0 -132 37t-81 93l93 36q16 -32 55 -53.5t80 -21.5q49 0 89.5 34t49.5 85
q10 54 -19.5 84t-84.5 30q-44 0 -85 -20l-65 49l110 163q-130 16 -202.5 87.5t-71.5 185.5l155 32q-4 -86 49.5 -135.5t147.5 -49.5q99 0 165 50.5t66 138.5q0 28 -11 49t-26.5 35t-47 27.5t-57 21.5t-73.5 20q-60 15 -99.5 30.5t-80.5 42t-61.5 67.5t-20.5 96
q0 147 107 230.5t271 83.5q145 0 235.5 -66t90.5 -194l-146 -26q4 83 -47 124t-129 41q-93 0 -158 -49t-65 -132q0 -22 6 -39t23 -30.5t29 -22t42.5 -18t44.5 -13.5t53 -14z" />
    <glyph glyph-name="Scaron" unicode="&#x160;" horiz-adv-x="1238" 
d="M741 1551l-160 295h118l117 -226l196 226h119l-263 -295h-127zM582 -19q-225 0 -366.5 101.5t-148.5 273.5l178 32q8 -119 103 -188.5t243 -69.5q156 0 255 68.5t99 186.5q0 43 -12 78t-36.5 60.5t-52 44.5t-69 34.5t-75.5 26.5t-83 24q-5 1 -8 2q-50 14 -83 24t-77 27.5
t-73 35.5t-60.5 45.5t-49.5 58.5t-30 74t-12 94q0 118 66.5 212t181.5 146t257 52q131 0 236.5 -36t175 -115.5t74.5 -192.5l-170 -33q-7 113 -96 170.5t-217 57.5q-142 0 -239 -71.5t-97 -173.5q0 -34 9 -62t21 -48.5t37 -39t44.5 -30t56 -24.5t60 -19.5t67.5 -18.5
q56 -15 88.5 -24.5t84.5 -28.5t82.5 -37t68 -48t58 -63.5t34.5 -80.5t14 -102q0 -197 -151 -310t-388 -113z" />
    <glyph glyph-name="scaron" unicode="&#x161;" horiz-adv-x="910" 
d="M513 1162l-159 295h117l117 -226l196 226h119l-263 -295h-127zM386 -19q-163 0 -255.5 73.5t-91.5 203.5l155 32q-4 -86 49.5 -135.5t147.5 -49.5q99 0 165 50.5t66 138.5q0 28 -11 49t-26.5 35t-47 27.5t-57 21.5t-73.5 20q-60 15 -99.5 30.5t-80.5 42t-61.5 67.5
t-20.5 96q0 147 107 230.5t271 83.5q145 0 235.5 -66t90.5 -194l-146 -26q4 83 -47 124t-129 41q-93 0 -158 -49t-65 -132q0 -22 6 -39t23 -30.5t29 -22t42.5 -18t44.5 -13.5t53 -14q50 -12 85 -23.5t75.5 -32t65.5 -45t41.5 -62.5t16.5 -86q0 -154 -113 -241t-287 -87z" />
    <glyph glyph-name="uni0162" unicode="&#x162;" horiz-adv-x="976" 
d="M487 0h-38l-92 -138q40 8 57 8q87 0 133.5 -53t32.5 -139q-16 -88 -87 -149t-160 -61q-72 0 -132 37t-81 93l93 36q16 -32 55 -53.5t80 -21.5q49 0 89.5 34t49.5 85q10 54 -19.5 84t-84.5 30q-44 0 -85 -20l-65 49l121 179h-38l220 1249h-362l27 156h896l-27 -156h-363z
" />
    <glyph glyph-name="uni0163" unicode="&#x163;" horiz-adv-x="668" 
d="M444 848l-102 -573q-3 -14 -3 -38q0 -51 29.5 -77.5t81.5 -26.5h94l-23 -133h-45l-92 -138q40 8 57 8q87 0 133.5 -53t32.5 -139q-16 -88 -87 -149t-160 -61q-72 0 -132 37t-81 93l93 36q16 -32 55 -53.5t80 -21.5q49 0 89.5 34t49.5 85q10 54 -19.5 84t-84.5 30
q-44 0 -85 -20l-65 49l121 179q-99 4 -155.5 59t-56.5 150q0 28 6 61l103 578h-202l24 132h68q66 0 111 38t58 106l32 184h156l-58 -328h227l-23 -132h-227z" />
    <glyph glyph-name="Tcaron" unicode="&#x164;" horiz-adv-x="976" 
d="M738 1551h-127l-160 295h118l117 -226l196 226h119zM1097 1405l-27 -156h-363l-220 -1249h-171l220 1249h-362l27 156h896z" />
    <glyph glyph-name="tcaron" unicode="&#x165;" horiz-adv-x="675" 
d="M681 1202l124 619h181l-177 -619h-128zM397 0q-106 0 -166 56t-60 155q0 35 5 63l102 571h-201l24 138h68q66 0 112 38t59 107l31 183h162l-58 -328h227l-25 -138h-226l-101 -567q-2 -14 -2 -38q0 -51 28.5 -76.5t80.5 -25.5h95l-24 -138h-131z" />
    <glyph glyph-name="Tbar" unicode="&#x166;" horiz-adv-x="976" 
d="M1070 1249h-363l-86 -489h219l-21 -115h-218l-114 -645h-171l114 645h-217l20 115h217l86 489h-362l27 156h896z" />
    <glyph glyph-name="tbar" unicode="&#x167;" horiz-adv-x="668" 
d="M671 848h-227l-53 -300h167l-17 -115h-171l-28 -158q-3 -14 -3 -38q0 -51 29.5 -77.5t81.5 -26.5h94l-23 -133h-128q-105 0 -164.5 55.5t-59.5 153.5q0 28 6 61l29 163h-155l16 115h160l53 300h-202l24 132h68q66 0 111 38t58 106l32 184h156l-58 -328h227z" />
    <glyph glyph-name="Utilde" unicode="&#x168;" horiz-adv-x="1373" 
d="M1017 1539q-115 0 -166 110q-27 65 -90 65q-49 0 -87 -44.5t-51 -114.5h-97q21 112 89.5 183t160.5 71q113 0 164 -111q28 -62 92 -62q51 0 87.5 42t48.5 114h98q-20 -111 -87.5 -182t-161.5 -71zM605 -19q-199 0 -321 104.5t-122 286.5q0 55 9 99l165 934h172l-162 -923
q-8 -43 -8 -88q0 -127 74 -191.5t198 -64.5q100 0 185 39.5t146.5 121t81.5 195.5l161 911h172l-166 -947q-27 -149 -113 -258.5t-207.5 -164t-264.5 -54.5z" />
    <glyph glyph-name="utilde" unicode="&#x169;" horiz-adv-x="1086" 
d="M572 1289q-40 0 -70 -37t-41 -97h-97q18 101 78.5 165t143.5 64q102 0 144 -98q21 -49 74 -49q41 0 69.5 35.5t39.5 96.5h98q-18 -99 -78 -163.5t-143 -64.5q-103 0 -148 97q-23 51 -70 51zM738 386l105 594h166l-173 -980h-159l20 138q-122 -157 -311 -157
q-128 0 -204 69.5t-76 194.5q0 24 8 82l117 653h165l-110 -623q-6 -37 -6 -67q0 -84 45.5 -124.5t121.5 -40.5q109 0 189 69.5t101 191.5h1z" />
    <glyph glyph-name="Umacron" unicode="&#x16a;" horiz-adv-x="1373" 
d="M547 1551l19 110h647l-19 -110h-647zM605 -19q-199 0 -321 104.5t-122 286.5q0 55 9 99l165 934h172l-162 -923q-8 -43 -8 -88q0 -127 74 -191.5t198 -64.5q100 0 185 39.5t146.5 121t81.5 195.5l161 911h172l-166 -947q-27 -149 -113 -258.5t-207.5 -164t-264.5 -54.5z
" />
    <glyph glyph-name="umacron" unicode="&#x16b;" horiz-adv-x="1086" 
d="M1011 1286l-20 -111h-646l19 111h647zM738 386l105 594h166l-173 -980h-159l20 138q-122 -157 -311 -157q-128 0 -204 69.5t-76 194.5q0 24 8 82l117 653h165l-110 -623q-6 -37 -6 -67q0 -84 45.5 -124.5t121.5 -40.5q109 0 189 69.5t101 191.5h1z" />
    <glyph glyph-name="Uring" unicode="&#x16e;" horiz-adv-x="1373" 
d="M877 1551q-81 0 -131 49t-52 128q-2 97 68.5 169.5t173.5 72.5q82 0 131 -49t51 -126q2 -96 -68.5 -170t-172.5 -74zM887 1636q61 0 104 43.5t43 102.5q0 46 -29 76.5t-76 30.5q-61 0 -104.5 -46t-43.5 -105q0 -46 29 -74t77 -28zM605 -19q-199 0 -321 104.5t-122 286.5
q0 55 9 99l165 934h172l-162 -923q-8 -43 -8 -88q0 -127 74 -191.5t198 -64.5q100 0 185 39.5t146.5 121t81.5 195.5l161 911h172l-166 -947q-27 -149 -113 -258.5t-207.5 -164t-264.5 -54.5z" />
    <glyph glyph-name="uring" unicode="&#x16f;" horiz-adv-x="1086" 
d="M671 1113q-87 0 -142.5 62.5t-47.5 148.5q10 87 78.5 148t156.5 61q85 0 139.5 -61.5t44.5 -147.5q-8 -86 -76 -148.5t-153 -62.5zM568 1324q-6 -54 26.5 -89.5t85.5 -35.5t92.5 35.5t44.5 89.5q6 52 -26.5 90t-83.5 38q-53 0 -93.5 -38t-45.5 -90zM843 980h166
l-173 -980h-159l20 138q-122 -157 -311 -157q-128 0 -204 69.5t-76 194.5q0 24 8 82l117 653h165l-110 -623q-6 -37 -6 -67q0 -84 45.5 -124.5t121.5 -40.5q109 0 189 69.5t101 191.5h1z" />
    <glyph glyph-name="Uhungarumlaut" unicode="&#x170;" horiz-adv-x="1373" 
d="M630 1551l310 326l79 -67l-270 -259h-119zM990 1551l309 326l80 -67l-270 -259h-119zM605 -19q-199 0 -321 104.5t-122 286.5q0 55 9 99l165 934h172l-162 -923q-8 -43 -8 -88q0 -127 74 -191.5t198 -64.5q100 0 185 39.5t146.5 121t81.5 195.5l161 911h172l-166 -947
q-27 -149 -113 -258.5t-207.5 -164t-264.5 -54.5z" />
    <glyph glyph-name="uhungarumlaut" unicode="&#x171;" horiz-adv-x="1086" 
d="M811 1409l-270 -259h-119l309 326zM901 1150h-119l309 326l80 -67zM738 386l105 594h166l-173 -980h-159l20 138q-122 -157 -311 -157q-128 0 -204 69.5t-76 194.5q0 24 8 82l117 653h165l-110 -623q-6 -37 -6 -67q0 -84 45.5 -124.5t121.5 -40.5q109 0 189 69.5
t101 191.5h1z" />
    <glyph glyph-name="Uogonek" unicode="&#x172;" horiz-adv-x="1373" 
d="M1184 1405h172l-166 -947q-31 -169 -133.5 -284t-252.5 -163q-170 -146 -180 -204q-4 -21 12.5 -32t55.5 -11q54 0 98 30l-23 -127q-49 -18 -110 -18q-87 0 -127.5 24.5t-32.5 69.5q14 82 192 243q-47 -5 -84 -5q-199 0 -321 104.5t-122 286.5q0 55 9 99l165 934h172
l-162 -923q-8 -43 -8 -88q0 -127 74 -191.5t198 -64.5q100 0 185 39.5t146.5 121t81.5 195.5z" />
    <glyph glyph-name="uogonek" unicode="&#x173;" horiz-adv-x="1086" 
d="M836 0q-5 -4 -22.5 -19t-27 -23.5t-28 -25t-30.5 -28t-28 -27.5t-26.5 -29t-21 -27t-16.5 -26.5t-8 -22.5q-4 -21 12.5 -32t55.5 -11q54 0 98 30l-23 -127q-49 -18 -110 -18q-87 0 -127.5 24.5t-32.5 69.5q17 95 247 292h-71l20 138q-122 -157 -311 -157
q-128 0 -204 69.5t-76 194.5q0 24 8 82l117 653h165l-110 -623q-6 -37 -6 -67q0 -84 45.5 -124.5t121.5 -40.5q109 0 189 69.5t101 191.5h1l105 594h166z" />
    <glyph glyph-name="Wcircumflex" unicode="&#x174;" horiz-adv-x="1999" 
d="M1028 1551h-118l263 295h127l160 -295h-119l-117 224zM372 0l-157 1405h176l129 -1164l562 1164h152l145 -1164l547 1164h180l-652 -1405h-200l-146 1095l-536 -1095h-200z" />
    <glyph glyph-name="wcircumflex" unicode="&#x175;" horiz-adv-x="1559" 
d="M941 1386l-196 -224h-118l263 295h128l159 -295h-119zM1444 980h177l-511 -981h-150l-134 762l-403 -762h-151l-159 981h172l110 -757l403 757h128l134 -760z" />
    <glyph glyph-name="Ycircumflex" unicode="&#x176;" horiz-adv-x="1157" 
d="M801 1775l-196 -224h-118l263 295h127l160 -295h-119zM1289 1405l-595 -738l-118 -667h-174l119 673l-331 732h189l250 -581l456 581h204z" />
    <glyph glyph-name="ycircumflex" unicode="&#x177;" horiz-adv-x="961" 
d="M636 1386l-196 -224h-118l263 295h128l159 -295h-119zM848 980h180l-820 -1441h-176l283 493l-209 948h181l143 -768z" />
    <glyph glyph-name="Ydieresis" unicode="&#x178;" horiz-adv-x="1157" 
d="M578 1551q-44 0 -70 31.5t-19 75.5q9 44 46.5 75.5t81.5 31.5q43 0 69.5 -31.5t17.5 -75.5q-7 -44 -44.5 -75.5t-81.5 -31.5zM946 1551q-44 0 -70 31.5t-19 75.5q9 44 46.5 75.5t81.5 31.5t69.5 -31.5t17.5 -75.5q-7 -44 -44.5 -75.5t-81.5 -31.5zM1289 1405l-595 -738
l-118 -667h-174l119 673l-331 732h189l250 -581l456 581h204z" />
    <glyph glyph-name="Zacute" unicode="&#x179;" horiz-adv-x="1198" 
d="M1120 1810l-270 -259h-119l310 326zM1257 1405l-24 -142l-994 -1106h824l-28 -157h-1041l24 141l1000 1108h-801l28 156h1012z" />
    <glyph glyph-name="zacute" unicode="&#x17a;" horiz-adv-x="872" 
d="M885 1409l-270 -259h-119l309 326zM908 980l-668 -844h517l-24 -136h-782l664 845h-482l24 135h751z" />
    <glyph glyph-name="Zdotaccent" unicode="&#x17b;" horiz-adv-x="1198" 
d="M798 1551q-48 0 -76.5 34.5t-20.5 81.5q9 48 50 82t89 34q47 0 75.5 -34t18.5 -82q-7 -47 -48 -81.5t-88 -34.5zM1257 1405l-24 -142l-994 -1106h824l-28 -157h-1041l24 141l1000 1108h-801l28 156h1012z" />
    <glyph glyph-name="zdotaccent" unicode="&#x17c;" horiz-adv-x="872" 
d="M588 1245q-48 0 -78.5 34t-26.5 82q5 48 43.5 82t86.5 34t79 -34t25 -82q-5 -48 -43.5 -82t-85.5 -34zM908 980l-668 -844h517l-24 -136h-782l664 845h-482l24 135h751z" />
    <glyph glyph-name="Zcaron" unicode="&#x17d;" horiz-adv-x="1198" 
d="M860 1551h-127l-160 295h118l117 -226l196 226h119zM1257 1405l-24 -142l-994 -1106h824l-28 -157h-1041l24 141l1000 1108h-801l28 156h1012z" />
    <glyph glyph-name="zcaron" unicode="&#x17e;" horiz-adv-x="872" 
d="M628 1162h-127l-159 295h117l117 -226l196 226h119zM908 980l-668 -844h517l-24 -136h-782l664 845h-482l24 135h751z" />
    <glyph glyph-name="florin" unicode="&#x192;" horiz-adv-x="996" 
d="M-4 -384l410 1223h-173l48 144h174l92 279q40 126 154 210t237 84q42 0 80.5 -12t55.5 -27l-29 -128q-31 31 -91 31q-82 0 -151.5 -54t-96.5 -137l-84 -246h287l-48 -144h-286l-413 -1223h-166z" />
    <glyph glyph-name="Ohorn" unicode="&#x1a0;" horiz-adv-x="1611" 
d="M1644 1477h109l-19 -108q-21 -123 -76.5 -178.5t-133.5 -55.5q-17 0 -35 3q65 -125 65 -287q0 -133 -37 -261.5t-109.5 -238t-171 -192.5t-229.5 -130.5t-278 -47.5q-268 0 -432 154.5t-164 420.5q0 167 59 323.5t164 277.5t262.5 194t341.5 73q287 0 449 -174l1 1
q49 -28 97 -28q50 0 78 37t41 115zM736 144q143 0 266.5 59.5t205.5 157t128 223t46 257.5q0 198 -118 308.5t-311 110.5q-116 0 -219.5 -38.5t-181 -105.5t-134.5 -154.5t-86 -189.5t-29 -207q0 -199 119.5 -310t313.5 -111z" />
    <glyph glyph-name="ohorn" unicode="&#x1a1;" horiz-adv-x="1148" 
d="M1180 1117h109l-19 -108q-21 -123 -76.5 -178.5t-133.5 -55.5q-16 0 -24 1q37 -82 37 -185q0 -116 -41 -225t-114 -195t-183.5 -138t-239.5 -52q-189 0 -305 110.5t-116 298.5q0 116 40.5 225t113.5 194.5t183.5 137.5t240.5 52q198 0 313 -118q41 -18 78 -18q50 0 78 37
t41 115zM499 121q120 0 216 70.5t145 175t49 216.5q0 127 -72 202t-191 75q-121 0 -216 -71.5t-142.5 -176t-47.5 -216.5q0 -127 70.5 -201t188.5 -74z" />
    <glyph glyph-name="Uhorn" unicode="&#x1af;" horiz-adv-x="1373" 
d="M1539 1526h109l-19 -108q-21 -123 -76.5 -178.5t-133.5 -55.5q-47 0 -98 20l-131 -746q-27 -149 -113 -258.5t-207.5 -164t-264.5 -54.5q-199 0 -321 104.5t-122 286.5q0 55 9 99l165 934h172l-162 -923q-8 -43 -8 -88q0 -127 74 -191.5t198 -64.5q100 0 185 39.5
t146.5 121t81.5 195.5l161 911h172l-21 -119q34 -14 67 -14q50 0 78 37t41 115z" />
    <glyph glyph-name="uhorn" unicode="&#x1b0;" horiz-adv-x="1086" 
d="M1206 1101h109l-19 -108q-21 -123 -76.5 -178.5t-133.5 -55.5q-53 0 -112 25l-138 -784h-159l20 138q-122 -157 -311 -157q-128 0 -204 69.5t-76 194.5q0 24 8 82l117 653h165l-110 -623q-6 -37 -6 -67q0 -84 45.5 -124.5t121.5 -40.5q109 0 189 69.5t101 191.5h1
l105 594h166l-20 -114q41 -19 80 -19q50 0 78 37t41 115z" />
    <glyph glyph-name="uni01CD" unicode="&#x1cd;" horiz-adv-x="1330" 
d="M914 1551h-127l-160 295h118l117 -226l196 226h119zM1020 0l-61 339h-639l-182 -339h-181l765 1405h206l271 -1405h-179zM402 492h529l-133 740z" />
    <glyph glyph-name="uni01CE" unicode="&#x1ce;" horiz-adv-x="1219" 
d="M791 1165h-127l-159 295h117l117 -226l196 226h119zM976 980h165l-173 -980h-156l23 185q-63 -95 -163 -150.5t-211 -55.5q-171 0 -279 112t-108 299q0 110 40 219t109.5 195.5t173 140.5t221.5 54q119 0 205.5 -59.5t117.5 -159.5zM504 124q88 0 165.5 42.5t128.5 108
t80.5 143.5t29.5 151q0 125 -72.5 206t-191.5 81q-117 0 -211 -69.5t-142.5 -172t-48.5 -210.5q0 -128 72.5 -204t189.5 -76z" />
    <glyph glyph-name="uni01CF" unicode="&#x1cf;" horiz-adv-x="582" 
d="M412 1551l-160 295h118l117 -226l196 226h119l-263 -295h-127zM118 0l248 1405h172l-248 -1405h-172z" />
    <glyph glyph-name="uni01D0" unicode="&#x1d0;" horiz-adv-x="500" 
d="M306 1165l-159 295h117l117 -226l196 226h119l-263 -295h-127zM76 0l174 983h174l-174 -983h-174z" />
    <glyph glyph-name="uni01D1" unicode="&#x1d1;" horiz-adv-x="1611" 
d="M929 1551l-160 295h118l117 -226l196 226h119l-263 -295h-127zM729 -19q-268 0 -432 154.5t-164 420.5q0 167 59 323.5t164 277.5t262.5 194t341.5 73q265 0 429.5 -154t164.5 -419q0 -133 -37 -261.5t-109.5 -238t-171 -192.5t-229.5 -130.5t-278 -47.5zM736 144
q143 0 266.5 59.5t205.5 157t128 223t46 257.5q0 198 -118 308.5t-311 110.5q-116 0 -219.5 -38.5t-181 -105.5t-134.5 -154.5t-86 -189.5t-29 -207q0 -199 119.5 -310t313.5 -111z" />
    <glyph glyph-name="uni01D2" unicode="&#x1d2;" horiz-adv-x="1148" 
d="M627 1162l-159 295h117l117 -226l196 226h119l-263 -295h-127zM495 -19q-189 0 -305 110.5t-116 298.5q0 116 40.5 225t113.5 194.5t183.5 137.5t240.5 52q190 0 305.5 -110.5t115.5 -297.5q0 -116 -41 -225t-114 -195t-183.5 -138t-239.5 -52zM499 121q120 0 216 70.5
t145 175t49 216.5q0 127 -72 202t-191 75q-121 0 -216 -71.5t-142.5 -176t-47.5 -216.5q0 -127 70.5 -201t188.5 -74z" />
    <glyph glyph-name="uni01D3" unicode="&#x1d3;" horiz-adv-x="1373" 
d="M806 1551l-160 295h118l117 -226l196 226h119l-263 -295h-127zM605 -19q-199 0 -321 104.5t-122 286.5q0 55 9 99l165 934h172l-162 -923q-8 -43 -8 -88q0 -127 74 -191.5t198 -64.5q100 0 185 39.5t146.5 121t81.5 195.5l161 911h172l-166 -947q-27 -149 -113 -258.5
t-207.5 -164t-264.5 -54.5z" />
    <glyph glyph-name="uni01D4" unicode="&#x1d4;" horiz-adv-x="1086" 
d="M728 1162h-127l-159 295h117l117 -226l196 226h119zM843 980h166l-173 -980h-159l20 138q-122 -157 -311 -157q-128 0 -204 69.5t-76 194.5q0 24 8 82l117 653h165l-110 -623q-6 -37 -6 -67q0 -84 45.5 -124.5t121.5 -40.5q109 0 189 69.5t101 191.5h1z" />
    <glyph glyph-name="uni01D5" unicode="&#x1d5;" horiz-adv-x="1373" 
d="M610 1911l19 110h647l-19 -110h-647zM686 1551q-44 0 -70 31.5t-19 75.5q9 44 46.5 75.5t81.5 31.5q43 0 69.5 -31.5t17.5 -75.5q-7 -44 -44.5 -75.5t-81.5 -31.5zM1054 1551q-44 0 -70 31.5t-19 75.5q9 44 46.5 75.5t81.5 31.5t69.5 -31.5t17.5 -75.5
q-7 -44 -44.5 -75.5t-81.5 -31.5zM605 -19q-199 0 -321 104.5t-122 286.5q0 55 9 99l165 934h172l-162 -923q-8 -43 -8 -88q0 -127 74 -191.5t198 -64.5q100 0 185 39.5t146.5 121t81.5 195.5l161 911h172l-166 -947q-27 -149 -113 -258.5t-207.5 -164t-264.5 -54.5z" />
    <glyph glyph-name="uni01D6" unicode="&#x1d6;" horiz-adv-x="1086" 
d="M451 1778h647l-20 -111h-646zM501 1245q-48 0 -79 34t-25 82q4 48 42.5 82t86.5 34q47 0 77.5 -33.5t26.5 -82.5q-5 -48 -43.5 -82t-85.5 -34zM1004 1361q-5 -48 -43.5 -82t-85.5 -34q-48 0 -79 34t-25 82q4 48 42.5 82t86.5 34q47 0 77.5 -33.5t26.5 -82.5zM738 386
l105 594h166l-173 -980h-159l20 138q-122 -157 -311 -157q-128 0 -204 69.5t-76 194.5q0 24 8 82l117 653h165l-110 -623q-6 -37 -6 -67q0 -84 45.5 -124.5t121.5 -40.5q109 0 189 69.5t101 191.5h1z" />
    <glyph glyph-name="uni01D7" unicode="&#x1d7;" horiz-adv-x="1373" 
d="M867 1911l310 326l79 -67l-270 -259h-119zM686 1551q-44 0 -70 31.5t-19 75.5q9 44 46.5 75.5t81.5 31.5q43 0 69.5 -31.5t17.5 -75.5q-7 -44 -44.5 -75.5t-81.5 -31.5zM1054 1551q-44 0 -70 31.5t-19 75.5q9 44 46.5 75.5t81.5 31.5t69.5 -31.5t17.5 -75.5
q-7 -44 -44.5 -75.5t-81.5 -31.5zM605 -19q-199 0 -321 104.5t-122 286.5q0 55 9 99l165 934h172l-162 -923q-8 -43 -8 -88q0 -127 74 -191.5t198 -64.5q100 0 185 39.5t146.5 121t81.5 195.5l161 911h172l-166 -947q-27 -149 -113 -258.5t-207.5 -164t-264.5 -54.5z" />
    <glyph glyph-name="uni01D8" unicode="&#x1d8;" horiz-adv-x="1086" 
d="M1072 1901l-270 -259h-119l309 326zM501 1245q-48 0 -79 34t-25 82q4 48 42.5 82t86.5 34q47 0 77.5 -33.5t26.5 -82.5q-5 -48 -43.5 -82t-85.5 -34zM771 1361q4 48 42.5 82t86.5 34q47 0 77.5 -33.5t26.5 -82.5q-5 -48 -43.5 -82t-85.5 -34q-48 0 -79 34t-25 82z
M738 386l105 594h166l-173 -980h-159l20 138q-122 -157 -311 -157q-128 0 -204 69.5t-76 194.5q0 24 8 82l117 653h165l-110 -623q-6 -37 -6 -67q0 -84 45.5 -124.5t121.5 -40.5q109 0 189 69.5t101 191.5h1z" />
    <glyph glyph-name="uni01D9" unicode="&#x1d9;" horiz-adv-x="1373" 
d="M869 1911l-160 295h118l117 -226l196 226h119l-263 -295h-127zM686 1551q-44 0 -70 31.5t-19 75.5q9 44 46.5 75.5t81.5 31.5q43 0 69.5 -31.5t17.5 -75.5q-7 -44 -44.5 -75.5t-81.5 -31.5zM1054 1551q-44 0 -70 31.5t-19 75.5q9 44 46.5 75.5t81.5 31.5t69.5 -31.5
t17.5 -75.5q-7 -44 -44.5 -75.5t-81.5 -31.5zM605 -19q-199 0 -321 104.5t-122 286.5q0 55 9 99l165 934h172l-162 -923q-8 -43 -8 -88q0 -127 74 -191.5t198 -64.5q100 0 185 39.5t146.5 121t81.5 195.5l161 911h172l-166 -947q-27 -149 -113 -258.5t-207.5 -164
t-264.5 -54.5z" />
    <glyph glyph-name="uni01DA" unicode="&#x1da;" horiz-adv-x="1086" 
d="M815 1654h-127l-159 295h117l117 -226l196 226h119zM501 1245q-48 0 -79 34t-25 82q4 48 42.5 82t86.5 34q47 0 77.5 -33.5t26.5 -82.5q-5 -48 -43.5 -82t-85.5 -34zM771 1361q4 48 42.5 82t86.5 34q47 0 77.5 -33.5t26.5 -82.5q-5 -48 -43.5 -82t-85.5 -34q-48 0 -79 34
t-25 82zM738 386l105 594h166l-173 -980h-159l20 138q-122 -157 -311 -157q-128 0 -204 69.5t-76 194.5q0 24 8 82l117 653h165l-110 -623q-6 -37 -6 -67q0 -84 45.5 -124.5t121.5 -40.5q109 0 189 69.5t101 191.5h1z" />
    <glyph glyph-name="uni01DB" unicode="&#x1db;" horiz-adv-x="1373" 
d="M874 1911l-179 259l105 67l193 -326h-119zM686 1551q-44 0 -70 31.5t-19 75.5q9 44 46.5 75.5t81.5 31.5q43 0 69.5 -31.5t17.5 -75.5q-7 -44 -44.5 -75.5t-81.5 -31.5zM1054 1551q-44 0 -70 31.5t-19 75.5q9 44 46.5 75.5t81.5 31.5t69.5 -31.5t17.5 -75.5
q-7 -44 -44.5 -75.5t-81.5 -31.5zM605 -19q-199 0 -321 104.5t-122 286.5q0 55 9 99l165 934h172l-162 -923q-8 -43 -8 -88q0 -127 74 -191.5t198 -64.5q100 0 185 39.5t146.5 121t81.5 195.5l161 911h172l-166 -947q-27 -149 -113 -258.5t-207.5 -164t-264.5 -54.5z" />
    <glyph glyph-name="uni01DC" unicode="&#x1dc;" horiz-adv-x="1086" 
d="M809 1642h-119l-178 259l104 67zM501 1245q-48 0 -79 34t-25 82q4 48 42.5 82t86.5 34q47 0 77.5 -33.5t26.5 -82.5q-5 -48 -43.5 -82t-85.5 -34zM771 1361q4 48 42.5 82t86.5 34q47 0 77.5 -33.5t26.5 -82.5q-5 -48 -43.5 -82t-85.5 -34q-48 0 -79 34t-25 82zM843 980
h166l-173 -980h-159l20 138q-122 -157 -311 -157q-128 0 -204 69.5t-76 194.5q0 24 8 82l117 653h165l-110 -623q-6 -37 -6 -67q0 -84 45.5 -124.5t121.5 -40.5q109 0 189 69.5t101 191.5h1z" />
    <glyph glyph-name="Scommaaccent" unicode="&#x218;" horiz-adv-x="1238" 
d="M582 -19q-225 0 -366.5 101.5t-148.5 273.5l178 32q8 -119 103 -188.5t243 -69.5q156 0 255 68.5t99 186.5q0 43 -12 78t-36.5 60.5t-52 44.5t-69 34.5t-75.5 26.5t-83 24q-5 1 -8 2q-50 14 -83 24t-77 27.5t-73 35.5t-60.5 45.5t-49.5 58.5t-30 74t-12 94
q0 118 66.5 212t181.5 146t257 52q131 0 236.5 -36t175 -115.5t74.5 -192.5l-170 -33q-7 113 -96 170.5t-217 57.5q-142 0 -239 -71.5t-97 -173.5q0 -34 9 -62t21 -48.5t37 -39t44.5 -30t56 -24.5t60 -19.5t67.5 -18.5q56 -15 88.5 -24.5t84.5 -28.5t82.5 -37t68 -48
t58 -63.5t34.5 -80.5t14 -102q0 -197 -151 -310t-388 -113zM285 -559l-85 41l225 366h158z" />
    <glyph glyph-name="scommaaccent" unicode="&#x219;" horiz-adv-x="910" 
d="M386 -19q-163 0 -255.5 73.5t-91.5 203.5l155 32q-4 -86 49.5 -135.5t147.5 -49.5q99 0 165 50.5t66 138.5q0 28 -11 49t-26.5 35t-47 27.5t-57 21.5t-73.5 20q-60 15 -99.5 30.5t-80.5 42t-61.5 67.5t-20.5 96q0 147 107 230.5t271 83.5q145 0 235.5 -66t90.5 -194
l-146 -26q4 83 -47 124t-129 41q-93 0 -158 -49t-65 -132q0 -22 6 -39t23 -30.5t29 -22t42.5 -18t44.5 -13.5t53 -14q50 -12 85 -23.5t75.5 -32t65.5 -45t41.5 -62.5t16.5 -86q0 -154 -113 -241t-287 -87zM125 -558l-85 41l225 366h158z" />
    <glyph glyph-name="uni021A" unicode="&#x21a;" horiz-adv-x="976" 
d="M1097 1405l-27 -156h-363l-220 -1249h-171l220 1249h-362l27 156h896zM70 -518l225 366h158l-298 -407z" />
    <glyph glyph-name="uni021B" unicode="&#x21b;" horiz-adv-x="668" 
d="M393 0q-105 0 -164.5 55.5t-59.5 153.5q0 28 6 61l103 578h-202l24 132h68q66 0 111 38t58 106l32 184h156l-58 -328h227l-23 -132h-227l-102 -573q-3 -14 -3 -38q0 -51 29.5 -77.5t81.5 -26.5h94l-23 -133h-128zM182 -559l-85 41l225 366h158z" />
    <glyph glyph-name="uni0237" unicode="&#x237;" horiz-adv-x="501" 
d="M-225 -460l24 147q135 0 190.5 67t90.5 266l170 963h175l-172 -975q-46 -261 -152.5 -364.5t-325.5 -103.5z" />
    <glyph glyph-name="circumflex" unicode="&#x2c6;" horiz-adv-x="670" 
d="M310 1241h-118l263 295h128l159 -295h-119l-117 224z" />
    <glyph glyph-name="caron" unicode="&#x2c7;" horiz-adv-x="678" 
d="M407 1241l-159 295h117l117 -226l196 226h119l-263 -295h-127z" />
    <glyph glyph-name="breve" unicode="&#x2d8;" horiz-adv-x="878" 
d="M565 1219q-149 0 -229 86t-54 231h107q-17 -99 36.5 -162.5t154.5 -63.5q103 0 180 63.5t94 162.5h107q-26 -145 -136 -231t-260 -86z" />
    <glyph glyph-name="dotaccent" unicode="&#x2d9;" horiz-adv-x="495" 
d="M389 1248q-48 0 -78.5 34t-26.5 82q5 48 43.5 82t86.5 34t79 -34t25 -82q-5 -48 -43.5 -82t-85.5 -34z" />
    <glyph glyph-name="ring" unicode="&#x2da;" horiz-adv-x="645" 
d="M443 1157q-87 0 -142.5 62.5t-47.5 148.5q10 87 78.5 148t156.5 61q85 0 139.5 -61.5t44.5 -147.5q-8 -86 -76 -148.5t-153 -62.5zM452 1243q53 0 92.5 35.5t44.5 89.5q6 52 -26.5 90t-83.5 38q-53 0 -93.5 -38t-45.5 -90q-6 -54 26.5 -89.5t85.5 -35.5z" />
    <glyph glyph-name="ogonek" unicode="&#x2db;" horiz-adv-x="494" 
d="M93 -386q-87 0 -127.5 24.5t-32.5 69.5q17 99 279 319l56 -27q-5 -4 -22.5 -19t-27 -23.5t-28 -25t-30.5 -28t-28 -27.5t-26.5 -29t-21 -27t-16.5 -26.5t-8 -22.5q-4 -21 12.5 -32t55.5 -11q54 0 98 30l-23 -127q-50 -18 -110 -18z" />
    <glyph glyph-name="tilde" unicode="&#x2dc;" horiz-adv-x="857" 
d="M668 1144q-103 0 -148 97q-23 51 -70 51q-40 0 -70 -37t-41 -97h-97q18 101 78.5 165t143.5 64q102 0 144 -98q21 -49 74 -49q41 0 69.5 35.5t39.5 96.5h98q-18 -99 -78 -163.5t-143 -64.5z" />
    <glyph glyph-name="hungarumlaut" unicode="&#x2dd;" horiz-adv-x="817" 
d="M164 1229l309 326l80 -67l-270 -259h-119zM524 1229l309 326l80 -67l-270 -259h-119z" />
    <glyph glyph-name="gravecomb" unicode="&#x300;" 
d="M-37 1229l-178 259l104 67l193 -326h-119z" />
    <glyph glyph-name="acutecomb" unicode="&#x301;" 
d="M-280 1229l309 326l80 -67l-270 -259h-119z" />
    <glyph glyph-name="uni0302" unicode="&#x302;" 
d="M-360 1241h-118l263 295h128l159 -295h-119l-117 224z" />
    <glyph glyph-name="tildecomb" unicode="&#x303;" 
d="M-189 1144q-103 0 -148 97q-23 51 -70 51q-40 0 -70 -37t-41 -97h-97q18 101 78.5 165t143.5 64q102 0 144 -98q21 -49 74 -49q41 0 69.5 35.5t39.5 96.5h98q-18 -99 -78 -163.5t-143 -64.5z" />
    <glyph glyph-name="uni0304" unicode="&#x304;" 
d="M-670 1254l19 111h647l-20 -111h-646z" />
    <glyph glyph-name="uni0306" unicode="&#x306;" 
d="M-313 1219q-149 0 -229 86t-54 231h107q-17 -99 36.5 -162.5t154.5 -63.5q103 0 180 63.5t94 162.5h107q-26 -145 -136 -231t-260 -86z" />
    <glyph glyph-name="uni0307" unicode="&#x307;" 
d="M-105 1248q-48 0 -78.5 34t-26.5 82q5 48 43.5 82t86.5 34t79 -34t25 -82q-5 -48 -43.5 -82t-85.5 -34z" />
    <glyph glyph-name="uni0308" unicode="&#x308;" 
d="M-479 1248q-48 0 -79 34t-25 82q4 48 42.5 82t86.5 34q47 0 77.5 -33.5t26.5 -82.5q-5 -48 -43.5 -82t-85.5 -34zM-105 1248q-48 0 -79 34t-25 82q4 48 42.5 82t86.5 34q47 0 77.5 -33.5t26.5 -82.5q-5 -48 -43.5 -82t-85.5 -34z" />
    <glyph glyph-name="hookabovecomb" unicode="&#x309;" 
d="M-208 1155l22 119q122 26 137 110q6 37 -12.5 61.5t-59.5 24.5q-45 0 -91 -32l-40 70q70 48 148 48q81 0 124.5 -47t30.5 -121q-20 -116 -157 -156l-14 -77h-88z" />
    <glyph glyph-name="uni030A" unicode="&#x30a;" 
d="M-189 1157q-87 0 -142.5 62.5t-47.5 148.5q10 87 78.5 148t156.5 61q85 0 139.5 -61.5t44.5 -147.5q-8 -86 -76 -148.5t-153 -62.5zM-180 1243q53 0 92.5 35.5t44.5 89.5q6 52 -26.5 90t-83.5 38q-53 0 -93.5 -38t-45.5 -90q-6 -54 26.5 -89.5t85.5 -35.5z" />
    <glyph glyph-name="uni030B" unicode="&#x30b;" 
d="M-640 1229l309 326l80 -67l-270 -259h-119zM-280 1229l309 326l80 -67l-270 -259h-119z" />
    <glyph glyph-name="uni030C" unicode="&#x30c;" 
d="M-271 1241l-159 295h117l117 -226l196 226h119l-263 -295h-127z" />
    <glyph glyph-name="uni0312" unicode="&#x312;" 
d="M127 1529l-286 -306h-184l340 306h130z" />
    <glyph glyph-name="uni031B" unicode="&#x31b;" 
d="M-256 791q-88 0 -168 56l54 60q49 -28 97 -28q50 0 78 37t41 115l18 102h109l-19 -108q-21 -123 -76.5 -178.5t-133.5 -55.5z" />
    <glyph glyph-name="dotbelowcomb" unicode="&#x323;" 
d="M-423 -512q-48 0 -76.5 34t-20.5 83q8 47 49 81.5t88 34.5t76 -34.5t20 -81.5q-8 -49 -48 -83t-88 -34z" />
    <glyph glyph-name="uni0326" unicode="&#x326;" 
d="M-473 -559l-85 41l225 366h158z" />
    <glyph glyph-name="uni0327" unicode="&#x327;" 
d="M-471 -532q-72 0 -132 37t-81 93l93 36q16 -32 55 -53.5t80 -21.5q49 0 89.5 34t49.5 85q10 54 -19.5 84t-84.5 30q-44 0 -85 -20l-65 49l148 219h95l-119 -178q40 8 57 8q87 0 133.5 -53t32.5 -139q-16 -88 -87 -149t-160 -61z" />
    <glyph glyph-name="uni0328" unicode="&#x328;" 
d="M-388 -386q-87 0 -127.5 24.5t-32.5 69.5q17 99 279 319l56 -27q-5 -4 -22.5 -19t-27 -23.5t-28 -25t-30.5 -28t-28 -27.5t-26.5 -29t-21 -27t-16.5 -26.5t-8 -22.5q-4 -21 12.5 -32t55.5 -11q54 0 98 30l-23 -127q-50 -18 -110 -18z" />
    <glyph glyph-name="uni0335" unicode="&#x335;" 
d="M-769 473l20 115h607l-21 -115h-606z" />
    <glyph glyph-name="uni0336" unicode="&#x336;" 
d="M-1625 487l15 91h1466l-16 -91h-1465z" />
    <glyph glyph-name="uni0337" unicode="&#x337;" 
d="M-629 275l23 128l611 404l-23 -128z" />
    <glyph glyph-name="uni0338" unicode="&#x338;" 
d="M-755 212l812 1163l85 -52l-811 -1163z" />
    <glyph glyph-name="uni0394" unicode="&#x394;" horiz-adv-x="1504" 
d="M1031 1536l345 -1536h-1423l889 1536h189zM233 161h927l-254 1184z" />
    <glyph glyph-name="uni03A9" unicode="&#x3a9;" horiz-adv-x="1800" 
d="M1712 935q0 -217 -128 -439t-328 -346h376l-26 -150h-621l16 126q152 73 271.5 204.5t183.5 288t64 311.5q0 95 -27.5 178t-80 148t-139 102.5t-195.5 37.5q-127 0 -239 -45t-193.5 -121.5t-141.5 -175t-89.5 -207t-29.5 -216.5q0 -179 77 -312t197 -199l-16 -120h-623
l26 150h380l6 7q-98 78 -165 215t-67 306q0 125 39 250t115.5 236.5t181 197.5t246 136t299.5 50q123 0 227.5 -33.5t178 -91.5t125 -136t76 -167t24.5 -185z" />
    <glyph glyph-name="uni03BC" unicode="&#x3bc;" horiz-adv-x="1182" 
d="M933 983h172l-173 -983h-172l23 133q-65 -71 -148 -111t-172 -40q-149 0 -243 102l-93 -526h-130l252 1425h172l-105 -599q-5 -23 -5 -49q0 -88 56 -145t144 -57q110 0 202.5 75t114.5 181z" />
    <glyph glyph-name="pi" unicode="&#x3c0;" horiz-adv-x="1232" 
d="M55 1q80 145 169.5 395t138.5 453q-171 -1 -256 -32l-10 117q93 49 317 49h886l-38 -135h-178l-98 -566q-34 -201 -21 -283l-153 2q-10 26 -10 77q0 80 22 200l98 570h-406q-47 -208 -136.5 -471t-164.5 -378z" />
    <glyph glyph-name="Wgrave" unicode="&#x1e80;" horiz-adv-x="1999" 
d="M1126 1551l-179 259l105 67l193 -326h-119zM372 0l-157 1405h176l129 -1164l562 1164h152l145 -1164l547 1164h180l-652 -1405h-200l-146 1095l-536 -1095h-200z" />
    <glyph glyph-name="wgrave" unicode="&#x1e81;" horiz-adv-x="1559" 
d="M960 1150h-119l-178 259l104 67zM1444 980h177l-511 -981h-150l-134 762l-403 -762h-151l-159 981h172l110 -757l403 757h128l134 -760z" />
    <glyph glyph-name="Wacute" unicode="&#x1e82;" horiz-adv-x="1999" 
d="M1119 1551l310 326l79 -67l-270 -259h-119zM372 0l-157 1405h176l129 -1164l562 1164h152l145 -1164l547 1164h180l-652 -1405h-200l-146 1095l-536 -1095h-200z" />
    <glyph glyph-name="wacute" unicode="&#x1e83;" horiz-adv-x="1559" 
d="M1223 1409l-270 -259h-119l309 326zM1444 980h177l-511 -981h-150l-134 762l-403 -762h-151l-159 981h172l110 -757l403 757h128l134 -760z" />
    <glyph glyph-name="Wdieresis" unicode="&#x1e84;" horiz-adv-x="1999" 
d="M1001 1551q-44 0 -70 31.5t-19 75.5q9 44 46.5 75.5t81.5 31.5q43 0 69.5 -31.5t17.5 -75.5q-7 -44 -44.5 -75.5t-81.5 -31.5zM1369 1551q-44 0 -70 31.5t-19 75.5q9 44 46.5 75.5t81.5 31.5t69.5 -31.5t17.5 -75.5q-7 -44 -44.5 -75.5t-81.5 -31.5zM372 0l-157 1405h176
l129 -1164l562 1164h152l145 -1164l547 1164h180l-652 -1405h-200l-146 1095l-536 -1095h-200z" />
    <glyph glyph-name="wdieresis" unicode="&#x1e85;" horiz-adv-x="1559" 
d="M739 1245q-48 0 -79 34t-25 82q4 48 42.5 82t86.5 34q47 0 77.5 -33.5t26.5 -82.5q-5 -48 -43.5 -82t-85.5 -34zM1113 1245q-48 0 -79 34t-25 82q4 48 42.5 82t86.5 34q47 0 77.5 -33.5t26.5 -82.5q-5 -48 -43.5 -82t-85.5 -34zM1444 980h177l-511 -981h-150l-134 762
l-403 -762h-151l-159 981h172l110 -757l403 757h128l134 -760z" />
    <glyph glyph-name="uni1EA0" unicode="&#x1ea0;" horiz-adv-x="1330" 
d="M1199 0h-179l-61 339h-639l-182 -339h-181l765 1405h206zM402 492h529l-133 740zM529 -279q47 0 76 -34.5t20 -81.5q-8 -49 -48 -83t-88 -34t-76.5 34t-20.5 83q8 47 49 81.5t88 34.5z" />
    <glyph glyph-name="uni1EA1" unicode="&#x1ea1;" horiz-adv-x="1219" 
d="M976 980h165l-173 -980h-156l23 185q-63 -95 -163 -150.5t-211 -55.5q-171 0 -279 112t-108 299q0 110 40 219t109.5 195.5t173 140.5t221.5 54q119 0 205.5 -59.5t117.5 -159.5zM504 124q88 0 165.5 42.5t128.5 108t80.5 143.5t29.5 151q0 125 -72.5 206t-191.5 81
q-117 0 -211 -69.5t-142.5 -172t-48.5 -210.5q0 -128 72.5 -204t189.5 -76zM454 -279q47 0 76 -34.5t20 -81.5q-8 -49 -48 -83t-88 -34t-76.5 34t-20.5 83q8 47 49 81.5t88 34.5z" />
    <glyph glyph-name="uni1EA2" unicode="&#x1ea2;" horiz-adv-x="1330" 
d="M894 1847q-46 0 -92 -31l-40 69q71 49 148 49q81 0 124.5 -47t30.5 -121q-20 -116 -158 -157l-13 -76h-88l22 119q121 24 138 110q5 37 -13.5 61t-58.5 24zM1020 0l-61 339h-639l-182 -339h-181l765 1405h206l271 -1405h-179zM402 492h529l-133 740z" />
    <glyph glyph-name="uni1EA3" unicode="&#x1ea3;" horiz-adv-x="1219" 
d="M757 1394q-45 0 -91 -32l-40 70q70 48 148 48q81 0 124.5 -47t30.5 -121q-20 -116 -157 -156l-14 -77h-88l22 119q122 26 137 110q6 37 -12.5 61.5t-59.5 24.5zM976 980h165l-173 -980h-156l23 185q-63 -95 -163 -150.5t-211 -55.5q-171 0 -279 112t-108 299
q0 110 40 219t109.5 195.5t173 140.5t221.5 54q119 0 205.5 -59.5t117.5 -159.5zM504 124q88 0 165.5 42.5t128.5 108t80.5 143.5t29.5 151q0 125 -72.5 206t-191.5 81q-117 0 -211 -69.5t-142.5 -172t-48.5 -210.5q0 -128 72.5 -204t189.5 -76z" />
    <glyph glyph-name="uni1EA4" unicode="&#x1ea4;" horiz-adv-x="1330" 
d="M1251 2251l-270 -259h-119l310 326zM890 1775l-196 -224h-118l263 295h127l160 -295h-119zM722 1405h206l271 -1405h-179l-61 339h-639l-182 -339h-181zM402 492h529l-133 740z" />
    <glyph glyph-name="uni1EA5" unicode="&#x1ea5;" horiz-adv-x="1219" 
d="M1130 1889l-270 -259h-119l309 326zM766 1389l-196 -224h-118l263 295h128l159 -295h-119zM976 980h165l-173 -980h-156l23 185q-63 -95 -163 -150.5t-211 -55.5q-171 0 -279 112t-108 299q0 110 40 219t109.5 195.5t173 140.5t221.5 54q119 0 205.5 -59.5t117.5 -159.5z
M504 124q88 0 165.5 42.5t128.5 108t80.5 143.5t29.5 151q0 125 -72.5 206t-191.5 81q-117 0 -211 -69.5t-142.5 -172t-48.5 -210.5q0 -128 72.5 -204t189.5 -76z" />
    <glyph glyph-name="uni1EA6" unicode="&#x1ea6;" horiz-adv-x="1330" 
d="M988 1992h-119l-179 259l105 67zM890 1775l-196 -224h-118l263 295h127l160 -295h-119zM1020 0l-61 339h-639l-182 -339h-181l765 1405h206l271 -1405h-179zM402 492h529l-133 740z" />
    <glyph glyph-name="uni1EA7" unicode="&#x1ea7;" horiz-adv-x="1219" 
d="M867 1630h-119l-178 259l104 67zM766 1389l-196 -224h-118l263 295h128l159 -295h-119zM976 980h165l-173 -980h-156l23 185q-63 -95 -163 -150.5t-211 -55.5q-171 0 -279 112t-108 299q0 110 40 219t109.5 195.5t173 140.5t221.5 54q119 0 205.5 -59.5t117.5 -159.5z
M504 124q88 0 165.5 42.5t128.5 108t80.5 143.5t29.5 151q0 125 -72.5 206t-191.5 81q-117 0 -211 -69.5t-142.5 -172t-48.5 -210.5q0 -128 72.5 -204t189.5 -76z" />
    <glyph glyph-name="uni1EA8" unicode="&#x1ea8;" horiz-adv-x="1330" 
d="M971 2288q-45 0 -92 -31l-40 69q71 49 148 49q81 0 124.5 -47t30.5 -121q-20 -116 -158 -157l-13 -76h-88l22 119q121 24 138 110q5 37 -13.5 61t-58.5 24zM890 1775l-196 -224h-118l263 295h127l160 -295h-119zM1020 0l-61 339h-639l-182 -339h-181l765 1405h206
l271 -1405h-179zM402 492h529l-133 740z" />
    <glyph glyph-name="uni1EA9" unicode="&#x1ea9;" horiz-adv-x="1219" 
d="M839 1871q-45 0 -91 -32l-40 70q70 48 148 48q81 0 124.5 -47t30.5 -121q-20 -116 -157 -156l-14 -77h-88l22 119q122 26 137 110q6 37 -12.5 61.5t-59.5 24.5zM766 1389l-196 -224h-118l263 295h128l159 -295h-119zM976 980h165l-173 -980h-156l23 185
q-63 -95 -163 -150.5t-211 -55.5q-171 0 -279 112t-108 299q0 110 40 219t109.5 195.5t173 140.5t221.5 54q119 0 205.5 -59.5t117.5 -159.5zM504 124q88 0 165.5 42.5t128.5 108t80.5 143.5t29.5 151q0 125 -72.5 206t-191.5 81q-117 0 -211 -69.5t-142.5 -172
t-48.5 -210.5q0 -128 72.5 -204t189.5 -76z" />
    <glyph glyph-name="uni1EAA" unicode="&#x1eaa;" horiz-adv-x="1330" 
d="M1226 2233h98q-20 -111 -87.5 -182t-161.5 -71q-115 0 -166 110q-27 65 -90 65q-49 0 -87 -44.5t-51 -114.5h-97q21 112 89.5 183t160.5 71q113 0 164 -111q28 -62 92 -62q51 0 87.5 42t48.5 114zM1007 1551l-117 224l-196 -224h-118l263 295h127l160 -295h-119z
M722 1405h206l271 -1405h-179l-61 339h-639l-182 -339h-181zM402 492h529l-133 740z" />
    <glyph glyph-name="uni1EAB" unicode="&#x1eab;" horiz-adv-x="1219" 
d="M717 1769q-40 0 -70 -37t-41 -97h-97q18 101 78.5 165t143.5 64q102 0 144 -98q21 -49 74 -49q41 0 69.5 35.5t39.5 96.5h98q-18 -99 -78 -163.5t-143 -64.5q-103 0 -148 97q-23 51 -70 51zM766 1389l-196 -224h-118l263 295h128l159 -295h-119zM941 780l35 200h165
l-173 -980h-156l23 185q-63 -95 -163 -150.5t-211 -55.5q-171 0 -279 112t-108 299q0 110 40 219t109.5 195.5t173 140.5t221.5 54q119 0 205.5 -59.5t117.5 -159.5zM504 124q88 0 165.5 42.5t128.5 108t80.5 143.5t29.5 151q0 125 -72.5 206t-191.5 81q-117 0 -211 -69.5
t-142.5 -172t-48.5 -210.5q0 -128 72.5 -204t189.5 -76z" />
    <glyph glyph-name="uni1EAC" unicode="&#x1eac;" horiz-adv-x="1330" 
d="M890 1775l-196 -224h-118l263 295h127l160 -295h-119zM1199 0h-179l-61 339h-639l-182 -339h-181l765 1405h206zM402 492h529l-133 740zM529 -279q47 0 76 -34.5t20 -81.5q-8 -49 -48 -83t-88 -34t-76.5 34t-20.5 83q8 47 49 81.5t88 34.5z" />
    <glyph glyph-name="uni1EAD" unicode="&#x1ead;" horiz-adv-x="1219" 
d="M766 1389l-196 -224h-118l263 295h128l159 -295h-119zM976 980h165l-173 -980h-156l23 185q-63 -95 -163 -150.5t-211 -55.5q-171 0 -279 112t-108 299q0 110 40 219t109.5 195.5t173 140.5t221.5 54q119 0 205.5 -59.5t117.5 -159.5zM504 124q88 0 165.5 42.5t128.5 108
t80.5 143.5t29.5 151q0 125 -72.5 206t-191.5 81q-117 0 -211 -69.5t-142.5 -172t-48.5 -210.5q0 -128 72.5 -204t189.5 -76zM454 -279q47 0 76 -34.5t20 -81.5q-8 -49 -48 -83t-88 -34t-76.5 34t-20.5 83q8 47 49 81.5t88 34.5z" />
    <glyph glyph-name="uni1EAE" unicode="&#x1eae;" horiz-adv-x="1330" 
d="M1248 2226l-270 -259h-119l310 326zM867 1641q107 0 177.5 44.5t87.5 135.5h107q-16 -92 -72 -154t-135.5 -89t-181.5 -27q-155 0 -235 67t-55 203h107q-17 -91 38.5 -135.5t161.5 -44.5zM722 1405h206l271 -1405h-179l-61 339h-639l-182 -339h-181zM402 492h529
l-133 740z" />
    <glyph glyph-name="uni1EAF" unicode="&#x1eaf;" horiz-adv-x="1219" 
d="M1132 1889l-270 -259h-119l309 326zM723 1143q-149 0 -229 86t-54 231h107q-17 -99 36.5 -162.5t154.5 -63.5q103 0 180 63.5t94 162.5h107q-26 -145 -136 -231t-260 -86zM976 980h165l-173 -980h-156l23 185q-63 -95 -163 -150.5t-211 -55.5q-171 0 -279 112t-108 299
q0 110 40 219t109.5 195.5t173 140.5t221.5 54q119 0 205.5 -59.5t117.5 -159.5zM504 124q88 0 165.5 42.5t128.5 108t80.5 143.5t29.5 151q0 125 -72.5 206t-191.5 81q-117 0 -211 -69.5t-142.5 -172t-48.5 -210.5q0 -128 72.5 -204t189.5 -76z" />
    <glyph glyph-name="uni1EB0" unicode="&#x1eb0;" horiz-adv-x="1330" 
d="M985 1967h-119l-179 259l105 67zM850 1551q-155 0 -235 67t-55 203h107q-17 -91 38.5 -135.5t161.5 -44.5q107 0 177.5 44.5t87.5 135.5h107q-16 -92 -72 -154t-135.5 -89t-181.5 -27zM722 1405h206l271 -1405h-179l-61 339h-639l-182 -339h-181zM402 492h529l-133 740z
" />
    <glyph glyph-name="uni1EB1" unicode="&#x1eb1;" horiz-adv-x="1219" 
d="M869 1630h-119l-178 259l104 67zM723 1143q-149 0 -229 86t-54 231h107q-17 -99 36.5 -162.5t154.5 -63.5q103 0 180 63.5t94 162.5h107q-26 -145 -136 -231t-260 -86zM976 980h165l-173 -980h-156l23 185q-63 -95 -163 -150.5t-211 -55.5q-171 0 -279 112t-108 299
q0 110 40 219t109.5 195.5t173 140.5t221.5 54q119 0 205.5 -59.5t117.5 -159.5zM504 124q88 0 165.5 42.5t128.5 108t80.5 143.5t29.5 151q0 125 -72.5 206t-191.5 81q-117 0 -211 -69.5t-142.5 -172t-48.5 -210.5q0 -128 72.5 -204t189.5 -76z" />
    <glyph glyph-name="uni1EB2" unicode="&#x1eb2;" horiz-adv-x="1330" 
d="M968 2263q-46 0 -92 -31l-40 69q71 49 148 49q81 0 124.5 -47t30.5 -121q-20 -116 -158 -157l-13 -76h-88l22 119q121 24 138 110q5 37 -13.5 61t-58.5 24zM850 1551q-155 0 -235 67t-55 203h107q-17 -91 38.5 -135.5t161.5 -44.5q107 0 177.5 44.5t87.5 135.5h107
q-16 -92 -72 -154t-135.5 -89t-181.5 -27zM722 1405h206l271 -1405h-179l-61 339h-639l-182 -339h-181zM402 492h529l-133 740z" />
    <glyph glyph-name="uni1EB3" unicode="&#x1eb3;" horiz-adv-x="1219" 
d="M841 1871q-45 0 -91 -32l-40 70q70 48 148 48q81 0 124.5 -47t30.5 -121q-20 -116 -157 -156l-14 -77h-88l22 119q122 26 137 110q6 37 -12.5 61.5t-59.5 24.5zM723 1143q-149 0 -229 86t-54 231h107q-17 -99 36.5 -162.5t154.5 -63.5q103 0 180 63.5t94 162.5h107
q-26 -145 -136 -231t-260 -86zM976 980h165l-173 -980h-156l23 185q-63 -95 -163 -150.5t-211 -55.5q-171 0 -279 112t-108 299q0 110 40 219t109.5 195.5t173 140.5t221.5 54q119 0 205.5 -59.5t117.5 -159.5zM504 124q88 0 165.5 42.5t128.5 108t80.5 143.5t29.5 151
q0 125 -72.5 206t-191.5 81q-117 0 -211 -69.5t-142.5 -172t-48.5 -210.5q0 -128 72.5 -204t189.5 -76z" />
    <glyph glyph-name="uni1EB4" unicode="&#x1eb4;" horiz-adv-x="1330" 
d="M816 2130q-49 0 -87 -44.5t-51 -114.5h-97q21 112 89.5 183t160.5 71q113 0 164 -111q28 -62 92 -62q51 0 87.5 42t48.5 114h98q-20 -111 -87.5 -182t-161.5 -71q-115 0 -166 110q-27 65 -90 65zM867 1641q107 0 177.5 44.5t87.5 135.5h107q-16 -92 -72 -154t-135.5 -89
t-181.5 -27q-155 0 -235 67t-55 203h107q-17 -91 38.5 -135.5t161.5 -44.5zM722 1405h206l271 -1405h-179l-61 339h-639l-182 -339h-181zM402 492h529l-133 740z" />
    <glyph glyph-name="uni1EB5" unicode="&#x1eb5;" horiz-adv-x="1219" 
d="M719 1769q-40 0 -70 -37t-41 -97h-97q18 101 78.5 165t143.5 64q102 0 144 -98q21 -49 74 -49q41 0 69.5 35.5t39.5 96.5h98q-18 -99 -78 -163.5t-143 -64.5q-103 0 -148 97q-23 51 -70 51zM723 1143q-149 0 -229 86t-54 231h107q-17 -99 36.5 -162.5t154.5 -63.5
q103 0 180 63.5t94 162.5h107q-26 -145 -136 -231t-260 -86zM941 780l35 200h165l-173 -980h-156l23 185q-63 -95 -163 -150.5t-211 -55.5q-171 0 -279 112t-108 299q0 110 40 219t109.5 195.5t173 140.5t221.5 54q119 0 205.5 -59.5t117.5 -159.5zM504 124q88 0 165.5 42.5
t128.5 108t80.5 143.5t29.5 151q0 125 -72.5 206t-191.5 81q-117 0 -211 -69.5t-142.5 -172t-48.5 -210.5q0 -128 72.5 -204t189.5 -76z" />
    <glyph glyph-name="uni1EB6" unicode="&#x1eb6;" horiz-adv-x="1330" 
d="M850 1551q-155 0 -235 67t-55 203h107q-17 -91 38.5 -135.5t161.5 -44.5q107 0 177.5 44.5t87.5 135.5h107q-16 -92 -72 -154t-135.5 -89t-181.5 -27zM722 1405h206l271 -1405h-179l-61 339h-639l-182 -339h-181zM402 492h529l-133 740zM529 -279q47 0 76 -34.5t20 -81.5
q-8 -49 -48 -83t-88 -34t-76.5 34t-20.5 83q8 47 49 81.5t88 34.5z" />
    <glyph glyph-name="uni1EB7" unicode="&#x1eb7;" horiz-adv-x="1219" 
d="M723 1143q-149 0 -229 86t-54 231h107q-17 -99 36.5 -162.5t154.5 -63.5q103 0 180 63.5t94 162.5h107q-26 -145 -136 -231t-260 -86zM976 980h165l-173 -980h-156l23 185q-63 -95 -163 -150.5t-211 -55.5q-171 0 -279 112t-108 299q0 110 40 219t109.5 195.5t173 140.5
t221.5 54q119 0 205.5 -59.5t117.5 -159.5zM504 124q88 0 165.5 42.5t128.5 108t80.5 143.5t29.5 151q0 125 -72.5 206t-191.5 81q-117 0 -211 -69.5t-142.5 -172t-48.5 -210.5q0 -128 72.5 -204t189.5 -76zM454 -279q47 0 76 -34.5t20 -81.5q-8 -49 -48 -83t-88 -34
t-76.5 34t-20.5 83q8 47 49 81.5t88 34.5z" />
    <glyph glyph-name="uni1EB8" unicode="&#x1eb8;" horiz-adv-x="1060" 
d="M1089 1249h-574l-83 -470h505l-27 -155h-505l-83 -467h574l-27 -157h-751l248 1405h750zM447 -279q47 0 76 -34.5t20 -81.5q-8 -49 -48 -83t-88 -34t-76.5 34t-20.5 83q8 47 49 81.5t88 34.5z" />
    <glyph glyph-name="uni1EB9" unicode="&#x1eb9;" horiz-adv-x="1099" 
d="M643 999q179 0 283 -96t104 -277q0 -67 -10 -122l-10 -40h-771q-6 -42 -6 -85q0 -126 71.5 -192.5t187.5 -66.5q93 0 178 50t141 134l145 -42q-75 -132 -199.5 -206.5t-265.5 -74.5q-191 0 -303.5 106.5t-112.5 294.5q0 94 24.5 184t73 168.5t116 137.5t159 93t195.5 34z
M642 873q-138 0 -233.5 -80t-140.5 -208h600q5 35 5 59q0 114 -62 171.5t-169 57.5zM440 -280q47 0 76 -34.5t20 -81.5q-8 -49 -48 -83t-88 -34t-76.5 34t-20.5 83q8 47 49 81.5t88 34.5z" />
    <glyph glyph-name="uni1EBA" unicode="&#x1eba;" horiz-adv-x="1060" 
d="M812 1847q-46 0 -92 -31l-40 69q71 49 148 49q81 0 124.5 -47t30.5 -121q-20 -116 -158 -157l-13 -76h-88l22 119q121 24 138 110q5 37 -13.5 61t-58.5 24zM1089 1249h-574l-83 -470h505l-27 -155h-505l-83 -467h574l-27 -157h-751l248 1405h750z" />
    <glyph glyph-name="uni1EBB" unicode="&#x1ebb;" horiz-adv-x="1099" 
d="M718 1395q-45 0 -91 -32l-40 70q70 48 148 48q81 0 124.5 -47t30.5 -121q-20 -116 -157 -156l-14 -77h-88l22 119q122 26 137 110q6 37 -12.5 61.5t-59.5 24.5zM643 999q179 0 283 -96t104 -277q0 -67 -10 -122l-10 -40h-771q-6 -42 -6 -85q0 -126 71.5 -192.5
t187.5 -66.5q93 0 178 50t141 134l145 -42q-75 -132 -199.5 -206.5t-265.5 -74.5q-191 0 -303.5 106.5t-112.5 294.5q0 94 24.5 184t73 168.5t116 137.5t159 93t195.5 34zM642 873q-138 0 -233.5 -80t-140.5 -208h600q5 35 5 59q0 114 -62 171.5t-169 57.5z" />
    <glyph glyph-name="uni1EBC" unicode="&#x1ebc;" horiz-adv-x="1060" 
d="M660 1714q-49 0 -87 -44.5t-51 -114.5h-97q21 112 89.5 183t160.5 71q113 0 164 -111q28 -62 92 -62q51 0 87.5 42t48.5 114h98q-20 -111 -87.5 -182t-161.5 -71q-115 0 -166 110q-27 65 -90 65zM118 0l248 1405h750l-27 -156h-574l-83 -470h505l-27 -155h-505l-83 -467
h574l-27 -157h-751z" />
    <glyph glyph-name="uni1EBD" unicode="&#x1ebd;" horiz-adv-x="1099" 
d="M596 1293q-40 0 -70 -37t-41 -97h-97q18 101 78.5 165t143.5 64q102 0 144 -98q21 -49 74 -49q41 0 69.5 35.5t39.5 96.5h98q-18 -99 -78 -163.5t-143 -64.5q-103 0 -148 97q-23 51 -70 51zM643 999q179 0 283 -96t104 -277q0 -67 -10 -122l-10 -40h-771q-6 -42 -6 -85
q0 -126 71.5 -192.5t187.5 -66.5q93 0 178 50t141 134l145 -42q-75 -132 -199.5 -206.5t-265.5 -74.5q-191 0 -303.5 106.5t-112.5 294.5q0 94 24.5 184t73 168.5t116 137.5t159 93t195.5 34zM642 873q-138 0 -233.5 -80t-140.5 -208h600q5 35 5 59q0 114 -62 171.5
t-169 57.5z" />
    <glyph glyph-name="uni1EBE" unicode="&#x1ebe;" horiz-adv-x="1060" 
d="M1169 2251l-270 -259h-119l310 326zM808 1775l-196 -224h-118l263 295h127l160 -295h-119zM118 0l248 1405h750l-27 -156h-574l-83 -470h505l-27 -155h-505l-83 -467h574l-27 -157h-751z" />
    <glyph glyph-name="uni1EBF" unicode="&#x1ebf;" horiz-adv-x="1099" 
d="M1091 1890l-270 -259h-119l309 326zM727 1390l-196 -224h-118l263 295h128l159 -295h-119zM643 999q179 0 283 -96t104 -277q0 -67 -10 -122l-10 -40h-771q-6 -42 -6 -85q0 -126 71.5 -192.5t187.5 -66.5q93 0 178 50t141 134l145 -42q-75 -132 -199.5 -206.5
t-265.5 -74.5q-191 0 -303.5 106.5t-112.5 294.5q0 94 24.5 184t73 168.5t116 137.5t159 93t195.5 34zM642 873q-138 0 -233.5 -80t-140.5 -208h600q5 35 5 59q0 114 -62 171.5t-169 57.5z" />
    <glyph glyph-name="uni1EC0" unicode="&#x1ec0;" horiz-adv-x="1060" 
d="M906 1992h-119l-179 259l105 67zM808 1775l-196 -224h-118l263 295h127l160 -295h-119zM1089 1249h-574l-83 -470h505l-27 -155h-505l-83 -467h574l-27 -157h-751l248 1405h750z" />
    <glyph glyph-name="uni1EC1" unicode="&#x1ec1;" horiz-adv-x="1099" 
d="M828 1631h-119l-178 259l104 67zM727 1390l-196 -224h-118l263 295h128l159 -295h-119zM643 999q179 0 283 -96t104 -277q0 -67 -10 -122l-10 -40h-771q-6 -42 -6 -85q0 -126 71.5 -192.5t187.5 -66.5q93 0 178 50t141 134l145 -42q-75 -132 -199.5 -206.5t-265.5 -74.5
q-191 0 -303.5 106.5t-112.5 294.5q0 94 24.5 184t73 168.5t116 137.5t159 93t195.5 34zM642 873q-138 0 -233.5 -80t-140.5 -208h600q5 35 5 59q0 114 -62 171.5t-169 57.5z" />
    <glyph glyph-name="uni1EC2" unicode="&#x1ec2;" horiz-adv-x="1060" 
d="M889 2288q-46 0 -92 -31l-40 69q71 49 148 49q81 0 124.5 -47t30.5 -121q-20 -116 -158 -157l-13 -76h-88l22 119q121 24 138 110q5 37 -13.5 61t-58.5 24zM808 1775l-196 -224h-118l263 295h127l160 -295h-119zM1089 1249h-574l-83 -470h505l-27 -155h-505l-83 -467h574
l-27 -157h-751l248 1405h750z" />
    <glyph glyph-name="uni1EC3" unicode="&#x1ec3;" horiz-adv-x="1099" 
d="M800 1872q-45 0 -91 -32l-40 70q70 48 148 48q81 0 124.5 -47t30.5 -121q-20 -116 -157 -156l-14 -77h-88l22 119q122 26 137 110q6 37 -12.5 61.5t-59.5 24.5zM727 1390l-196 -224h-118l263 295h128l159 -295h-119zM643 999q179 0 283 -96t104 -277q0 -67 -10 -122
l-10 -40h-771q-6 -42 -6 -85q0 -126 71.5 -192.5t187.5 -66.5q93 0 178 50t141 134l145 -42q-75 -132 -199.5 -206.5t-265.5 -74.5q-191 0 -303.5 106.5t-112.5 294.5q0 94 24.5 184t73 168.5t116 137.5t159 93t195.5 34zM642 873q-138 0 -233.5 -80t-140.5 -208h600
q5 35 5 59q0 114 -62 171.5t-169 57.5z" />
    <glyph glyph-name="uni1EC4" unicode="&#x1ec4;" horiz-adv-x="1060" 
d="M1144 2233h98q-20 -111 -87.5 -182t-161.5 -71q-115 0 -166 110q-27 65 -90 65q-49 0 -87 -44.5t-51 -114.5h-97q21 112 89.5 183t160.5 71q113 0 164 -111q28 -62 92 -62q51 0 87.5 42t48.5 114zM925 1551l-117 224l-196 -224h-118l263 295h127l160 -295h-119zM118 0
l248 1405h750l-27 -156h-574l-83 -470h505l-27 -155h-505l-83 -467h574l-27 -157h-751z" />
    <glyph glyph-name="uni1EC5" unicode="&#x1ec5;" horiz-adv-x="1099" 
d="M1019 1850h98q-18 -99 -78 -163.5t-143 -64.5q-103 0 -148 97q-23 51 -70 51q-40 0 -70 -37t-41 -97h-97q18 101 78.5 165t143.5 64q102 0 144 -98q21 -49 74 -49q41 0 69.5 35.5t39.5 96.5zM844 1166l-117 224l-196 -224h-118l263 295h128l159 -295h-119zM643 999
q179 0 283 -96t104 -277q0 -67 -10 -122l-10 -40h-771q-6 -42 -6 -85q0 -126 71.5 -192.5t187.5 -66.5q93 0 178 50t141 134l145 -42q-75 -132 -199.5 -206.5t-265.5 -74.5q-191 0 -303.5 106.5t-112.5 294.5q0 94 24.5 184t73 168.5t116 137.5t159 93t195.5 34zM642 873
q-138 0 -233.5 -80t-140.5 -208h600q5 35 5 59q0 114 -62 171.5t-169 57.5z" />
    <glyph glyph-name="uni1EC6" unicode="&#x1ec6;" horiz-adv-x="1060" 
d="M808 1775l-196 -224h-118l263 295h127l160 -295h-119zM1089 1249h-574l-83 -470h505l-27 -155h-505l-83 -467h574l-27 -157h-751l248 1405h750zM447 -279q47 0 76 -34.5t20 -81.5q-8 -49 -48 -83t-88 -34t-76.5 34t-20.5 83q8 47 49 81.5t88 34.5z" />
    <glyph glyph-name="uni1EC7" unicode="&#x1ec7;" horiz-adv-x="1099" 
d="M727 1390l-196 -224h-118l263 295h128l159 -295h-119zM643 999q179 0 283 -96t104 -277q0 -67 -10 -122l-10 -40h-771q-6 -42 -6 -85q0 -126 71.5 -192.5t187.5 -66.5q93 0 178 50t141 134l145 -42q-75 -132 -199.5 -206.5t-265.5 -74.5q-191 0 -303.5 106.5
t-112.5 294.5q0 94 24.5 184t73 168.5t116 137.5t159 93t195.5 34zM642 873q-138 0 -233.5 -80t-140.5 -208h600q5 35 5 59q0 114 -62 171.5t-169 57.5zM440 -280q47 0 76 -34.5t20 -81.5q-8 -49 -48 -83t-88 -34t-76.5 34t-20.5 83q8 47 49 81.5t88 34.5z" />
    <glyph glyph-name="uni1EC8" unicode="&#x1ec8;" horiz-adv-x="582" 
d="M431 1533l22 119q121 24 138 110q5 37 -13.5 61t-58.5 24q-46 0 -92 -31l-40 69q71 49 148 49q81 0 124.5 -47t30.5 -121q-20 -116 -158 -157l-13 -76h-88zM118 0l248 1405h172l-248 -1405h-172z" />
    <glyph glyph-name="uni1EC9" unicode="&#x1ec9;" horiz-adv-x="500" 
d="M312 1079l22 119q122 26 137 110q6 37 -12.5 61.5t-59.5 24.5q-45 0 -91 -32l-40 70q70 48 148 48q81 0 124.5 -47t30.5 -121q-20 -116 -157 -156l-14 -77h-88zM76 0l174 983h174l-174 -983h-174z" />
    <glyph glyph-name="uni1ECA" unicode="&#x1eca;" horiz-adv-x="582" 
d="M118 0l248 1405h172l-248 -1405h-172zM114 -512q-48 0 -76.5 34t-20.5 83q8 47 49 81.5t88 34.5t76 -34.5t20 -81.5q-8 -49 -48 -83t-88 -34z" />
    <glyph glyph-name="uni1ECB" unicode="&#x1ecb;" horiz-adv-x="500" 
d="M393 1248q-48 0 -78.5 34t-26.5 82q5 48 43.5 82t86.5 34t79 -34t25 -82q-5 -48 -43.5 -82t-85.5 -34zM76 0l174 983h174l-174 -983h-174zM75 -512q-48 0 -76.5 34t-20.5 83q8 47 49 81.5t88 34.5t76 -34.5t20 -81.5q-8 -49 -48 -83t-88 -34z" />
    <glyph glyph-name="uni1ECC" unicode="&#x1ecc;" horiz-adv-x="1611" 
d="M729 -19q-268 0 -432 154.5t-164 420.5q0 167 59 323.5t164 277.5t262.5 194t341.5 73q265 0 429.5 -154t164.5 -419q0 -133 -37 -261.5t-109.5 -238t-171 -192.5t-229.5 -130.5t-278 -47.5zM736 144q143 0 266.5 59.5t205.5 157t128 223t46 257.5q0 198 -118 308.5
t-311 110.5q-116 0 -219.5 -38.5t-181 -105.5t-134.5 -154.5t-86 -189.5t-29 -207q0 -199 119.5 -310t313.5 -111zM631 -512q-48 0 -76.5 34t-20.5 83q8 47 49 81.5t88 34.5t76 -34.5t20 -81.5q-8 -49 -48 -83t-88 -34z" />
    <glyph glyph-name="uni1ECD" unicode="&#x1ecd;" horiz-adv-x="1148" 
d="M495 -19q-189 0 -305 110.5t-116 298.5q0 116 40.5 225t113.5 194.5t183.5 137.5t240.5 52q190 0 305.5 -110.5t115.5 -297.5q0 -116 -41 -225t-114 -195t-183.5 -138t-239.5 -52zM499 121q120 0 216 70.5t145 175t49 216.5q0 127 -72 202t-191 75q-121 0 -216 -71.5
t-142.5 -176t-47.5 -216.5q0 -127 70.5 -201t188.5 -74zM398 -512q-48 0 -76.5 34t-20.5 83q8 47 49 81.5t88 34.5t76 -34.5t20 -81.5q-8 -49 -48 -83t-88 -34z" />
    <glyph glyph-name="uni1ECE" unicode="&#x1ece;" horiz-adv-x="1611" 
d="M948 1533l22 119q121 24 138 110q5 37 -13.5 61t-58.5 24q-46 0 -92 -31l-40 69q71 49 148 49q81 0 124.5 -47t30.5 -121q-20 -116 -158 -157l-13 -76h-88zM729 -19q-268 0 -432 154.5t-164 420.5q0 167 59 323.5t164 277.5t262.5 194t341.5 73q265 0 429.5 -154
t164.5 -419q0 -133 -37 -261.5t-109.5 -238t-171 -192.5t-229.5 -130.5t-278 -47.5zM736 144q143 0 266.5 59.5t205.5 157t128 223t46 257.5q0 198 -118 308.5t-311 110.5q-116 0 -219.5 -38.5t-181 -105.5t-134.5 -154.5t-86 -189.5t-29 -207q0 -199 119.5 -310t313.5 -111
z" />
    <glyph glyph-name="uni1ECF" unicode="&#x1ecf;" horiz-adv-x="1148" 
d="M633 1076l22 119q122 26 137 110q6 37 -12.5 61.5t-59.5 24.5q-45 0 -91 -32l-40 70q70 48 148 48q81 0 124.5 -47t30.5 -121q-20 -116 -157 -156l-14 -77h-88zM495 -19q-189 0 -305 110.5t-116 298.5q0 116 40.5 225t113.5 194.5t183.5 137.5t240.5 52
q190 0 305.5 -110.5t115.5 -297.5q0 -116 -41 -225t-114 -195t-183.5 -138t-239.5 -52zM499 121q120 0 216 70.5t145 175t49 216.5q0 127 -72 202t-191 75q-121 0 -216 -71.5t-142.5 -176t-47.5 -216.5q0 -127 70.5 -201t188.5 -74z" />
    <glyph glyph-name="uni1ED0" unicode="&#x1ed0;" horiz-adv-x="1611" 
d="M1004 1992l310 326l79 -67l-270 -259h-119zM836 1551h-118l263 295h127l160 -295h-119l-117 224zM729 -19q-268 0 -432 154.5t-164 420.5q0 167 59 323.5t164 277.5t262.5 194t341.5 73q265 0 429.5 -154t164.5 -419q0 -133 -37 -261.5t-109.5 -238t-171 -192.5
t-229.5 -130.5t-278 -47.5zM736 144q143 0 266.5 59.5t205.5 157t128 223t46 257.5q0 198 -118 308.5t-311 110.5q-116 0 -219.5 -38.5t-181 -105.5t-134.5 -154.5t-86 -189.5t-29 -207q0 -199 119.5 -310t313.5 -111z" />
    <glyph glyph-name="uni1ED1" unicode="&#x1ed1;" horiz-adv-x="1148" 
d="M704 1627l309 326l80 -67l-270 -259h-119zM533 1162h-118l263 295h128l159 -295h-119l-117 224zM495 -19q-189 0 -305 110.5t-116 298.5q0 116 40.5 225t113.5 194.5t183.5 137.5t240.5 52q190 0 305.5 -110.5t115.5 -297.5q0 -116 -41 -225t-114 -195t-183.5 -138
t-239.5 -52zM499 121q120 0 216 70.5t145 175t49 216.5q0 127 -72 202t-191 75q-121 0 -216 -71.5t-142.5 -176t-47.5 -216.5q0 -127 70.5 -201t188.5 -74z" />
    <glyph glyph-name="uni1ED2" unicode="&#x1ed2;" horiz-adv-x="1611" 
d="M1011 1992l-179 259l105 67l193 -326h-119zM836 1551h-118l263 295h127l160 -295h-119l-117 224zM729 -19q-268 0 -432 154.5t-164 420.5q0 167 59 323.5t164 277.5t262.5 194t341.5 73q265 0 429.5 -154t164.5 -419q0 -133 -37 -261.5t-109.5 -238t-171 -192.5
t-229.5 -130.5t-278 -47.5zM736 144q143 0 266.5 59.5t205.5 157t128 223t46 257.5q0 198 -118 308.5t-311 110.5q-116 0 -219.5 -38.5t-181 -105.5t-134.5 -154.5t-86 -189.5t-29 -207q0 -199 119.5 -310t313.5 -111z" />
    <glyph glyph-name="uni1ED3" unicode="&#x1ed3;" horiz-adv-x="1148" 
d="M711 1627l-178 259l104 67l193 -326h-119zM533 1162h-118l263 295h128l159 -295h-119l-117 224zM495 -19q-189 0 -305 110.5t-116 298.5q0 116 40.5 225t113.5 194.5t183.5 137.5t240.5 52q190 0 305.5 -110.5t115.5 -297.5q0 -116 -41 -225t-114 -195t-183.5 -138
t-239.5 -52zM499 121q120 0 216 70.5t145 175t49 216.5q0 127 -72 202t-191 75q-121 0 -216 -71.5t-142.5 -176t-47.5 -216.5q0 -127 70.5 -201t188.5 -74z" />
    <glyph glyph-name="uni1ED4" unicode="&#x1ed4;" horiz-adv-x="1611" 
d="M1025 1974l22 119q121 24 138 110q5 37 -13.5 61t-58.5 24q-45 0 -92 -31l-40 69q71 49 148 49q81 0 124.5 -47t30.5 -121q-20 -116 -158 -157l-13 -76h-88zM836 1551h-118l263 295h127l160 -295h-119l-117 224zM729 -19q-268 0 -432 154.5t-164 420.5q0 167 59 323.5
t164 277.5t262.5 194t341.5 73q265 0 429.5 -154t164.5 -419q0 -133 -37 -261.5t-109.5 -238t-171 -192.5t-229.5 -130.5t-278 -47.5zM736 144q143 0 266.5 59.5t205.5 157t128 223t46 257.5q0 198 -118 308.5t-311 110.5q-116 0 -219.5 -38.5t-181 -105.5t-134.5 -154.5
t-86 -189.5t-29 -207q0 -199 119.5 -310t313.5 -111z" />
    <glyph glyph-name="uni1ED5" unicode="&#x1ed5;" horiz-adv-x="1148" 
d="M715 1553l22 119q122 26 137 110q6 37 -12.5 61.5t-59.5 24.5q-45 0 -91 -32l-40 70q70 48 148 48q81 0 124.5 -47t30.5 -121q-20 -116 -157 -156l-14 -77h-88zM533 1162h-118l263 295h128l159 -295h-119l-117 224zM495 -19q-189 0 -305 110.5t-116 298.5q0 116 40.5 225
t113.5 194.5t183.5 137.5t240.5 52q190 0 305.5 -110.5t115.5 -297.5q0 -116 -41 -225t-114 -195t-183.5 -138t-239.5 -52zM499 121q120 0 216 70.5t145 175t49 216.5q0 127 -72 202t-191 75q-121 0 -216 -71.5t-142.5 -176t-47.5 -216.5q0 -127 70.5 -201t188.5 -74z" />
    <glyph glyph-name="uni1ED6" unicode="&#x1ed6;" horiz-adv-x="1611" 
d="M1217 1980q-115 0 -166 110q-27 65 -90 65q-49 0 -87 -44.5t-51 -114.5h-97q21 112 89.5 183t160.5 71q113 0 164 -111q28 -62 92 -62q51 0 87.5 42t48.5 114h98q-20 -111 -87.5 -182t-161.5 -71zM836 1551h-118l263 295h127l160 -295h-119l-117 224zM729 -19
q-268 0 -432 154.5t-164 420.5q0 167 59 323.5t164 277.5t262.5 194t341.5 73q265 0 429.5 -154t164.5 -419q0 -133 -37 -261.5t-109.5 -238t-171 -192.5t-229.5 -130.5t-278 -47.5zM736 144q143 0 266.5 59.5t205.5 157t128 223t46 257.5q0 198 -118 308.5t-311 110.5
q-116 0 -219.5 -38.5t-181 -105.5t-134.5 -154.5t-86 -189.5t-29 -207q0 -199 119.5 -310t313.5 -111z" />
    <glyph glyph-name="uni1ED7" unicode="&#x1ed7;" horiz-adv-x="1148" 
d="M898 1618q-103 0 -148 97q-23 51 -70 51q-40 0 -70 -37t-41 -97h-97q18 101 78.5 165t143.5 64q102 0 144 -98q21 -49 74 -49q41 0 69.5 35.5t39.5 96.5h98q-18 -99 -78 -163.5t-143 -64.5zM533 1162h-118l263 295h128l159 -295h-119l-117 224zM495 -19
q-189 0 -305 110.5t-116 298.5q0 116 40.5 225t113.5 194.5t183.5 137.5t240.5 52q190 0 305.5 -110.5t115.5 -297.5q0 -116 -41 -225t-114 -195t-183.5 -138t-239.5 -52zM499 121q120 0 216 70.5t145 175t49 216.5q0 127 -72 202t-191 75q-121 0 -216 -71.5t-142.5 -176
t-47.5 -216.5q0 -127 70.5 -201t188.5 -74z" />
    <glyph glyph-name="uni1ED8" unicode="&#x1ed8;" horiz-adv-x="1611" 
d="M836 1551h-118l263 295h127l160 -295h-119l-117 224zM729 -19q-268 0 -432 154.5t-164 420.5q0 167 59 323.5t164 277.5t262.5 194t341.5 73q265 0 429.5 -154t164.5 -419q0 -133 -37 -261.5t-109.5 -238t-171 -192.5t-229.5 -130.5t-278 -47.5zM736 144
q143 0 266.5 59.5t205.5 157t128 223t46 257.5q0 198 -118 308.5t-311 110.5q-116 0 -219.5 -38.5t-181 -105.5t-134.5 -154.5t-86 -189.5t-29 -207q0 -199 119.5 -310t313.5 -111zM631 -512q-48 0 -76.5 34t-20.5 83q8 47 49 81.5t88 34.5t76 -34.5t20 -81.5
q-8 -49 -48 -83t-88 -34z" />
    <glyph glyph-name="uni1ED9" unicode="&#x1ed9;" horiz-adv-x="1148" 
d="M533 1162h-118l263 295h128l159 -295h-119l-117 224zM495 -19q-189 0 -305 110.5t-116 298.5q0 116 40.5 225t113.5 194.5t183.5 137.5t240.5 52q190 0 305.5 -110.5t115.5 -297.5q0 -116 -41 -225t-114 -195t-183.5 -138t-239.5 -52zM499 121q120 0 216 70.5t145 175
t49 216.5q0 127 -72 202t-191 75q-121 0 -216 -71.5t-142.5 -176t-47.5 -216.5q0 -127 70.5 -201t188.5 -74zM398 -512q-48 0 -76.5 34t-20.5 83q8 47 49 81.5t88 34.5t76 -34.5t20 -81.5q-8 -49 -48 -83t-88 -34z" />
    <glyph glyph-name="uni1EDA" unicode="&#x1eda;" horiz-adv-x="1611" 
d="M1316 1810l-270 -259h-119l310 326zM1644 1477h109l-19 -108q-21 -123 -76.5 -178.5t-133.5 -55.5q-17 0 -35 3q65 -125 65 -287q0 -133 -37 -261.5t-109.5 -238t-171 -192.5t-229.5 -130.5t-278 -47.5q-268 0 -432 154.5t-164 420.5q0 167 59 323.5t164 277.5t262.5 194
t341.5 73q287 0 449 -174l1 1q49 -28 97 -28q50 0 78 37t41 115zM736 144q143 0 266.5 59.5t205.5 157t128 223t46 257.5q0 198 -118 308.5t-311 110.5q-116 0 -219.5 -38.5t-181 -105.5t-134.5 -154.5t-86 -189.5t-29 -207q0 -199 119.5 -310t313.5 -111z" />
    <glyph glyph-name="uni1EDB" unicode="&#x1edb;" horiz-adv-x="1148" 
d="M1011 1409l-270 -259h-119l309 326zM1180 1117h109l-19 -108q-21 -123 -76.5 -178.5t-133.5 -55.5q-16 0 -24 1q37 -82 37 -185q0 -116 -41 -225t-114 -195t-183.5 -138t-239.5 -52q-189 0 -305 110.5t-116 298.5q0 116 40.5 225t113.5 194.5t183.5 137.5t240.5 52
q198 0 313 -118q41 -18 78 -18q50 0 78 37t41 115zM499 121q120 0 216 70.5t145 175t49 216.5q0 127 -72 202t-191 75q-121 0 -216 -71.5t-142.5 -176t-47.5 -216.5q0 -127 70.5 -201t188.5 -74z" />
    <glyph glyph-name="uni1EDC" unicode="&#x1edc;" horiz-adv-x="1611" 
d="M1053 1551h-119l-179 259l105 67zM1644 1477h109l-19 -108q-21 -123 -76.5 -178.5t-133.5 -55.5q-17 0 -35 3q65 -125 65 -287q0 -133 -37 -261.5t-109.5 -238t-171 -192.5t-229.5 -130.5t-278 -47.5q-268 0 -432 154.5t-164 420.5q0 167 59 323.5t164 277.5t262.5 194
t341.5 73q287 0 449 -174l1 1q49 -28 97 -28q50 0 78 37t41 115zM736 144q143 0 266.5 59.5t205.5 157t128 223t46 257.5q0 198 -118 308.5t-311 110.5q-116 0 -219.5 -38.5t-181 -105.5t-134.5 -154.5t-86 -189.5t-29 -207q0 -199 119.5 -310t313.5 -111z" />
    <glyph glyph-name="uni1EDD" unicode="&#x1edd;" horiz-adv-x="1148" 
d="M748 1150h-119l-178 259l104 67zM1180 1117h109l-19 -108q-21 -123 -76.5 -178.5t-133.5 -55.5q-16 0 -24 1q37 -82 37 -185q0 -116 -41 -225t-114 -195t-183.5 -138t-239.5 -52q-189 0 -305 110.5t-116 298.5q0 116 40.5 225t113.5 194.5t183.5 137.5t240.5 52
q198 0 313 -118q41 -18 78 -18q50 0 78 37t41 115zM499 121q120 0 216 70.5t145 175t49 216.5q0 127 -72 202t-191 75q-121 0 -216 -71.5t-142.5 -176t-47.5 -216.5q0 -127 70.5 -201t188.5 -74z" />
    <glyph glyph-name="uni1EDE" unicode="&#x1ede;" horiz-adv-x="1611" 
d="M1036 1847q-46 0 -92 -31l-40 69q71 49 148 49q81 0 124.5 -47t30.5 -121q-20 -116 -158 -157l-13 -76h-88l22 119q121 24 138 110q5 37 -13.5 61t-58.5 24zM1644 1477h109l-19 -108q-21 -123 -76.5 -178.5t-133.5 -55.5q-17 0 -35 3q65 -125 65 -287q0 -133 -37 -261.5
t-109.5 -238t-171 -192.5t-229.5 -130.5t-278 -47.5q-268 0 -432 154.5t-164 420.5q0 167 59 323.5t164 277.5t262.5 194t341.5 73q287 0 449 -174l1 1q49 -28 97 -28q50 0 78 37t41 115zM736 144q143 0 266.5 59.5t205.5 157t128 223t46 257.5q0 198 -118 308.5t-311 110.5
q-116 0 -219.5 -38.5t-181 -105.5t-134.5 -154.5t-86 -189.5t-29 -207q0 -199 119.5 -310t313.5 -111z" />
    <glyph glyph-name="uni1EDF" unicode="&#x1edf;" horiz-adv-x="1148" 
d="M720 1391q-45 0 -91 -32l-40 70q70 48 148 48q81 0 124.5 -47t30.5 -121q-20 -116 -157 -156l-14 -77h-88l22 119q122 26 137 110q6 37 -12.5 61.5t-59.5 24.5zM1180 1117h109l-19 -108q-21 -123 -76.5 -178.5t-133.5 -55.5q-16 0 -24 1q37 -82 37 -185q0 -116 -41 -225
t-114 -195t-183.5 -138t-239.5 -52q-189 0 -305 110.5t-116 298.5q0 116 40.5 225t113.5 194.5t183.5 137.5t240.5 52q198 0 313 -118q41 -18 78 -18q50 0 78 37t41 115zM499 121q120 0 216 70.5t145 175t49 216.5q0 127 -72 202t-191 75q-121 0 -216 -71.5t-142.5 -176
t-47.5 -216.5q0 -127 70.5 -201t188.5 -74z" />
    <glyph glyph-name="uni1EE0" unicode="&#x1ee0;" horiz-adv-x="1611" 
d="M884 1714q-49 0 -87 -44.5t-51 -114.5h-97q21 112 89.5 183t160.5 71q113 0 164 -111q28 -62 92 -62q51 0 87.5 42t48.5 114h98q-20 -111 -87.5 -182t-161.5 -71q-115 0 -166 110q-27 65 -90 65zM1644 1477h109l-19 -108q-21 -123 -76.5 -178.5t-133.5 -55.5q-17 0 -35 3
q65 -125 65 -287q0 -133 -37 -261.5t-109.5 -238t-171 -192.5t-229.5 -130.5t-278 -47.5q-268 0 -432 154.5t-164 420.5q0 167 59 323.5t164 277.5t262.5 194t341.5 73q287 0 449 -174l1 1q49 -28 97 -28q50 0 78 37t41 115zM736 144q143 0 266.5 59.5t205.5 157t128 223
t46 257.5q0 198 -118 308.5t-311 110.5q-116 0 -219.5 -38.5t-181 -105.5t-134.5 -154.5t-86 -189.5t-29 -207q0 -199 119.5 -310t313.5 -111z" />
    <glyph glyph-name="uni1EE1" unicode="&#x1ee1;" horiz-adv-x="1148" 
d="M598 1289q-40 0 -70 -37t-41 -97h-97q18 101 78.5 165t143.5 64q102 0 144 -98q21 -49 74 -49q41 0 69.5 35.5t39.5 96.5h98q-18 -99 -78 -163.5t-143 -64.5q-103 0 -148 97q-23 51 -70 51zM1180 1117h109l-19 -108q-21 -123 -76.5 -178.5t-133.5 -55.5q-16 0 -24 1
q37 -82 37 -185q0 -116 -41 -225t-114 -195t-183.5 -138t-239.5 -52q-189 0 -305 110.5t-116 298.5q0 116 40.5 225t113.5 194.5t183.5 137.5t240.5 52q198 0 313 -118q41 -18 78 -18q50 0 78 37t41 115zM499 121q120 0 216 70.5t145 175t49 216.5q0 127 -72 202t-191 75
q-121 0 -216 -71.5t-142.5 -176t-47.5 -216.5q0 -127 70.5 -201t188.5 -74z" />
    <glyph glyph-name="uni1EE2" unicode="&#x1ee2;" horiz-adv-x="1611" 
d="M1644 1477h109l-19 -108q-21 -123 -76.5 -178.5t-133.5 -55.5q-17 0 -35 3q65 -125 65 -287q0 -133 -37 -261.5t-109.5 -238t-171 -192.5t-229.5 -130.5t-278 -47.5q-268 0 -432 154.5t-164 420.5q0 167 59 323.5t164 277.5t262.5 194t341.5 73q287 0 449 -174l1 1
q49 -28 97 -28q50 0 78 37t41 115zM736 144q143 0 266.5 59.5t205.5 157t128 223t46 257.5q0 198 -118 308.5t-311 110.5q-116 0 -219.5 -38.5t-181 -105.5t-134.5 -154.5t-86 -189.5t-29 -207q0 -199 119.5 -310t313.5 -111zM671 -279q47 0 76 -34.5t20 -81.5
q-8 -49 -48 -83t-88 -34t-76.5 34t-20.5 83q8 47 49 81.5t88 34.5z" />
    <glyph glyph-name="uni1EE3" unicode="&#x1ee3;" horiz-adv-x="1148" 
d="M1180 1117h109l-19 -108q-21 -123 -76.5 -178.5t-133.5 -55.5q-16 0 -24 1q37 -82 37 -185q0 -116 -41 -225t-114 -195t-183.5 -138t-239.5 -52q-189 0 -305 110.5t-116 298.5q0 116 40.5 225t113.5 194.5t183.5 137.5t240.5 52q198 0 313 -118q41 -18 78 -18q50 0 78 37
t41 115zM499 121q120 0 216 70.5t145 175t49 216.5q0 127 -72 202t-191 75q-121 0 -216 -71.5t-142.5 -176t-47.5 -216.5q0 -127 70.5 -201t188.5 -74zM438 -279q47 0 76 -34.5t20 -81.5q-8 -49 -48 -83t-88 -34t-76.5 34t-20.5 83q8 47 49 81.5t88 34.5z" />
    <glyph glyph-name="uni1EE4" unicode="&#x1ee4;" horiz-adv-x="1373" 
d="M605 -19q-199 0 -321 104.5t-122 286.5q0 55 9 99l165 934h172l-162 -923q-8 -43 -8 -88q0 -127 74 -191.5t198 -64.5q100 0 185 39.5t146.5 121t81.5 195.5l161 911h172l-166 -947q-27 -149 -113 -258.5t-207.5 -164t-264.5 -54.5zM508 -512q-48 0 -76.5 34t-20.5 83
q8 47 49 81.5t88 34.5t76 -34.5t20 -81.5q-8 -49 -48 -83t-88 -34z" />
    <glyph glyph-name="uni1EE5" unicode="&#x1ee5;" horiz-adv-x="1086" 
d="M843 980h166l-173 -980h-159l20 138q-122 -157 -311 -157q-128 0 -204 69.5t-76 194.5q0 24 8 82l117 653h165l-110 -623q-6 -37 -6 -67q0 -84 45.5 -124.5t121.5 -40.5q109 0 189 69.5t101 191.5h1zM410 -279q47 0 76 -34.5t20 -81.5q-8 -49 -48 -83t-88 -34t-76.5 34
t-20.5 83q8 47 49 81.5t88 34.5z" />
    <glyph glyph-name="uni1EE6" unicode="&#x1ee6;" horiz-adv-x="1373" 
d="M825 1533l22 119q121 24 138 110q5 37 -13.5 61t-58.5 24q-46 0 -92 -31l-40 69q71 49 148 49q81 0 124.5 -47t30.5 -121q-20 -116 -158 -157l-13 -76h-88zM605 -19q-199 0 -321 104.5t-122 286.5q0 55 9 99l165 934h172l-162 -923q-8 -43 -8 -88q0 -127 74 -191.5
t198 -64.5q100 0 185 39.5t146.5 121t81.5 195.5l161 911h172l-166 -947q-27 -149 -113 -258.5t-207.5 -164t-264.5 -54.5z" />
    <glyph glyph-name="uni1EE7" unicode="&#x1ee7;" horiz-adv-x="1086" 
d="M694 1391q-45 0 -91 -32l-40 70q70 48 148 48q81 0 124.5 -47t30.5 -121q-20 -116 -157 -156l-14 -77h-88l22 119q122 26 137 110q6 37 -12.5 61.5t-59.5 24.5zM843 980h166l-173 -980h-159l20 138q-122 -157 -311 -157q-128 0 -204 69.5t-76 194.5q0 24 8 82l117 653
h165l-110 -623q-6 -37 -6 -67q0 -84 45.5 -124.5t121.5 -40.5q109 0 189 69.5t101 191.5h1z" />
    <glyph glyph-name="uni1EE8" unicode="&#x1ee8;" horiz-adv-x="1373" 
d="M1193 1810l-270 -259h-119l310 326zM1539 1526h109l-19 -108q-21 -123 -76.5 -178.5t-133.5 -55.5q-47 0 -98 20l-131 -746q-27 -149 -113 -258.5t-207.5 -164t-264.5 -54.5q-199 0 -321 104.5t-122 286.5q0 55 9 99l165 934h172l-162 -923q-8 -43 -8 -88
q0 -127 74 -191.5t198 -64.5q100 0 185 39.5t146.5 121t81.5 195.5l161 911h172l-21 -119q34 -14 67 -14q50 0 78 37t41 115z" />
    <glyph glyph-name="uni1EE9" unicode="&#x1ee9;" horiz-adv-x="1086" 
d="M985 1409l-270 -259h-119l309 326zM1206 1101h109l-19 -108q-21 -123 -76.5 -178.5t-133.5 -55.5q-53 0 -112 25l-138 -784h-159l20 138q-122 -157 -311 -157q-128 0 -204 69.5t-76 194.5q0 24 8 82l117 653h165l-110 -623q-6 -37 -6 -67q0 -84 45.5 -124.5t121.5 -40.5
q109 0 189 69.5t101 191.5h1l105 594h166l-20 -114q41 -19 80 -19q50 0 78 37t41 115z" />
    <glyph glyph-name="uni1EEA" unicode="&#x1eea;" horiz-adv-x="1373" 
d="M930 1551h-119l-179 259l105 67zM1539 1526h109l-19 -108q-21 -123 -76.5 -178.5t-133.5 -55.5q-47 0 -98 20l-131 -746q-27 -149 -113 -258.5t-207.5 -164t-264.5 -54.5q-199 0 -321 104.5t-122 286.5q0 55 9 99l165 934h172l-162 -923q-8 -43 -8 -88q0 -127 74 -191.5
t198 -64.5q100 0 185 39.5t146.5 121t81.5 195.5l161 911h172l-21 -119q34 -14 67 -14q50 0 78 37t41 115z" />
    <glyph glyph-name="uni1EEB" unicode="&#x1eeb;" horiz-adv-x="1086" 
d="M722 1150h-119l-178 259l104 67zM1206 1101h109l-19 -108q-21 -123 -76.5 -178.5t-133.5 -55.5q-53 0 -112 25l-138 -784h-159l20 138q-122 -157 -311 -157q-128 0 -204 69.5t-76 194.5q0 24 8 82l117 653h165l-110 -623q-6 -37 -6 -67q0 -84 45.5 -124.5t121.5 -40.5
q109 0 189 69.5t101 191.5h1l105 594h166l-20 -114q41 -19 80 -19q50 0 78 37t41 115z" />
    <glyph glyph-name="uni1EEC" unicode="&#x1eec;" horiz-adv-x="1373" 
d="M913 1847q-46 0 -92 -31l-40 69q71 49 148 49q81 0 124.5 -47t30.5 -121q-20 -116 -158 -157l-13 -76h-88l22 119q121 24 138 110q5 37 -13.5 61t-58.5 24zM1539 1526h109l-19 -108q-21 -123 -76.5 -178.5t-133.5 -55.5q-47 0 -98 20l-131 -746q-27 -149 -113 -258.5
t-207.5 -164t-264.5 -54.5q-199 0 -321 104.5t-122 286.5q0 55 9 99l165 934h172l-162 -923q-8 -43 -8 -88q0 -127 74 -191.5t198 -64.5q100 0 185 39.5t146.5 121t81.5 195.5l161 911h172l-21 -119q34 -14 67 -14q50 0 78 37t41 115z" />
    <glyph glyph-name="uni1EED" unicode="&#x1eed;" horiz-adv-x="1086" 
d="M694 1391q-45 0 -91 -32l-40 70q70 48 148 48q81 0 124.5 -47t30.5 -121q-20 -116 -157 -156l-14 -77h-88l22 119q122 26 137 110q6 37 -12.5 61.5t-59.5 24.5zM1206 1101h109l-19 -108q-21 -123 -76.5 -178.5t-133.5 -55.5q-53 0 -112 25l-138 -784h-159l20 138
q-122 -157 -311 -157q-128 0 -204 69.5t-76 194.5q0 24 8 82l117 653h165l-110 -623q-6 -37 -6 -67q0 -84 45.5 -124.5t121.5 -40.5q109 0 189 69.5t101 191.5h1l105 594h166l-20 -114q41 -19 80 -19q50 0 78 37t41 115z" />
    <glyph glyph-name="uni1EEE" unicode="&#x1eee;" horiz-adv-x="1373" 
d="M761 1714q-49 0 -87 -44.5t-51 -114.5h-97q21 112 89.5 183t160.5 71q113 0 164 -111q28 -62 92 -62q51 0 87.5 42t48.5 114h98q-20 -111 -87.5 -182t-161.5 -71q-115 0 -166 110q-27 65 -90 65zM1539 1526h109l-19 -108q-21 -123 -76.5 -178.5t-133.5 -55.5
q-47 0 -98 20l-131 -746q-27 -149 -113 -258.5t-207.5 -164t-264.5 -54.5q-199 0 -321 104.5t-122 286.5q0 55 9 99l165 934h172l-162 -923q-8 -43 -8 -88q0 -127 74 -191.5t198 -64.5q100 0 185 39.5t146.5 121t81.5 195.5l161 911h172l-21 -119q34 -14 67 -14q50 0 78 37
t41 115z" />
    <glyph glyph-name="uni1EEF" unicode="&#x1eef;" horiz-adv-x="1086" 
d="M572 1289q-40 0 -70 -37t-41 -97h-97q18 101 78.5 165t143.5 64q102 0 144 -98q21 -49 74 -49q41 0 69.5 35.5t39.5 96.5h98q-18 -99 -78 -163.5t-143 -64.5q-103 0 -148 97q-23 51 -70 51zM1206 1101h109l-19 -108q-21 -123 -76.5 -178.5t-133.5 -55.5q-53 0 -112 25
l-138 -784h-159l20 138q-122 -157 -311 -157q-128 0 -204 69.5t-76 194.5q0 24 8 82l117 653h165l-110 -623q-6 -37 -6 -67q0 -84 45.5 -124.5t121.5 -40.5q109 0 189 69.5t101 191.5h1l105 594h166l-20 -114q41 -19 80 -19q50 0 78 37t41 115z" />
    <glyph glyph-name="uni1EF0" unicode="&#x1ef0;" horiz-adv-x="1373" 
d="M1539 1526h109l-19 -108q-21 -123 -76.5 -178.5t-133.5 -55.5q-47 0 -98 20l-131 -746q-27 -149 -113 -258.5t-207.5 -164t-264.5 -54.5q-199 0 -321 104.5t-122 286.5q0 55 9 99l165 934h172l-162 -923q-8 -43 -8 -88q0 -127 74 -191.5t198 -64.5q100 0 185 39.5
t146.5 121t81.5 195.5l161 911h172l-21 -119q34 -14 67 -14q50 0 78 37t41 115zM548 -279q47 0 76 -34.5t20 -81.5q-8 -49 -48 -83t-88 -34t-76.5 34t-20.5 83q8 47 49 81.5t88 34.5z" />
    <glyph glyph-name="uni1EF1" unicode="&#x1ef1;" horiz-adv-x="1086" 
d="M1206 1101h109l-19 -108q-21 -123 -76.5 -178.5t-133.5 -55.5q-53 0 -112 25l-138 -784h-159l20 138q-122 -157 -311 -157q-128 0 -204 69.5t-76 194.5q0 24 8 82l117 653h165l-110 -623q-6 -37 -6 -67q0 -84 45.5 -124.5t121.5 -40.5q109 0 189 69.5t101 191.5h1
l105 594h166l-20 -114q41 -19 80 -19q50 0 78 37t41 115zM410 -279q47 0 76 -34.5t20 -81.5q-8 -49 -48 -83t-88 -34t-76.5 34t-20.5 83q8 47 49 81.5t88 34.5z" />
    <glyph glyph-name="Ygrave" unicode="&#x1ef2;" horiz-adv-x="1157" 
d="M822 1551h-119l-179 259l105 67zM1289 1405l-595 -738l-118 -667h-174l119 673l-331 732h189l250 -581l456 581h204z" />
    <glyph glyph-name="ygrave" unicode="&#x1ef3;" horiz-adv-x="961" 
d="M655 1150h-119l-178 259l104 67zM848 980h180l-820 -1441h-176l283 493l-209 948h181l143 -768z" />
    <glyph glyph-name="uni1EF4" unicode="&#x1ef4;" horiz-adv-x="1157" 
d="M1289 1405l-595 -738l-118 -667h-174l119 673l-331 732h189l250 -581l456 581h204zM441 -279q47 0 76 -34.5t20 -81.5q-8 -49 -48 -83t-88 -34t-76.5 34t-20.5 83q8 47 49 81.5t88 34.5z" />
    <glyph glyph-name="uni1EF5" unicode="&#x1ef5;" horiz-adv-x="961" 
d="M848 980h180l-820 -1441h-176l283 493l-209 948h181l143 -768zM651 -279q47 0 76 -34.5t20 -81.5q-8 -49 -48 -83t-88 -34t-76.5 34t-20.5 83q8 47 49 81.5t88 34.5z" />
    <glyph glyph-name="uni1EF6" unicode="&#x1ef6;" horiz-adv-x="1157" 
d="M805 1847q-45 0 -92 -31l-40 69q71 49 148 49q81 0 124.5 -47t30.5 -121q-20 -116 -158 -157l-13 -76h-88l22 119q121 24 138 110q5 37 -13.5 61t-58.5 24zM1289 1405l-595 -738l-118 -667h-174l119 673l-331 732h189l250 -581l456 581h204z" />
    <glyph glyph-name="uni1EF7" unicode="&#x1ef7;" horiz-adv-x="961" 
d="M627 1391q-45 0 -91 -32l-40 70q70 48 148 48q81 0 124.5 -47t30.5 -121q-20 -116 -157 -156l-14 -77h-88l22 119q122 26 137 110q6 37 -12.5 61.5t-59.5 24.5zM848 980h180l-820 -1441h-176l283 493l-209 948h181l143 -768z" />
    <glyph glyph-name="uni1EF8" unicode="&#x1ef8;" horiz-adv-x="1157" 
d="M653 1714q-49 0 -87 -44.5t-51 -114.5h-97q21 112 89.5 183t160.5 71q113 0 164 -111q28 -62 92 -62q51 0 87.5 42t48.5 114h98q-20 -111 -87.5 -182t-161.5 -71q-115 0 -166 110q-27 65 -90 65zM1289 1405l-595 -738l-118 -667h-174l119 673l-331 732h189l250 -581
l456 581h204z" />
    <glyph glyph-name="uni1EF9" unicode="&#x1ef9;" horiz-adv-x="961" 
d="M505 1289q-40 0 -70 -37t-41 -97h-97q18 101 78.5 165t143.5 64q102 0 144 -98q21 -49 74 -49q41 0 69.5 35.5t39.5 96.5h98q-18 -99 -78 -163.5t-143 -64.5q-103 0 -148 97q-23 51 -70 51zM848 980h180l-820 -1441h-176l283 493l-209 948h181l143 -768z" />
    <glyph glyph-name="endash" unicode="&#x2013;" horiz-adv-x="1341" 
d="M152 461l26 143h1024l-26 -143h-1024z" />
    <glyph glyph-name="emdash" unicode="&#x2014;" horiz-adv-x="2365" 
d="M152 461l26 143h2048l-26 -143h-2048z" />
    <glyph glyph-name="quoteleft" unicode="&#x2018;" horiz-adv-x="552" 
d="M162 787l287 621h128l-231 -621h-184z" />
    <glyph glyph-name="quoteright" unicode="&#x2019;" horiz-adv-x="551" 
d="M187 787l232 621h183l-286 -621h-129z" />
    <glyph glyph-name="quotesinglbase" unicode="&#x201a;" horiz-adv-x="550" 
d="M-16 -361l231 620h184l-286 -620h-129z" />
    <glyph glyph-name="quotedblleft" unicode="&#x201c;" horiz-adv-x="930" 
d="M162 787l287 621h128l-231 -621h-184zM540 787l287 621h128l-231 -621h-184z" />
    <glyph glyph-name="quotedblright" unicode="&#x201d;" horiz-adv-x="929" 
d="M187 787l232 621h183l-286 -621h-129zM564 787l233 621h183l-286 -621h-130z" />
    <glyph glyph-name="quotedblbase" unicode="&#x201e;" horiz-adv-x="939" 
d="M-16 -361l231 620h184l-286 -620h-129zM372 -361l232 620h184l-286 -620h-130z" />
    <glyph glyph-name="dagger" unicode="&#x2020;" horiz-adv-x="982" 
d="M994 1005l-20 -116h-359l-212 -1202h-118l212 1202h-348l20 116h348l71 403h118l-71 -403h359z" />
    <glyph glyph-name="daggerdbl" unicode="&#x2021;" horiz-adv-x="1050" 
d="M1008 889h-359l-119 -674h358l-20 -116h-358l-73 -412h-118l73 412h-349l20 116h349l119 674h-348l20 116h348l71 403h118l-71 -403h359z" />
    <glyph glyph-name="bullet" unicode="&#x2022;" horiz-adv-x="848" 
d="M422 412q-108 0 -173.5 77t-46.5 188q18 98 103 169.5t183 71.5q105 0 170.5 -79.5t46.5 -185.5q-18 -103 -101 -172t-182 -69z" />
    <glyph glyph-name="ellipsis" unicode="&#x2026;" horiz-adv-x="1844" 
d="M233 -20q-52 0 -83 38t-22 90q7 43 43.5 73.5t78.5 30.5q52 0 84 -38.5t22 -89.5q-7 -44 -43.5 -74t-79.5 -30zM850 -20q-52 0 -83.5 38t-22.5 90q8 43 44 73.5t78 30.5q52 0 84 -38.5t23 -89.5q-8 -44 -44.5 -74t-78.5 -30zM1455 -20q-52 0 -83 37.5t-23 90.5
q8 43 44 73.5t79 30.5q52 0 83.5 -38.5t22.5 -89.5q-8 -44 -44 -74t-79 -30z" />
    <glyph glyph-name="perthousand" unicode="&#x2030;" horiz-adv-x="2169" 
d="M465 847q-117 0 -183 70.5t-66 177.5q0 59 23.5 118t65 107t104.5 78t136 30q116 0 182 -71t66 -176q0 -127 -92 -230.5t-236 -103.5zM199 -1l999 1411h162l-1000 -1411h-161zM472 973q88 0 144.5 62t56.5 139q0 54 -35.5 91t-98.5 37q-87 0 -143.5 -61.5t-56.5 -138.5
q0 -56 34.5 -92.5t98.5 -36.5zM1027 -18q-118 0 -184.5 71t-66.5 176q0 80 39 155t116.5 126t175.5 51q116 0 181 -69.5t65 -174.5q0 -60 -23 -119.5t-63.5 -107.5t-103.5 -78t-136 -30zM1705 -18q-118 0 -184 70.5t-66 176.5q0 81 38.5 155.5t116 125.5t175.5 51
q116 0 181.5 -70t65.5 -174q0 -81 -38.5 -157t-115 -127t-173.5 -51zM1032 107q87 0 144.5 62.5t57.5 140.5q0 54 -35.5 90.5t-98.5 36.5q-88 0 -144 -61.5t-56 -139.5q0 -55 34.5 -92t97.5 -37zM1711 107q87 0 144 62.5t57 140.5q0 54 -35.5 90.5t-98.5 36.5
q-87 0 -143.5 -61.5t-56.5 -139.5q0 -55 34.5 -92t98.5 -37z" />
    <glyph glyph-name="guilsinglleft" unicode="&#x2039;" horiz-adv-x="589" 
d="M325 229l-247 377l375 377h153l-380 -377l242 -377h-143z" />
    <glyph glyph-name="guilsinglright" unicode="&#x203a;" horiz-adv-x="586" 
d="M20 229l381 377l-242 377h141l249 -377l-376 -377h-153z" />
    <glyph glyph-name="fraction" unicode="&#x2044;" horiz-adv-x="479" 
d="M-347 0l1139 1536h131l-1137 -1536h-133z" />
    <glyph glyph-name="Euro" unicode="&#x20ac;" horiz-adv-x="1530" 
d="M1058 1258q-180 0 -311 -95t-203 -256h499l-20 -112h-520q-25 -90 -33 -186h519l-19 -110h-502q8 -178 108 -264t265 -86q108 0 210.5 52.5t179.5 144.5l136 -114q-110 -118 -249.5 -184.5t-283.5 -66.5q-239 0 -385.5 133t-155.5 385h-158l19 110h142q6 94 29 186h-138
l20 112h152q86 234 267.5 377.5t439.5 143.5q150 0 270 -70t192 -190l-161 -94q-46 90 -126 137t-183 47z" />
    <glyph glyph-name="uni2113" unicode="&#x2113;" horiz-adv-x="1119" 
d="M544 -11q-149 0 -235 94.5t-70 257.5q-51 -42 -132 -92l-43 104q24 17 90 60.5t100 68.5l94 503q23 126 66.5 219t99.5 144t115.5 74.5t124.5 23.5q119 0 178 -68.5t59 -178.5q0 -78 -25.5 -155t-87 -171t-175.5 -204.5t-279 -235.5q-16 -80 -17 -109q-1 -97 48 -146.5
t128 -49.5q95 0 186 60.5t150 140.5l74 -87q-188 -253 -449 -253zM446 602q222 186 321.5 328.5t99.5 273.5q0 120 -109 120q-33 0 -66 -17t-66.5 -53.5t-62 -103t-43.5 -154.5z" />
    <glyph glyph-name="uni2116" unicode="&#x2116;" horiz-adv-x="2894" 
d="M1230 291l219 1245h175l-271 -1536h-164l-637 1250l-219 -1250h-175l271 1536h166zM2217 325q-110 0 -195.5 36t-137.5 99t-78.5 142t-26.5 170q0 92 26 185t78.5 177t124 149t170.5 103.5t210 38.5q110 0 195.5 -36t138 -98.5t79 -141.5t26.5 -170q0 -92 -26 -185
t-78.5 -177t-124 -149.5t-170.5 -104t-211 -38.5zM2384 1274q-79 0 -149.5 -30t-122 -80.5t-89.5 -115t-57 -135t-19 -139.5q0 -129 69.5 -214t203.5 -85q98 0 183 46t139.5 119t85.5 161t31 174q0 129 -69.5 214t-205.5 85zM1687 0l22 120h924l-22 -120h-924z" />
    <glyph glyph-name="trademark" unicode="&#x2122;" horiz-adv-x="1605" 
d="M277 1450v86h442v-86h-175v-635h-93v635h-174zM1382 1536h98v-721h-92v562l-239 -395l-240 393v-560h-94v721h101l232 -388z" />
    <glyph glyph-name="estimated" unicode="&#x212e;" horiz-adv-x="1987" 
d="M1061 -18q-178 0 -340 62t-279 167.5t-186 250.5t-69 304q0 215 117 397t318 287.5t439 105.5q179 0 341.5 -62.5t280 -168t186.5 -252t69 -307.5v-21h-1417q-13 0 -13 -8v-430q0 -22 19 -49q106 -109 245 -171t291 -62q168 0 314.5 69.5t251.5 192.5h125
q-119 -141 -301.5 -223t-391.5 -82zM521 788h1087q8 0 8 15v430q0 34 -20 51q-106 105 -243.5 165t-289.5 60q-150 0 -288 -61.5t-246 -169.5q-21 -24 -21 -53v-422q0 -5 3.5 -10t9.5 -5z" />
    <glyph glyph-name="partialdiff" unicode="&#x2202;" horiz-adv-x="1159" 
d="M525 1446q182 27 316 -70t186.5 -288t7.5 -428q-35 -186 -124.5 -333.5t-214 -230.5t-261.5 -83q-118 0 -199 47.5t-114.5 129.5t-17.5 196.5t85 242.5q64 114 150.5 196t180.5 121t193 38t188 -46q-11 195 -112.5 298t-275.5 77zM440 133q136 0 263.5 154t175.5 397
q15 76 18 120q-142 99 -300 32t-264 -271q-51 -94 -67.5 -175.5t0 -137t61.5 -87.5t113 -32z" />
    <glyph glyph-name="emptyset" unicode="&#x2205;" horiz-adv-x="1528" 
d="M782 -16q-232 0 -405 154l-88 -89l-53 53l88 89q-154 172 -154 405q0 166 82 307t223 223t307 82q233 0 405 -154l89 89l53 -53l-88 -89q154 -173 154 -405q0 -166 -82 -307t-223.5 -223t-307.5 -82zM424 291l664 664q-130 111 -306 111q-128 0 -236 -62.5t-171 -171
t-63 -236.5q0 -177 112 -305zM782 126q128 0 236.5 62.5t171 171t62.5 236.5q0 177 -111 305l-664 -664q128 -111 305 -111z" />
    <glyph glyph-name="product" unicode="&#x220f;" horiz-adv-x="1614" 
d="M177 0l221 1253h-125l28 155h1337l-28 -155h-127l-220 -1253h-153l221 1253h-778l-220 -1253h-156z" />
    <glyph glyph-name="summation" unicode="&#x2211;" horiz-adv-x="1379" 
d="M20 1l19 118l754 648l-521 650l19 119h1162l-26 -144h-920l494 -625l-710 -622h917l-26 -144h-1162z" />
    <glyph glyph-name="minus" unicode="&#x2212;" horiz-adv-x="1247" 
d="M276 611v142h764v-142h-764z" />
    <glyph glyph-name="radical" unicode="&#x221a;" horiz-adv-x="1388" 
d="M370 0l-105 710h-140l25 145h240l94 -619l853 1300h163l-1006 -1536h-124z" />
    <glyph glyph-name="infinity" unicode="&#x221e;" horiz-adv-x="1688" 
d="M487 294q-120 0 -201.5 85.5t-86.5 216.5q5 131 86.5 216.5t201.5 85.5q87 0 183.5 -54t190.5 -156q93 101 190 155.5t185 54.5q124 0 203 -83.5t84 -218.5q-5 -135 -84 -218.5t-203 -83.5q-88 0 -185 54t-190 155q-195 -209 -374 -209zM487 418q62 0 138.5 46.5
t152.5 131.5q-76 85 -152.5 131.5t-138.5 46.5q-66 0 -114 -51.5t-50 -126.5q2 -75 50 -126.5t114 -51.5zM1236 418q67 0 114 50.5t49 127.5q-2 77 -49 127.5t-114 50.5q-129 0 -293 -178q162 -178 293 -178z" />
    <glyph glyph-name="integral" unicode="&#x222b;" horiz-adv-x="925" 
d="M-86 -457l19 168q163 0 249.5 72.5t114.5 230.5l196 1120q23 130 116 212t213 82q119 0 190 -74l-93 -122q-34 39 -89 39q-64 0 -112 -47.5t-63 -126.5l-193 -1099q-39 -219 -184 -337t-364 -118z" />
    <glyph glyph-name="approxequal" unicode="&#x2248;" horiz-adv-x="1401" 
d="M945 669q-40 0 -78 11.5t-61.5 23.5t-55 39.5t-41.5 38.5t-37 41q-79 86 -147 86q-76 0 -122.5 -61t-48.5 -158h-133q2 159 85 256t220 97q77 0 135 -36.5t122 -113.5q26 -31 42 -46.5t46 -31.5t64 -16q72 0 118 59.5t49 157.5h132q-2 -152 -80.5 -249.5t-208.5 -97.5z
M945 237q-40 0 -78 11.5t-62 23.5t-54.5 39t-41.5 38.5t-37 40.5q-40 45 -72 66.5t-75 20.5q-77 -1 -123 -62t-48 -157h-133q1 160 85 257t220 97q76 0 134 -36t123 -113q27 -32 42.5 -48t45.5 -32t64 -16q72 0 118 59.5t49 159.5h132q-2 -152 -80.5 -250.5t-208.5 -98.5z
" />
    <glyph glyph-name="notequal" unicode="&#x2260;" horiz-adv-x="1218" 
d="M207 0l217 415h-234v142h306l139 267h-445v142h518l204 390h132l-202 -390h256v-142h-331l-138 -267h469v-142h-542l-217 -415h-132z" />
    <glyph glyph-name="lessequal" unicode="&#x2264;" horiz-adv-x="1475" 
d="M1295 1422v-157l-977 -453l977 -455v-160l-1131 530v169zM164 0v126h1131v-126h-1131z" />
    <glyph glyph-name="greaterequal" unicode="&#x2265;" horiz-adv-x="1539" 
d="M240 1422l1131 -526v-169l-1131 -530v160l977 455l-977 453v157zM240 0v126h1131v-126h-1131z" />
    <glyph glyph-name="lozenge" unicode="&#x25ca;" horiz-adv-x="1391" 
d="M736 106l-619 617l619 618l616 -616zM737 301l420 424l-420 420l-424 -422z" />
    <glyph glyph-name="uniF8FF" unicode="&#xf8ff;" horiz-adv-x="1843" 
d="M972 0q-158 0 -302 62t-248 166t-166 248t-62 302t62 302.5t166 248.5t248 165.5t302 61.5t302.5 -61.5t248.5 -165.5t165.5 -248.5t61.5 -302.5t-61.5 -302t-165.5 -248t-248.5 -166t-302.5 -62zM972 74q143 0 273.5 56t225 150.5t150.5 224.5t56 273q0 191 -94.5 353.5
t-257 257t-353.5 94.5q-143 0 -273 -56t-224.5 -150.5t-150.5 -225t-56 -273.5t56 -273t150.5 -224.5t224.5 -150.5t273 -56zM1380 444q-12 0 -23 13l-297 295q-12 12 -12.5 27.5t10.5 25.5l297 297q11 10 26 10t25 -10q11 -11 11 -26.5t-11 -26.5l-270 -271l270 -270
q24 -22 0 -51q-10 -13 -26 -13zM565 444q-16 0 -26.5 11t-10.5 26v594q0 16 10.5 26.5t26.5 10.5q15 0 26 -10.5t11 -26.5v-594q0 -15 -11 -26t-26 -11zM972 444q-15 0 -26 11t-11 26v594q0 16 11 26.5t26 10.5q16 0 26.5 -10.5t10.5 -26.5v-594q0 -15 -10.5 -26t-26.5 -11z
M675 741q-15 0 -26 11t-11 26q0 16 11 26.5t26 10.5h187q15 0 25.5 -10.5t10.5 -26.5q0 -15 -10.5 -26t-25.5 -11h-187z" />
    <glyph glyph-name="G.ss02" horiz-adv-x="1558" 
d="M733 -19q-153 0 -275 50.5t-201.5 143t-109.5 231t-1 306.5q38 219 158 383t290 248t366 84q199 0 343.5 -86.5t206.5 -246.5l-167 -75q-44 123 -146 183t-243 60q-150 0 -281 -65.5t-225 -196t-125 -307.5q-45 -257 72.5 -403t342.5 -146q205 0 365.5 122.5t198.5 306.5
l-477 -7l27 152l652 -6q-13 -90 -34 -168q-75 -264 -273.5 -413.5t-463.5 -149.5z" />
    <glyph glyph-name="Gbreve.ss02" horiz-adv-x="1558" 
d="M985 1554q-155 0 -235 67t-55 203h107q-17 -91 38.5 -135.5t161.5 -44.5q107 0 177.5 44.5t87.5 135.5h107q-16 -92 -72 -154t-135.5 -89t-181.5 -27zM733 -19q-153 0 -275 50.5t-201.5 143t-109.5 231t-1 306.5q38 219 158 383t290 248t366 84q199 0 343.5 -86.5
t206.5 -246.5l-167 -75q-44 123 -146 183t-243 60q-150 0 -281 -65.5t-225 -196t-125 -307.5q-45 -257 72.5 -403t342.5 -146q205 0 365.5 122.5t198.5 306.5l-477 -7l27 152l652 -6q-13 -90 -34 -168q-75 -264 -273.5 -413.5t-463.5 -149.5z" />
    <glyph glyph-name="Gcommaaccent.ss02" horiz-adv-x="1558" 
d="M733 -19q-153 0 -275 50.5t-201.5 143t-109.5 231t-1 306.5q38 219 158 383t290 248t366 84q199 0 343.5 -86.5t206.5 -246.5l-167 -75q-44 123 -146 183t-243 60q-150 0 -281 -65.5t-225 -196t-125 -307.5q-45 -257 72.5 -403t342.5 -146q205 0 365.5 122.5t198.5 306.5
l-477 -7l27 152l652 -6q-13 -90 -34 -168q-75 -264 -273.5 -413.5t-463.5 -149.5zM464 -559l-85 41l225 366h158z" />
    <glyph glyph-name="Gdotaccent.ss02" horiz-adv-x="1558" 
d="M987 1554q-48 0 -76.5 34.5t-20.5 81.5q9 48 50 82t89 34q47 0 75.5 -34t18.5 -82q-7 -47 -48 -81.5t-88 -34.5zM733 -19q-153 0 -275 50.5t-201.5 143t-109.5 231t-1 306.5q38 219 158 383t290 248t366 84q199 0 343.5 -86.5t206.5 -246.5l-167 -75q-44 123 -146 183
t-243 60q-150 0 -281 -65.5t-225 -196t-125 -307.5q-45 -257 72.5 -403t342.5 -146q205 0 365.5 122.5t198.5 306.5l-477 -7l27 152l652 -6q-13 -90 -34 -168q-75 -264 -273.5 -413.5t-463.5 -149.5z" />
    <glyph glyph-name="i.loclTRK" horiz-adv-x="500" 
d="M393 1248q-48 0 -78.5 34t-26.5 82q5 48 43.5 82t86.5 34t79 -34t25 -82q-5 -48 -43.5 -82t-85.5 -34zM76 0l174 983h174l-174 -983h-174z" />
    <glyph glyph-name="f_t" horiz-adv-x="1235" 
d="M127 0l149 845h-190l25 138h189l51 281q23 141 102.5 216.5t201.5 75.5q68 0 137 -25l-13 -131q-39 16 -86 16q-64 0 -112.5 -43t-60.5 -119l-48 -271h257q67 0 113 38t59 107l31 183h162l-58 -328h226l-24 -138h-226l-101 -567q-12 -70 17 -105t90 -35h93l-24 -138h-129
q-122 0 -182.5 73.5t-38.5 200.5l102 571h-391l-150 -845h-171z" />
    <glyph glyph-name="t_t" horiz-adv-x="1270" 
d="M396 0q-122 0 -182 73.5t-38 200.5l101 571h-201l24 138h74q61 0 103.5 36t53.5 97l25 139h167l-48 -272h295q61 0 104 36t54 97l24 139h168l-49 -272h227l-25 -138h-226l-101 -567q-12 -70 17 -105t90 -35h93l-24 -138h-129q-122 0 -182.5 73.5t-38.5 200.5l102 571
h-423l-101 -567q-12 -70 17 -105t90 -35h93l-25 -138h-129z" />
    <glyph glyph-name="uni0308.case" 
d="M-422 1554q-44 0 -70 31.5t-19 75.5q9 44 46.5 75.5t81.5 31.5q43 0 69.5 -31.5t17.5 -75.5q-7 -44 -44.5 -75.5t-81.5 -31.5zM-54 1554q-44 0 -70 31.5t-19 75.5q9 44 46.5 75.5t81.5 31.5t69.5 -31.5t17.5 -75.5q-7 -44 -44.5 -75.5t-81.5 -31.5z" />
    <glyph glyph-name="uni0307.case" 
d="M-61 1554q-48 0 -76.5 34.5t-20.5 81.5q9 48 50 82t89 34q47 0 75.5 -34t18.5 -82q-7 -47 -48 -81.5t-88 -34.5z" />
    <glyph glyph-name="gravecomb.case" 
d="M20 1554l-179 259l105 67l193 -326h-119z" />
    <glyph glyph-name="acutecomb.case" 
d="M-223 1554l310 326l79 -67l-270 -259h-119z" />
    <glyph glyph-name="uni030B.case" 
d="M-583 1554l310 326l79 -67l-270 -259h-119zM-223 1554l309 326l80 -67l-270 -259h-119z" />
    <glyph glyph-name="uni0302.case" 
d="M-305 1554h-118l263 295h127l160 -295h-119l-117 224z" />
    <glyph glyph-name="uni030C.case" 
d="M-216 1554l-160 295h118l117 -226l196 226h119l-263 -295h-127z" />
    <glyph glyph-name="uni0306.case" 
d="M-262 1554q-155 0 -235 67t-55 203h107q-17 -91 38.5 -135.5t161.5 -44.5q107 0 177.5 44.5t87.5 135.5h107q-16 -92 -72 -154t-135.5 -89t-181.5 -27z" />
    <glyph glyph-name="uni030A.case" 
d="M-128 1554q-81 0 -131 49t-52 128q-2 97 68.5 169.5t173.5 72.5q82 0 131 -49t51 -126q2 -96 -68.5 -170t-172.5 -74zM-118 1639q61 0 104 43.5t43 102.5q0 46 -29 76.5t-76 30.5q-61 0 -104.5 -46t-43.5 -105q0 -46 29 -74t77 -28z" />
    <glyph glyph-name="tildecomb.case" 
d="M-140 1542q-115 0 -166 110q-27 65 -90 65q-49 0 -87 -44.5t-51 -114.5h-97q21 112 89.5 183t160.5 71q113 0 164 -111q28 -62 92 -62q51 0 87.5 42t48.5 114h98q-20 -111 -87.5 -182t-161.5 -71z" />
    <glyph glyph-name="uni0304.case" 
d="M-619 1554l19 110h647l-19 -110h-647z" />
    <glyph glyph-name="hookabovecomb.case" 
d="M-141 1536l22 119q121 24 138 110q5 37 -13.5 61t-58.5 24q-45 0 -92 -31l-40 69q71 49 148 49q81 0 124.5 -47t30.5 -121q-20 -116 -158 -157l-13 -76h-88z" />
    <glyph glyph-name="uni0312.case" 
d="M10 1860h127l-176 -306h-182z" />
    <glyph glyph-name="uni0338.case" 
d="M-1002 1l1102 1584l90 -57l-1101 -1580z" />
    <glyph glyph-name="uni03060301" 
d="M-293 1706l309 326l80 -67l-270 -259h-119zM-313 1219q-149 0 -229 86t-54 231h107q-17 -99 36.5 -162.5t154.5 -63.5q103 0 180 63.5t94 162.5h107q-26 -145 -136 -231t-260 -86z" />
    <glyph glyph-name="uni03060300" 
d="M-286 1706l-178 259l104 67l193 -326h-119zM-313 1219q-149 0 -229 86t-54 231h107q-17 -99 36.5 -162.5t154.5 -63.5q103 0 180 63.5t94 162.5h107q-26 -145 -136 -231t-260 -86z" />
    <glyph glyph-name="uni03060309" 
d="M-282 1632l22 119q122 26 137 110q6 37 -12.5 61.5t-59.5 24.5q-45 0 -91 -32l-40 70q70 48 148 48q81 0 124.5 -47t30.5 -121q-20 -116 -157 -156l-14 -77h-88zM-313 1219q-149 0 -229 86t-54 231h107q-17 -99 36.5 -162.5t154.5 -63.5q103 0 180 63.5t94 162.5h107
q-26 -145 -136 -231t-260 -86z" />
    <glyph glyph-name="uni03060303" 
d="M-99 1697q-103 0 -148 97q-23 51 -70 51q-40 0 -70 -37t-41 -97h-97q18 101 78.5 165t143.5 64q102 0 144 -98q21 -49 74 -49q41 0 69.5 35.5t39.5 96.5h98q-18 -99 -78 -163.5t-143 -64.5zM-313 1219q-149 0 -229 86t-54 231h107q-17 -99 36.5 -162.5t154.5 -63.5
q103 0 180 63.5t94 162.5h107q-26 -145 -136 -231t-260 -86z" />
    <glyph glyph-name="uni03020301" 
d="M-189 1706l309 326l80 -67l-270 -259h-119zM-360 1241h-118l263 295h128l159 -295h-119l-117 224z" />
    <glyph glyph-name="uni03020300" 
d="M-182 1706l-178 259l104 67l193 -326h-119zM-360 1241h-118l263 295h128l159 -295h-119l-117 224z" />
    <glyph glyph-name="uni03020309" 
d="M-178 1632l22 119q122 26 137 110q6 37 -12.5 61.5t-59.5 24.5q-45 0 -91 -32l-40 70q70 48 148 48q81 0 124.5 -47t30.5 -121q-20 -116 -157 -156l-14 -77h-88zM-360 1241h-118l263 295h128l159 -295h-119l-117 224z" />
    <glyph glyph-name="uni03020303" 
d="M5 1697q-103 0 -148 97q-23 51 -70 51q-40 0 -70 -37t-41 -97h-97q18 101 78.5 165t143.5 64q102 0 144 -98q21 -49 74 -49q41 0 69.5 35.5t39.5 96.5h98q-18 -99 -78 -163.5t-143 -64.5zM-360 1241h-118l263 295h128l159 -295h-119l-117 224z" />
    <glyph glyph-name="uni03060301.case" 
d="M-253 1970l310 326l79 -67l-270 -259h-119zM-262 1554q-155 0 -235 67t-55 203h107q-17 -91 38.5 -135.5t161.5 -44.5q107 0 177.5 44.5t87.5 135.5h107q-16 -92 -72 -154t-135.5 -89t-181.5 -27z" />
    <glyph glyph-name="uni03060300.case" 
d="M-246 1970l-179 259l105 67l193 -326h-119zM-262 1554q-155 0 -235 67t-55 203h107q-17 -91 38.5 -135.5t161.5 -44.5q107 0 177.5 44.5t87.5 135.5h107q-16 -92 -72 -154t-135.5 -89t-181.5 -27z" />
    <glyph glyph-name="uni03060309.case" 
d="M-232 1952l22 119q121 24 138 110q5 37 -13.5 61t-58.5 24q-45 0 -92 -31l-40 69q71 49 148 49q81 0 124.5 -47t30.5 -121q-20 -116 -158 -157l-13 -76h-88zM-262 1554q-155 0 -235 67t-55 203h107q-17 -91 38.5 -135.5t161.5 -44.5q107 0 177.5 44.5t87.5 135.5h107
q-16 -92 -72 -154t-135.5 -89t-181.5 -27z" />
    <glyph glyph-name="uni03060303.case" 
d="M-40 1958q-115 0 -166 110q-27 65 -90 65q-49 0 -87 -44.5t-51 -114.5h-97q21 112 89.5 183t160.5 71q113 0 164 -111q28 -62 92 -62q51 0 87.5 42t48.5 114h98q-20 -111 -87.5 -182t-161.5 -71zM-262 1554q-155 0 -235 67t-55 203h107q-17 -91 38.5 -135.5t161.5 -44.5
q107 0 177.5 44.5t87.5 135.5h107q-16 -92 -72 -154t-135.5 -89t-181.5 -27z" />
    <glyph glyph-name="uni03020301.case" 
d="M-137 1995l310 326l79 -67l-270 -259h-119zM-305 1554h-118l263 295h127l160 -295h-119l-117 224z" />
    <glyph glyph-name="uni03020300.case" 
d="M-130 1995l-179 259l105 67l193 -326h-119zM-305 1554h-118l263 295h127l160 -295h-119l-117 224z" />
    <glyph glyph-name="uni03020309.case" 
d="M-116 1977l22 119q121 24 138 110q5 37 -13.5 61t-58.5 24q-46 0 -92 -31l-40 69q71 49 148 49q81 0 124.5 -47t30.5 -121q-20 -116 -158 -157l-13 -76h-88zM-305 1554h-118l263 295h127l160 -295h-119l-117 224z" />
    <glyph glyph-name="uni03020303.case" 
d="M76 1983q-115 0 -166 110q-27 65 -90 65q-49 0 -87 -44.5t-51 -114.5h-97q21 112 89.5 183t160.5 71q113 0 164 -111q28 -62 92 -62q51 0 87.5 42t48.5 114h98q-20 -111 -87.5 -182t-161.5 -71zM-305 1554h-118l263 295h127l160 -295h-119l-117 224z" />
    </font>
</defs>
</svg>
