<svg xmlns="http://www.w3.org/2000/svg" xmlns:xlink="http://www.w3.org/1999/xlink" version="1.1">
<metadata>
Created by FontForge 20201107 at Wed Aug  4 12:24:16 2021
 By Robert Madole
Copyright (c) Font Awesome
</metadata>
<!-- Font Awesome Pro 5.15.4 by @fontawesome - https://fontawesome.com License - https://fontawesome.com/license (Commercial License) --><defs>
<font id="FontAwesome5Duotone-Solid" horiz-adv-x="512">
  <font-face font-family="Font Awesome 5 Duotone Solid" font-weight="900" font-stretch="normal" units-per-em="512" panose-1="2 0 5 3 0 0 0 0 0 0" ascent="448" descent="-64" bbox="-2.41992 -67 672 449.02" underline-thickness="25" underline-position="-50" unicode-range="U+0020-10F8FF"/>
    <missing-glyph/>
    <glyph glyph-name="caravan-alt-primary" unicode="" horiz-adv-x="640" d="M624 128c8.83105 0 16 -7.16895 16 -16v-32c0 -8.83105 -7.16895 -16 -16 -16h-312.81c-4.19043 62.4697 -55.6602 112 -119.19 112s-115 -49.5303 -119.19 -112h-8.80957c-35.3223 0 -64 28.6777 -64 64v256c0 35.3223 28.6777 64 64 64h352 c88.3066 0 160 -71.6934 160 -160v-160h48zM256 256v64c0 17.6611 -14.3389 32 -32 32h-128c-17.6611 0 -32 -14.3389 -32 -32v-64c0 -17.6611 14.3389 -32 32 -32h128c17.6611 0 32 14.3389 32 32zM448 256v64c0 17.6611 -14.3389 32 -32 32h-64 c-17.6611 0 -32 -14.3389 -32 -32v-64c0 -17.6611 14.3389 -32 32 -32h64c17.6611 0 32 14.3389 32 32z"/>
    <glyph glyph-name="cat-space-primary" unicode="" horiz-adv-x="640" d="M291.891 253.697c15.7305 -71.8418 79.5469 -125.697 156.109 -125.697c10.999 0.00195312 21.6201 1.11328 32 3.22461v-179.225v-0.00878906c0 -8.82617 -7.16504 -15.9912 -15.9902 -15.9912h-0.00976562h-32h-0.00878906 c-8.82617 0 -15.9912 7.16504 -15.9912 15.9902v0.00976562v144l-128 -96h32c17.6611 -0.000976562 31.999 -14.3389 32 -32v-16v-0.00878906c0 -8.82617 -7.16504 -15.9912 -15.9902 -15.9912h-0.00976562h-176c-35.3066 0.0351562 -63.9648 28.6934 -64 64v256 c-0.0234375 17.6504 -14.3496 31.9766 -32 32c-17.6611 0 -32 14.3389 -32 32s14.3389 32 32 32c52.957 -0.0576172 95.9424 -43.043 96 -96v-85.9531c40.1016 60.3809 96.0547 78.2969 131.891 83.6387v0.0117188zM480 336l64 64v-128c0 -52.9834 -43.0166 -96 -96 -96 s-96 43.0166 -96 96v128l64 -64h64zM408 256c8.82617 0 16 7.16504 16 15.9902v0.00976562c0 8.83105 -7.16895 16 -16 16s-16 -7.16895 -16 -16s7.16895 -16 16 -16zM488 256c8.82617 0 16 7.16504 16 15.9902v0.00976562c0 8.83105 -7.16895 16 -16 16 s-16 -7.16895 -16 -16s7.16895 -16 16 -16z"/>
    <glyph glyph-name="coffee-pot-primary" unicode="" d="M130.55 128h314.95c1.49219 -8.04102 2.34375 -16.2266 2.5 -24.6602c0 -28.6396 -7.62988 -47.0098 -29.9502 -71.3398h-260.05c-22.3799 24.3799 -30 42.7197 -30 71.3799c0.154297 8.42383 1.02344 16.6016 2.5498 24.6201zM424.06 276.14l-271.859 -0.629883 l-30.6006 76.4902h-17.5996c-22.0762 0 -40 -17.9238 -40 -40v-72c0 -8.83105 -7.16895 -16 -16 -16h-32c-8.83105 0 -16 7.16895 -16 16v88c0 48.5684 39.4316 88 88 88h392z"/>
    <glyph glyph-name="comet-primary" unicode="" d="M77.1133 173.78l69.8525 10.1973l31.2646 63.4678c2.49121 5.07129 7.70996 8.56543 13.7373 8.56543s11.2275 -3.49414 13.7197 -8.56543l31.2646 -63.4678l69.8525 -10.1973c7.41113 -1.08398 13.1104 -7.47363 13.1104 -15.1836 c0 -4.28711 -1.74316 -8.16699 -4.58008 -10.9521l-50.5869 -49.334l11.9287 -69.7275c0.144531 -0.845703 0.220703 -1.71582 0.220703 -2.60254c0 -8.44531 -6.85645 -15.3018 -15.3027 -15.3018c-2.56055 0 -4.99219 0.65332 -7.11426 1.76758l-62.5215 32.9277 l-62.5215 -32.9277c-11.0732 -5.9375 -24.3281 3.53125 -22.1963 16.1367l11.998 69.7275l-50.5938 49.334c-2.86328 2.7832 -4.64355 6.67578 -4.64355 10.9805c0 7.69824 5.70996 14.0781 13.1113 15.1553z"/>
    <glyph glyph-name="fan-table-primary" unicode="" horiz-adv-x="448" d="M119.67 112.7c-7.08984 4.08008 -14.5703 16.8594 -5.03027 28.2002l67.4707 82c-57.1699 20.3193 -69.1807 77.3301 -59.6406 113c6.48535 24.4834 22.5244 45.0234 44 57.3398v0c13 7.38965 24.2207 -2.35059 27 -9.73047l37.0801 -99 c16.459 13.9814 37.8232 22.4463 61.0898 22.4463c52.0791 0 94.3604 -42.2812 94.3604 -94.3594v-0.0869141c-0.0078125 -10.3906 -8.42969 -18.8252 -18.8223 -18.8252c-1.05859 0 -2.09668 0.0869141 -3.10742 0.255859l-104.7 17.4492 c1.10254 -5.73633 1.62109 -11.6816 1.62109 -17.7373c0 -16.8721 -4.48242 -32.7051 -12.3213 -46.3721c-16.333 -28.2734 -46.9316 -47.1553 -81.9033 -47.1553c-17.1445 0 -33.2295 4.57715 -47.0967 12.5752zM224 255.5c-8.83105 0 -16 -7.16895 -16 -16 s7.16895 -16 16 -16s16 7.16895 16 16s-7.16895 16 -16 16zM320 -0.5c28.4199 0 55 -18.5 63.2998 -44.1602c3.21973 -9.83984 -5.17969 -19.8398 -15.5596 -19.8398h-287.48c-10.3896 0 -18.7793 9.95996 -15.5596 19.8398 c8.34961 25.6299 34.8799 44.1602 63.2998 44.1602h192z"/>
    <glyph glyph-name="faucet-primary" unicode="" d="M384 335.11v-30.2207c0 -10 -8.16992 -17.7998 -17.5898 -16.7998l-142.41 15.0303l-142.41 -15c-9.41992 -1 -17.5898 6.80957 -17.5898 16.7998v30.1904c0 10 8.16992 17.7998 17.5898 16.7998l142.41 -15l142.41 15c9.41992 1 17.5898 -6.81055 17.5898 -16.7998z"/>
    <glyph glyph-name="faucet-drip-primary" unicode="" d="M448 32c0 0 32 -46.3301 32 -64c0 -17.6611 -14.3389 -32 -32 -32s-32 14.3389 -32 32c0 17.6699 32 64 32 64zM366.41 415.91c9.41992 1 17.5898 -6.81055 17.5898 -16.7998v-30.1904c0 -9.99023 -8.16992 -17.7998 -17.5898 -16.7998l-142.41 15l-142.41 -15.0303 c-9.41992 -1 -17.5898 6.7998 -17.5898 16.7998v30.2207c0 9.98926 8.16992 17.7998 17.5898 16.7695l142.41 -15z"/>
    <glyph glyph-name="galaxy-primary" unicode="" d="M506.576 173.896c3.5293 -14.7275 5.41797 -29.7979 5.41797 -45.6006c0 -6.58105 -0.323242 -13.0869 -0.957031 -19.5029c-1.45312 -14.4102 -21.1758 -17.4082 -26.8711 -4.09375c-19.2627 44.9424 -60.8623 78.0146 -110.745 85.5137 c6.78125 -19.7656 10.5146 -40.8662 10.5146 -62.9189c0 -13.3154 -1.3418 -26.3193 -3.89746 -38.8838c-14.3047 -71.6484 -71.0381 -130.191 -142.14 -146.988c-14.7275 -3.52832 -29.7969 -5.41699 -45.5986 -5.41699c-6.58203 0 -13.0898 0.324219 -19.5059 0.958008 c-14.4102 1.45117 -17.4102 21.1738 -4.09375 26.8691c44.9414 19.2627 78.0137 60.8623 85.5107 110.744c-19.7666 -6.78027 -40.8662 -10.5137 -62.9199 -10.5137c-13.3135 0 -26.3164 1.3418 -38.8799 3.89648c-71.6484 14.3066 -130.19 71.0391 -146.987 142.145 c-3.5293 14.7275 -5.41797 29.7969 -5.41797 45.6006c0 6.58105 0.324219 13.0869 0.957031 19.5029c1.45312 14.4102 21.1758 17.4082 26.8711 4.09375c19.2627 -44.9424 60.8623 -78.0146 110.745 -85.5137c-6.78125 19.7656 -10.5146 40.8662 -10.5146 62.9189 c0 13.3154 1.3418 26.3193 3.89746 38.8838c14.3047 71.6484 71.0381 130.191 142.14 146.988c14.7275 3.52832 29.7969 5.41699 45.5986 5.41699c6.58203 0 13.0898 -0.324219 19.5059 -0.958008c14.4102 -1.45117 17.4102 -21.1738 4.09375 -26.8691 c-44.9414 -19.2627 -78.0137 -60.8623 -85.5107 -110.744c19.7666 6.78027 40.8662 10.5137 62.9199 10.5137c13.3135 0 26.3164 -1.3418 38.8799 -3.89648c71.6484 -14.3066 130.19 -71.0391 146.987 -142.145zM256 144c26.4912 0.000976562 47.999 21.5088 48 48 c0 26.4922 -21.5078 48 -48 48s-48 -21.5078 -48 -48s21.5078 -48 48 -48z"/>
    <glyph glyph-name="garage-primary" unicode="" horiz-adv-x="640" d="M640 286.72v-334.72c0 -8.83105 -7.16895 -16 -16 -16h-64c-8.83105 0 -16 7.16895 -16 16v272c0 17.5898 -14.5898 32 -32.5898 32h-382.82c-18 0 -32.5898 -14.4102 -32.5898 -32v-272c0 -8.83105 -7.16895 -16 -16 -16h-64c-8.83105 0 -16 7.16895 -16 16v334.72 c0.0429688 19.9287 12.1895 37.0107 29.5 44.2803l272 113.3c5.7627 2.18555 12.0254 3.49121 18.5 3.7002c6.45996 -0.204102 12.707 -1.49805 18.46 -3.66992l272.04 -113.33c17.3105 -7.26953 29.457 -24.3516 29.5 -44.2803z"/>
    <glyph glyph-name="garage-car-primary" unicode="" horiz-adv-x="640" d="M610.5 331c17.3105 -7.26953 29.457 -24.3516 29.5 -44.2803v-334.72c0 -8.83105 -7.16895 -16 -16 -16h-64c-8.83105 0 -16 7.16895 -16 16v272c0 17.5898 -14.5898 32 -32.5898 32h-382.82c-18 0 -32.5898 -14.4102 -32.5898 -32v-272c0 -8.83105 -7.16895 -16 -16 -16 h-64c-8.83105 0 -16 7.16895 -16 16v334.72c0.0429688 19.9287 12.1895 37.0107 29.5 44.2803l272 113.33c5.76465 2.17578 12.0254 3.4707 18.5 3.66992c6.44141 -0.209961 12.6729 -1.50391 18.4102 -3.66992zM465.5 92.5801 c17.8604 -6.95898 30.4785 -24.2754 30.5 -44.5801v-32c0 -11.71 -6.61035 -21.5195 -16 -27.0996v-28.9004c0 -13.2461 -10.7539 -24 -24 -24h-32c-13.2461 0 -24 10.7539 -24 24v24h-160v-24c0 -13.2461 -10.7539 -24 -24 -24h-32c-13.2461 0 -24 10.7539 -24 24v28.9004 c-9.38965 5.58008 -16 15.3896 -16 27.0996v32c0.0214844 20.3047 12.6699 37.6514 30.5303 44.6104l15.75 63c7.4873 30.0586 34.6768 52.3896 67.04 52.3896h0.0693359h125.221c0.0302734 0 0.0546875 -0.03125 0.0849609 -0.03125 c32.374 0 59.5771 -22.3145 67.0547 -52.3887zM236.84 143.95l-11.9795 -47.9502h190.3l-12 47.9502c-2.28809 9.20801 -10.6143 16.0498 -20.5254 16.0498h-0.0244141h-125.221c-0.0078125 0 -0.0136719 -0.00976562 -0.0224609 -0.00976562 c-9.91113 0 -18.2393 -6.83203 -20.5273 -16.04zM208 16.1504c14.4004 0 36 -2.38086 36 11.9697c0 14.3496 -21.5996 35.8799 -36 35.8799s-24 -9.57031 -24 -23.9297c0 -14.3604 9.59961 -23.9199 24 -23.9199zM432 16.1504c14.4004 0 24 9.56934 24 23.9199 c0 14.3496 -9.59961 23.9297 -24 23.9297s-36 -21.46 -36 -35.8496c0 -14.3906 21.5996 -12 36 -12z"/>
    <glyph glyph-name="garage-open-primary" unicode="" horiz-adv-x="640" d="M610.5 331c17.3105 -7.26953 29.457 -24.3516 29.5 -44.2803v-334.72c0 -8.83105 -7.16895 -16 -16 -16h-64c-8.83105 0 -16 7.16895 -16 16v272c0 17.5898 -14.5898 32 -32.5898 32h-382.82c-18 0 -32.5898 -14.4102 -32.5898 -32v-272c0 -8.83105 -7.16895 -16 -16 -16 h-64c-8.83105 0 -16 7.16895 -16 16v334.72c0.0429688 19.9287 12.1895 37.0107 29.5 44.2803l272 113.33c5.76465 2.17578 12.0254 3.4707 18.5 3.66992c6.44141 -0.209961 12.6729 -1.50391 18.4102 -3.66992zM465.5 92.5801 c17.8604 -6.95898 30.4785 -24.2754 30.5 -44.5801v-32c0 -11.71 -6.61035 -21.5195 -16 -27.0996v-28.9004c0 -13.2461 -10.7539 -24 -24 -24h-32c-13.2461 0 -24 10.7539 -24 24v24h-160v-24c0 -13.2461 -10.7539 -24 -24 -24h-32c-13.2461 0 -24 10.7539 -24 24v28.9004 c-9.38965 5.58008 -16 15.3896 -16 27.0996v32c0.0214844 20.3047 12.6699 37.6514 30.5303 44.6104l8.84961 35.3896h49.4805l-8 -32h190.279l-8 32h49.4805zM208 16.1504c14.4004 0 36 -2.38086 36 11.9697c0 14.3496 -21.5996 35.8799 -36 35.8799 s-24 -9.57031 -24 -23.9297c0 -14.3604 9.59961 -23.9199 24 -23.9199zM432 16.1504c14.4004 0 24 9.56934 24 23.9199c0 14.3496 -9.59961 23.9297 -24 23.9297s-36 -21.46 -36 -35.8496c0 -14.3906 21.5996 -12 36 -12z"/>
    <glyph glyph-name="heat-primary" unicode="" horiz-adv-x="448" d="M64 295.75c0 -0.0976562 0.0195312 -0.253906 0.0195312 -0.351562c0 -39.623 14.9707 -75.7764 39.5605 -103.108c35.043 -38.7578 56.4199 -90.209 56.4199 -146.523v-0.176758v-61.5898c0 -8.83105 -7.16895 -16 -16 -16h-32c-8.83105 0 -16 7.16895 -16 16v61.5898 c0 0.121094 -0.0195312 0.300781 -0.0195312 0.421875c0 39.5742 -14.9482 75.6846 -39.5 102.988c-35.0801 38.79 -56.4805 90.29 -56.4805 146.656v0.09375v40.25c0 8.83105 7.16895 16 16 16h32c8.83105 0 16 -7.16895 16 -16v-40.25zM391.58 192.29 c35.043 -38.7578 56.4199 -90.209 56.4199 -146.523v-0.176758v-61.5898c0 -8.83105 -7.16895 -16 -16 -16h-32c-8.83105 0 -16 7.16895 -16 16v61.5898c0 0.121094 -0.0195312 0.300781 -0.0195312 0.421875c0 39.5742 -14.9482 75.6846 -39.5 102.988 c-35.0801 38.79 -56.4805 90.29 -56.4805 146.656v0.09375v40.25c0 8.83105 7.16895 16 16 16h32c8.83105 0 16 -7.16895 16 -16v-40.25c0 -0.0976562 0.0195312 -0.253906 0.0195312 -0.351562c0 -39.623 14.9707 -75.7764 39.5605 -103.108z"/>
    <glyph glyph-name="house-primary" unicode="" horiz-adv-x="576" d="M571.9 189.13l-21.4102 -23.8096c-1.7998 -2 -12.46 -10.2305 -22.5898 -1.2207l-239.9 211.9l-239.88 -211.9c-9.2998 -8.36914 -19.8105 -1.89941 -22.5898 1.2002l-21.4102 23.7998c-8.37012 9.30078 -1.90039 19.8105 1.2002 22.6006l256 226 c6.26953 5.68945 18.25 10.2998 26.6797 10.2998s20.4404 -4.61035 26.7197 -10.2998l101.28 -89.3701v51.6699c0 8.83105 7.16895 16 16 16h64c8.83105 0 16 -7.16895 16 -16v-136.44l58.6904 -51.8291c3.09961 -2.79004 9.54004 -13.2705 1.20996 -22.6006z"/>
    <glyph glyph-name="house-day-primary" unicode="" horiz-adv-x="640" d="M635.23 155.58c2.91602 -2.61035 4.74414 -6.40723 4.74414 -10.626c0 -3.61133 -1.34668 -6.91113 -3.56445 -9.42383l-18.79 -21.2803c-2.61523 -2.91895 -6.41895 -4.74707 -10.6426 -4.74707c-3.57812 0 -6.85059 1.31934 -9.35742 3.49707l-21.6201 19.1504v-164.15 c0 -17.6611 -14.3389 -32 -32 -32h-288c-17.6611 0 -32 14.3389 -32 32v164.13l-21.5996 -19.1299c-2.50098 -2.19824 -5.78516 -3.54199 -9.37305 -3.54199c-4.25391 0 -8.07422 1.87402 -10.6777 4.8418l-18.79 21.2803c-2.20703 2.5 -3.55566 5.78809 -3.55566 9.38184 c0 4.22363 1.85156 8.01953 4.78613 10.6182l211.8 187.5c6.24023 5.54395 14.4863 8.91211 23.4814 8.91211c8.99414 0 17.209 -3.36816 23.4482 -8.91211l88.4805 -78.3701v39.29c0 8.83105 7.16895 16 16 16h32c8.83105 0 16 -7.16895 16 -16v-96zM448 80v64 c0 8.83105 -7.16895 16 -16 16h-64c-8.83105 0 -16 -7.16895 -16 -16v-64c0 -8.83105 7.16895 -16 16 -16h64c8.83105 0 16 7.16895 16 16z"/>
    <glyph glyph-name="house-leave-primary" unicode="" horiz-adv-x="640" d="M393.55 62.2598l20.75 51.4902c8.7002 -11.9004 -7.88965 6.59961 47.4004 -53.6904l-13.5 -33.79c-3.27344 -8.12207 -8.11426 -15.4004 -14.2002 -21.5l-59.4502 -59.3896c-5.71875 -5.33984 -13.4043 -8.60156 -21.8389 -8.60156c-17.6611 0 -32 14.3389 -32 32 c0 8.45996 3.29004 16.1572 8.65918 21.8818l50 50.1094c6.1377 6.04395 10.9844 13.332 14.1797 21.4902zM528 352c-26.4922 0 -48 21.5078 -48 48s21.5078 48 48 48s48 -21.5078 48 -48s-21.5078 -48 -48 -48zM622.42 202.94 c10.4404 -5.37402 17.5371 -16.2705 17.5371 -28.8115c0 -5.08398 -1.1748 -9.89648 -3.2666 -14.1787c-5.1377 -10.4746 -15.9219 -17.6436 -28.3662 -17.6436c-5.07617 0 -9.87402 1.2002 -14.124 3.33301l-23.2998 11.8105c-14.9434 7.5918 -26.4209 20.8584 -31.7002 37 l-5.5 16.4902l-17.2002 -68.6904l45.5 -49.7002c7.0752 -7.70801 12.2822 -17.209 14.9004 -27.6797l22.1992 -89c0.621094 -2.48633 0.955078 -5.05859 0.955078 -7.73633c0 -17.6621 -14.3398 -32.002 -32.002 -32.002c-14.9854 0 -27.5791 10.3223 -31.0527 24.2383 l-18.2197 73.29c-2.63477 10.4639 -7.83105 19.9678 -14.8799 27.7002l-59.9004 65.3896c-10.4268 11.4209 -16.7891 26.6084 -16.7891 43.2764c0 5.33398 0.651367 10.5166 1.87891 15.4736l15.2002 60.6904l-26.7998 -10.79 c-7.21484 -2.95508 -13.0684 -8.44141 -16.4902 -15.4004l-6.75 -13.5898c-5.13379 -10.4756 -15.918 -17.6475 -28.3613 -17.6475c-5.07812 0 -9.87695 1.20215 -14.1289 3.33691c-10.4287 5.30957 -17.5283 16.1602 -17.5283 28.6553 c0 5.11426 1.19824 9.95117 3.32812 14.2451l6.7002 13.6201c10.3203 20.915 27.9658 37.3828 49.7002 46.2002c37.4004 15.1094 57.2803 25.29 93.2803 25.1992c46.4902 -0.0898438 87.4902 -31.2891 102.189 -75.8994l9.7002 -29.3799z"/>
    <glyph glyph-name="house-night-primary" unicode="" horiz-adv-x="640" d="M635.23 155.58c2.91602 -2.61035 4.74414 -6.40723 4.74414 -10.626c0 -3.61133 -1.34668 -6.91113 -3.56445 -9.42383l-18.79 -21.2803c-2.61523 -2.91895 -6.41895 -4.74707 -10.6426 -4.74707c-3.57812 0 -6.85059 1.31934 -9.35742 3.49707l-21.6201 19.1602v-164.16 c0 -17.6611 -14.3389 -32 -32 -32h-288c-17.6611 0 -32 14.3389 -32 32v164.13l-21.6396 -19.0801c-2.50195 -2.19434 -5.78418 -3.53418 -9.36914 -3.53418c-4.22852 0 -8.02734 1.84961 -10.6309 4.78418l-18.79 21.2803c-2.20703 2.5 -3.55566 5.78809 -3.55566 9.38184 c0 4.22363 1.85059 8.01953 4.78516 10.6182l211.79 187.5c6.24023 5.54395 14.4863 8.91211 23.4814 8.91211c8.99414 0 17.209 -3.36816 23.4482 -8.91211l88.4805 -78.3701v39.29c0 8.83105 7.16895 16 16 16h32c8.83105 0 16 -7.16895 16 -16v-96zM448 80v64 c-0.0273438 8.81836 -7.18164 15.9727 -16 16h-64c-8.83105 0 -16 -7.16895 -16 -16v-64c0 -8.83105 7.16895 -16 16 -16h64c8.81836 0.0273438 15.9727 7.18164 16 16z"/>
    <glyph glyph-name="house-return-primary" unicode="" horiz-adv-x="640" d="M531 185.52c1.23438 -4.9668 1.88867 -10.1572 1.88867 -15.5049c0 -16.6748 -6.37109 -31.874 -16.8086 -43.2949l-59.9004 -65.3896c-7.05273 -7.72949 -12.249 -17.2344 -14.8799 -27.7002l-18.2998 -73.2803c-3.47363 -13.916 -16.0615 -24.2666 -31.0479 -24.2666 c-17.6621 0 -32.002 14.3398 -32.002 32.0029c0 2.67676 0.329102 5.27832 0.950195 7.76367l22.1992 89c2.61719 10.4746 7.82422 19.9795 14.9004 27.6904l45.4297 49.6797l-17.1992 68.6904l-5.5 -16.4902c-5.2832 -16.1396 -16.7598 -29.4053 -31.7002 -37 l-23.2998 -11.8096c-4.25 -2.13086 -9.05859 -3.37891 -14.1328 -3.37891c-12.4443 0 -23.2168 7.21582 -28.3574 17.6885c-2.09082 4.28223 -3.31543 9.10352 -3.31543 14.1855c0 12.5527 7.16016 23.4453 17.6152 28.8145l23.29 11.7998l9.7002 29.3799 c14.7002 44.6006 55.7002 75.8008 102.189 75.8906c35.9902 0.0996094 55.8799 -10.0898 93.2803 -25.2002c21.7344 -8.81641 39.3809 -25.2842 49.7002 -46.2002l6.7002 -13.5898c2.12988 -4.29395 3.37891 -9.14258 3.37891 -14.2568 c0 -12.4951 -7.15039 -23.334 -17.5791 -28.6436c-4.25098 -2.13281 -9.06152 -3.38184 -14.1367 -3.38184c-12.4443 0 -23.2158 7.21777 -28.3535 17.6924l-6.70996 13.5898c-3.39844 6.95215 -9.21777 12.4424 -16.4004 15.4199l-26.7998 10.79zM432 352 c-26.4922 0 -48 21.5078 -48 48s21.5078 48 48 48s48 -21.5078 48 -48s-21.5078 -48 -48 -48zM630.63 -9.33984c5.41699 -5.7334 8.73047 -13.4736 8.73047 -21.9756c0 -17.6621 -14.3389 -32 -32 -32c-8.47363 0 -16.1826 3.30078 -21.9102 8.68555l-59.4004 59.3994 c-6.08594 6.0957 -10.9268 13.3711 -14.2002 21.4902l-13.5 33.79c55.29 60.2803 38.7002 41.79 47.4004 53.6904l20.7002 -51.4902c3.19531 -8.1582 8.04199 -15.4473 14.1797 -21.4902z"/>
    <glyph glyph-name="house-signal-primary" unicode="" horiz-adv-x="640" d="M0 32c52.9834 0 96 -43.0166 96 -96h-96v96zM0 128c106 0 192 -86 192 -192h-63.9297c-0.0283203 70.6709 -57.3994 128.042 -128.07 128.07v63.9297zM0 224c159.06 0 288 -128.94 288 -288h-63.9297c0 123.71 -100.36 224.07 -224.07 224.07v63.9297z"/>
    <glyph glyph-name="lamp-desk-primary" unicode="" d="M320 0c28.4199 0 55 -18.5303 63.3096 -44.1602c3.20996 -9.83984 -5.17969 -19.8398 -15.5693 -19.8398h-351.48c-10.3799 0 -18.7793 10 -15.5596 19.8398c8.34961 25.6299 34.8799 44.1602 63.2998 44.1602h256zM494.41 384c15.6396 0 23.4697 -18.9004 12.4102 -30 l-220.801 -220.82c-11.0996 -11.0596 -30 -3.22949 -30 12.4004v147.9l-0.279297 0.279297l-45 45c-11.1953 11.5283 -18.0752 27.2705 -18.0752 44.5928c0 35.3223 28.6777 64 64 64c17.3232 0 33.0469 -6.89746 44.5752 -18.0928l45.2598 -45.2598h147.91z"/>
    <glyph glyph-name="lamp-floor-primary" unicode="" horiz-adv-x="384" d="M256 0c28.4199 0 55 -18.5303 63.2998 -44.1602c3.21973 -9.83984 -5.17969 -19.8398 -15.5596 -19.8398h-223.48c-10.3799 0 -18.7793 10 -15.5596 19.8398c8.34961 25.6299 34.8799 44.1602 63.2998 44.1602h128zM381.38 268.61 c1.65723 -3.86426 2.58887 -8.14258 2.58887 -12.6104c0 -17.6504 -14.3223 -31.9834 -31.9688 -32h-320c-17.6465 0.0166016 -31.9541 14.3721 -31.9541 32.0234c0 4.46777 0.916992 8.72266 2.57422 12.5869l68.5801 160c4.89258 11.4111 16.2168 19.3896 29.4102 19.3896 h182.779c13.1934 0 24.5176 -7.97852 29.4102 -19.3896z"/>
    <glyph glyph-name="light-ceiling-primary" unicode="" d="M256.28 288.17c128.239 0 238.04 -94.4102 255.439 -219.61c0.200195 -1.44531 0.303711 -2.88867 0.303711 -4.38965c0 -17.6611 -14.3389 -32 -32 -32h-0.0234375l-448 -0.169922v0c-17.6592 0.00292969 -31.9961 14.3076 -31.9961 31.9678 c0 1.55566 0.111328 3.08594 0.326172 4.58203c17.9502 125.2 128.02 219.62 255.95 219.62z"/>
    <glyph glyph-name="light-switch-primary" unicode="" horiz-adv-x="384" d="M320 448c35.3223 0 64 -28.6777 64 -64v-384c0 -35.3223 -28.6777 -64 -64 -64h-256c-35.3223 0 -64 28.6777 -64 64v384c0 35.3223 28.6777 64 64 64h256zM192 416c-8.83105 0 -16 -7.16895 -16 -16s7.16895 -16 16 -16s16 7.16895 16 16s-7.16895 16 -16 16zM192 -32 c8.83105 0 16 7.16895 16 16s-7.16895 16 -16 16s-16 -7.16895 -16 -16s7.16895 -16 16 -16zM288 192v112c0 26.4922 -21.5078 48 -48 48h-96c-26.4922 0 -48 -21.5078 -48 -48v-224c0 -26.4922 21.5078 -48 48 -48h96c26.4922 0 48 21.5078 48 48v112z"/>
    <glyph glyph-name="light-switch-off-primary" unicode="" horiz-adv-x="384" d="M320 448c35.3223 0 64 -28.6777 64 -64v-384c0 -35.3223 -28.6777 -64 -64 -64h-256c-35.3223 0 -64 28.6777 -64 64v384c0 35.3223 28.6777 64 64 64h256zM192 416c-8.83105 0 -16 -7.16895 -16 -16s7.16895 -16 16 -16s16 7.16895 16 16s-7.16895 16 -16 16zM192 -32 c8.83105 0 16 7.16895 16 16s-7.16895 16 -16 16s-16 -7.16895 -16 -16s7.16895 -16 16 -16zM288 192v112c0 26.4922 -21.5078 48 -48 48h-96c-26.4922 0 -48 -21.5078 -48 -48v-224c0 -26.4922 21.5078 -48 48 -48h96c26.4922 0 48 21.5078 48 48v112z"/>
    <glyph glyph-name="light-switch-on-primary" unicode="" horiz-adv-x="384" d="M64 -64c-35.3223 0 -64 28.6777 -64 64v384c0 35.3223 28.6777 64 64 64h256c35.3223 0 64 -28.6777 64 -64v-384c0 -35.3223 -28.6777 -64 -64 -64h-256zM192 -32c8.83105 0 16 7.16895 16 16s-7.16895 16 -16 16s-16 -7.16895 -16 -16s7.16895 -16 16 -16zM192 416 c-8.83105 0 -16 -7.16895 -16 -16s7.16895 -16 16 -16s16 7.16895 16 16s-7.16895 16 -16 16zM96 192v-112c0 -26.4922 21.5078 -48 48 -48h96c26.4922 0 48 21.5078 48 48v224c0 26.4922 -21.5078 48 -48 48h-96c-26.4922 0 -48 -21.5078 -48 -48v-112z"/>
    <glyph glyph-name="microwave-primary" unicode="" d="M464 384c26.4922 0 48 -21.5078 48 -48v-256c0 -26.4922 -21.5078 -48 -48 -48l-24 -32h-48l-24 32h-224l-24 -32h-48l-24 32c-26.4922 0 -48 21.5078 -48 48v256c0 26.4922 21.5078 48 48 48h416zM384 96v224h-320v-224h320zM448 168c13.2461 0 24 10.7539 24 24 s-10.7539 24 -24 24s-24 -10.7539 -24 -24s10.7539 -24 24 -24zM448 264c13.2461 0 24 10.7539 24 24s-10.7539 24 -24 24s-24 -10.7539 -24 -24s10.7539 -24 24 -24z"/>
    <glyph glyph-name="outlet-primary" unicode="" d="M448 448c35.3223 0 64 -28.6777 64 -64v-384c0 -35.3223 -28.6777 -64 -64 -64h-384c-35.3223 0 -64 28.6777 -64 64v384c0 35.3223 28.6777 64 64 64h384zM386.27 38.71c38.0205 39.0098 61.7305 93.1904 61.7305 153.29s-23.7305 114.3 -61.7305 153.3 c-4.14746 4.1416 -9.87109 6.70117 -16.1904 6.70117c-0.0761719 0 -0.152344 0 -0.229492 -0.000976562h-227.699c-0.0771484 0.000976562 -0.152344 0.00390625 -0.228516 0.00390625c-6.31934 0 -12.0439 -2.5625 -16.1914 -6.7041 c-38.0205 -39.0098 -61.7305 -93.2002 -61.7305 -153.3s23.71 -114.28 61.7305 -153.29c4.14941 -4.14746 9.87891 -6.71094 16.2041 -6.71094c0.0722656 0 0.143555 0 0.21582 0.000976562h227.699c0.0722656 -0.000976562 0.142578 -0.00390625 0.214844 -0.00390625 c6.3252 0 12.0557 2.56641 16.2051 6.71387z"/>
    <glyph glyph-name="oven-primary" unicode="" horiz-adv-x="448" d="M384 448c35.3223 0 64 -28.6777 64 -64v-96h-448v96c0 35.3223 28.6777 64 64 64h320zM80 344c13.2461 0 24 10.7539 24 24s-10.7539 24 -24 24s-24 -10.7539 -24 -24s10.7539 -24 24 -24zM176 344c13.2461 0 24 10.7539 24 24s-10.7539 24 -24 24s-24 -10.7539 -24 -24 s10.7539 -24 24 -24zM272 344c13.2461 0 24 10.7539 24 24s-10.7539 24 -24 24s-24 -10.7539 -24 -24s10.7539 -24 24 -24zM368 344c13.2461 0 24 10.7539 24 24s-10.7539 24 -24 24s-24 -10.7539 -24 -24s10.7539 -24 24 -24zM0 -32v288h448v-288 c0 -17.6611 -14.3389 -32 -32 -32h-384c-17.6611 0 -32 14.3389 -32 32zM64 192v-192h320v192h-320zM96 128v32h256v-32h-256z"/>
    <glyph glyph-name="planet-moon-primary" unicode="" horiz-adv-x="576" d="M512 448c35.3223 0 64 -28.6777 64 -64s-28.6777 -64 -64 -64s-64 28.6777 -64 64s28.6777 64 64 64zM288 160c17.6611 0 32 -14.3389 32 -32v-16.8906c0 -10.2617 -2.45801 -20.0273 -6.75781 -28.627l-40.3242 -80.6484 c-4.02441 -8.04395 -11.7305 -13.9111 -20.8945 -15.4531c-3.44141 -0.581055 -6.91406 -1.05859 -10.418 -1.43359c-0.523438 -0.0517578 -1.03809 -0.078125 -1.5752 -0.078125c-8.84766 0 -16.0303 7.18262 -16.0303 16.0303v0.0322266 c-0.00390625 23.4785 -0.0078125 63.0684 0 63.0684c-17.6611 0.000976562 -31.999 14.3389 -32 32v32l-54.625 54.6289c-5.79395 5.79102 -13.7979 9.37109 -22.6289 9.37109l-25.0273 0.00195312c-29.9961 -0.00195312 -55.2734 27.4375 -71.5156 56.4355 c33.8145 78.5654 111.288 133.802 201.82 135.361c17.6875 -28.5098 35.9766 -67.002 35.9766 -76.4199c-0.000976562 -13.1016 -3.98438 -25.3545 -10.75 -35.5039l-49.7266 -57.3574c-4.86914 -5.61523 -7.82812 -12.9609 -7.82812 -20.9688 c0 -8.83008 3.58398 -16.8291 9.375 -22.6211c6.75488 -6.75293 16.0869 -10.9268 26.3828 -10.9277h64.5469z"/>
    <glyph glyph-name="planet-ringed-primary" unicode="" d="M448.1 271.72c31.2588 -75.418 16.293 -165.478 -45.0244 -226.796c-61.3184 -61.3174 -151.38 -76.2812 -226.796 -45.0244c46.0244 31.9658 96.8154 74.5234 147.059 124.766c50.2363 50.2393 92.7959 101.032 124.762 147.055zM423.079 315.502 c-27.7393 -42.2568 -75.1777 -98.9326 -133.414 -157.166c-58.2354 -58.2363 -114.917 -105.677 -157.168 -133.416c-8.4082 6.11914 -16.1934 12.7236 -23.5869 20.0039c-81.2285 81.2314 -81.2285 212.935 0 294.165c81.2295 81.2334 212.936 81.2334 294.165 0 c7.28027 -7.39258 13.8848 -15.1777 20.0039 -23.5869z"/>
    <glyph glyph-name="police-box-primary" unicode="" horiz-adv-x="384" d="M352 -16h-320v376c0 13.2461 10.7539 24 24 24h8v16c0 8.83008 7.16992 16 16 16h223.977c8.83008 0 16 -7.16992 16 -16v-16h8.02344c13.2461 0 24 -10.7539 24 -24v-376zM96 312v-24h32v32h-24c-4.41504 0 -8 -3.58496 -8 -8zM96 272v-24c0 -4.41504 3.58496 -8 8 -8 h24v32h-32zM176 136v64c0 4.41504 -3.58496 8 -8 8h-64c-4.41504 0 -8 -3.58496 -8 -8v-64c0 -4.41504 3.58496 -8 8 -8h64c4.41504 0 8 3.58496 8 8zM176 248v24h-32v-32h24c4.41504 0 8 3.58496 8 8zM176 288v24c0 4.41504 -3.58496 8 -8 8h-24v-32h32zM240 240v32h-32 v-24c0 -4.41504 3.58496 -8 8 -8h24zM240 288v32h-24c-4.41504 0 -8 -3.58496 -8 -8v-24h32zM288 248v24h-32v-32h24c4.41504 0 8 3.58496 8 8zM288 288v24c0 4.41504 -3.58496 8 -8 8h-24v-32h32z"/>
    <glyph glyph-name="portal-enter-primary" unicode="" d="M113.688 130.521c8.0625 -17.8457 21.3076 -32.6357 38 -42.6094l10.6562 -6.29688l-8.78125 -20.5332c-7.31836 -17.1104 -24.2881 -29.0781 -44.0615 -29.0781h-0.0634766h-77.4375c-17.6436 0.0224609 -31.96 14.3525 -31.96 32.001s14.3164 31.9785 31.96 32.001 h66.875zM272 351.998c-26.4912 0.000976562 -47.999 21.5088 -48 48c0 26.4922 21.5078 48.002 48 48.002s48.001 -21.5088 48.001 -48.001s-21.5088 -48.001 -48.001 -48.001zM384 224.01c17.6621 0 32.001 -14.3389 32.001 -32.001s-14.3389 -32.001 -32.001 -32.001h-54 c-18.9053 0.0712891 -35.2383 10.9893 -43.0938 26.8906l-20.2812 41.4395l-31.3125 -78.2832l61.25 -36.1426c14.0605 -8.41406 23.4248 -23.7529 23.4248 -41.3164c0 -4.53125 -0.62793 -8.91797 -1.7998 -13.0762l-31.625 -101.064 c-4.04492 -13.0029 -16.1758 -22.4482 -30.502 -22.4482c-3.35254 0 -6.58594 0.517578 -9.62305 1.47754c-12.9814 4.06738 -22.4023 16.1924 -22.4023 30.5068c0 3.34082 0.512695 6.56152 1.46484 9.58887l27.4375 87.7207l-84.9375 50.1738 c-18.8545 11.1797 -31.4072 31.7432 -31.4072 55.2334c0 8.89844 1.81445 17.375 5.09473 25.0811l37.4375 87.3945l-14.6875 4.375c-7.8125 1.85938 -17.5938 -0.25 -25.25 -6.14062l-39.6875 -30.4082c-5.39062 -4.13281 -12.1836 -6.61914 -19.4941 -6.61914 c-17.6592 0 -31.9961 14.3369 -31.9961 31.9961c0 10.3486 4.92285 19.5557 12.5527 25.4062l39.625 30.4062c16.1396 12.4111 36.3711 19.8291 58.2852 19.8291c7.78125 0 15.3457 -0.930664 22.5898 -2.68652l71.0625 -21.1426 c26.3125 -6.71875 49.2812 -25.3906 61.7812 -50.9375l26.0625 -53.252h44.0312z"/>
    <glyph glyph-name="portal-exit-primary" unicode="" d="M368 351.998c-26.4912 0.000976562 -47.999 21.5088 -48 48c0 26.4922 21.5078 48.002 48 48.002s48.001 -21.5088 48.001 -48.001s-21.5088 -48.001 -48.001 -48.001zM209.688 130.521c8.0625 -17.8457 21.3076 -32.6357 38 -42.6094l10.6562 -6.29688 l-8.78125 -20.5332c-7.31836 -17.1104 -24.2881 -29.0781 -44.0615 -29.0781h-0.0634766h-77.4375c-17.6436 0.0224609 -31.96 14.3525 -31.96 32.001s14.3164 31.9785 31.96 32.001h66.875zM480 224.01c17.6621 0 32.001 -14.3389 32.001 -32.001 s-14.3389 -32.001 -32.001 -32.001h-54c-18.9053 0.0712891 -35.2383 10.9893 -43.0938 26.8906l-20.2812 41.4395l-31.3125 -78.2832l61.25 -36.1426c14.0605 -8.41406 23.4248 -23.7529 23.4248 -41.3164c0 -4.53125 -0.62793 -8.91797 -1.7998 -13.0762l-31.625 -101.064 c-4.04492 -13.0029 -16.1758 -22.4482 -30.502 -22.4482c-3.35254 0 -6.58594 0.517578 -9.62305 1.47754c-12.9814 4.06738 -22.4023 16.1924 -22.4023 30.5068c0 3.34082 0.512695 6.56152 1.46484 9.58887l27.4375 87.7207l-84.9375 50.1738 c-18.8545 11.1797 -31.4072 31.7432 -31.4072 55.2334c0 8.89844 1.81445 17.375 5.09473 25.0811l37.4375 87.3945l-14.6875 4.375c-7.8125 1.85938 -17.5938 -0.25 -25.25 -6.14062l-39.6875 -30.4082c-5.39062 -4.13281 -12.1836 -6.61914 -19.4941 -6.61914 c-17.6592 0 -31.9961 14.3369 -31.9961 31.9961c0 10.3486 4.92285 19.5557 12.5527 25.4062l39.625 30.4062c16.1396 12.4111 36.3711 19.8291 58.2852 19.8291c7.78125 0 15.3457 -0.930664 22.5898 -2.68652l71.0625 -21.1426 c26.3125 -6.71875 49.2812 -25.3906 61.7812 -50.9375l26.0625 -53.252h44.0312z"/>
    <glyph glyph-name="radar-primary" unicode="" d="M227.305 2.375c-82.7402 12.5254 -148.404 78.1895 -160.93 160.93c4.10059 -2.04688 8.74902 -3.24121 13.625 -3.30469c7.07031 0 13.2656 2.75 18.5625 6.63477c10.9287 -67.5703 64.5 -121.142 132.07 -132.07 c-3.88281 -5.29688 -6.63281 -11.4922 -6.63281 -18.5645c0.0634766 -4.87598 1.25781 -9.52441 3.30469 -13.625zM281.367 34.5645c76.1328 12.2598 134.633 77.8965 134.633 157.436h32c0 -96.2598 -70.9141 -175.74 -163.305 -189.625 c2.04688 4.10059 3.24121 8.74902 3.30469 13.625c0 7.07227 -2.75 13.2676 -6.63281 18.5645zM475.312 400.004c2.89648 -2.89551 4.68945 -6.90039 4.68945 -11.3154c0 -4.41602 -1.79297 -8.41602 -4.68945 -11.3115l-201.371 -201.373 c-2.89648 -2.89648 -6.90137 -4.68848 -11.3164 -4.68848c-4.41602 0 -8.41602 1.79199 -11.3125 4.68848l-11.3086 11.3105c-2.89551 2.89648 -4.68652 6.90039 -4.68652 11.3154s1.79102 8.41504 4.68652 11.3115l40.7148 40.7129 c-7.5459 3.36035 -15.9453 5.28418 -24.7188 5.3457c-35.3223 0 -64 -28.6777 -64 -64s28.6777 -64 64 -64s64 28.6777 64 64h32c0 -52.9834 -43.0166 -96 -96 -96s-96 43.0166 -96 96s43.0166 96 96 96c17.708 -0.0126953 34.376 -5.00098 48.5078 -13.5547 l45.6211 45.6211c-26.4805 19.6523 -58.6875 31.9336 -94.1289 31.9336c-79.5391 0 -145.176 -58.498 -157.438 -134.633c-5.29688 3.88477 -11.4922 6.63281 -18.5625 6.63281c-4.87598 -0.0625 -9.52441 -1.25684 -13.625 -3.30273 c13.8828 92.3887 93.3672 163.303 189.625 163.303c0.0332031 0 0.208008 -0.078125 0.241211 -0.078125c44.2344 0 84.9717 -15.0947 117.337 -40.4082l67.7969 67.8008c2.89648 2.89648 6.90137 4.68848 11.3164 4.68848c4.41602 0 8.41602 -1.79199 11.3125 -4.68848z "/>
    <glyph glyph-name="raygun-primary" unicode="" horiz-adv-x="576" d="M554.938 328.989c1.58984 0.530273 3.29297 0.821289 5.05957 0.821289c8.83105 0 16.001 -7.16797 16.0029 -15.999v-83.5801c-0.00195312 -8.83105 -7.1748 -15.9961 -16.0068 -15.9961c-1.76953 0 -3.47168 0.288086 -5.06348 0.818359l-74.8125 24.9707h-64.0742 v63.9922h63.957zM112 383.999h128c17.1592 -0.0859375 33.5166 -4.13965 48 -11.1914v-201.617c-14.4834 -7.05078 -30.8408 -11.1045 -48 -11.1914h-128h-0.0341797c-61.8145 0 -112 50.1855 -112 112s50.1855 112 112 112h0.0341797zM111.953 248.022 c13.2451 0.000976562 23.998 10.7539 24 23.998c0 13.2451 -10.7529 23.998 -23.998 23.998s-23.998 -10.7529 -23.998 -23.998c0 -13.2441 10.752 -23.9961 23.9961 -23.998zM207.961 248.022c13.2451 0 24 10.7539 24 23.998c0 13.2451 -10.7529 23.998 -23.998 23.998 s-23.998 -10.7529 -23.998 -23.998c0 -13.2441 10.752 -23.9961 23.9961 -23.998z"/>
    <glyph glyph-name="refrigerator-primary" unicode="" horiz-adv-x="384" d="M0 255.5v32h288v-32h-288zM320 287.5h64v-32h-64v32z"/>
    <glyph glyph-name="rocket-launch-primary" unicode="" d="M505.16 428.484c6.96875 -32.5723 6.90234 -58.0918 6.82422 -83.1816c0 -88.7656 -40.625 -156.217 -127.859 -212.277c-0.957031 -0.548828 -1.82812 -1.04883 -2.78906 -1.59766c-33.9609 -17.0078 -110.062 -54.6797 -157.336 -78.0742v10.6465 c0 52.9834 -43.0166 96 -96 96h-10.5391c23.4414 47.4121 61.0117 123.373 77.8906 157.328c0.554688 0.976562 1.06641 1.875 1.625 2.85352c55.832 87.2031 123.359 127.818 212.508 127.818c24.8906 0 50.7422 0 83.1406 -6.94531 c6.21094 -1.44043 11.1113 -6.35254 12.5352 -12.5703zM368 256c26.4873 0.0117188 47.9893 21.5146 48 48.002c-0.000976562 26.4912 -21.5088 47.998 -48 47.998c-26.4922 0 -48 -21.5078 -48 -48s21.5078 -48 48 -48zM78.8672 66.6484 c16.7812 16.7852 39.1641 17.8633 54.3984 2.62891c15.2305 -15.2363 14.1562 -37.6152 -2.62891 -54.3984c-10.7305 -10.7324 -37.6055 -16.1113 -66.4023 -14.627c-1.46484 28.6738 3.85938 55.623 14.6328 66.3965z"/>
    <glyph glyph-name="sensor-primary" unicode="" horiz-adv-x="448" d="M80 352c8.83105 0 16 -7.16895 16 -16v-160c0 -8.83105 -7.16895 -16 -16 -16s-16 7.16895 -16 16v160c0 8.83105 7.16895 16 16 16zM144 352c8.83105 0 16 -7.16895 16 -16v-160c0 -8.83105 -7.16895 -16 -16 -16s-16 7.16895 -16 16v160c0 8.83105 7.16895 16 16 16z M208 352c8.83105 0 16 -7.16895 16 -16v-160c0 -8.83105 -7.16895 -16 -16 -16s-16 7.16895 -16 16v160c0 8.83105 7.16895 16 16 16z"/>
    <glyph glyph-name="sensor-alert-primary" unicode="" horiz-adv-x="640" d="M633.09 44.6299c19.6504 -34.0596 -4.93945 -76.6299 -44.2695 -76.6299h-281.641c-39.3398 0 -63.9199 42.5703 -44.2695 76.6396l140.83 244.141c19.6602 34.0996 68.8594 34.0996 88.5293 0zM448 16c13.2461 0 24 10.7539 24 24s-10.7539 24 -24 24 s-24 -10.7539 -24 -24s10.7539 -24 24 -24zM467.08 98.7998l9.59961 96c0.0400391 0.398438 0.0605469 0.791016 0.0605469 1.2002c0 6.62305 -5.37695 12 -12 12h-33.4707c-6.62207 0 -12 -5.36523 -12 -11.9883c0 -0.408203 0.0205078 -0.813477 0.0605469 -1.21191 l9.58984 -96c0.608398 -6.05469 5.72559 -10.7998 11.9395 -10.7998h0.0107422h14.2695c6.21387 0 11.332 4.74512 11.9404 10.7998zM80 352c8.83105 0 16 -7.16895 16 -16v-160c0 -8.83105 -7.16895 -16 -16 -16s-16 7.16895 -16 16v160c0 8.83105 7.16895 16 16 16z M144 352c8.83105 0 16 -7.16895 16 -16v-160c0 -8.83105 -7.16895 -16 -16 -16s-16 7.16895 -16 16v160c0 8.83105 7.16895 16 16 16zM208 352c8.83105 0 16 -7.16895 16 -16v-160c0 -8.83105 -7.16895 -16 -16 -16s-16 7.16895 -16 16v160c0 8.83105 7.16895 16 16 16z"/>
    <glyph glyph-name="sensor-fire-primary" unicode="" horiz-adv-x="640" d="M551.13 297.14c51.75 -48.0293 88.8701 -126.52 88.8701 -164.569c0 -90.9004 -71.6602 -164.57 -160 -164.57s-160 73.6699 -160 164.57c0 51.1396 49.8203 136.029 120 201.14c26.3115 -24.2529 49.7891 -50.502 71 -79.4102 c12.4707 15.2959 25.6924 29.4092 40.1299 42.8398zM540.07 50.1396c36.9297 25.8506 45.5898 75.8604 25.0693 115c-2.50977 4.85059 -5.33008 9.87988 -8.43945 15l-44 -50.1396s-68.9199 88 -74.1006 94c-36.3691 -43.5898 -54.5996 -69.0703 -54.5996 -98.0703 c0 -58.1201 44.0498 -93.9297 98.1602 -93.9297c0.0673828 0 0.227539 0.0566406 0.295898 0.0566406c21.4121 0 41.2754 6.68652 57.6143 18.083zM208 352c8.83105 0 16 -7.16895 16 -16v-160c0 -8.83105 -7.16895 -16 -16 -16s-16 7.16895 -16 16v160 c0 8.83105 7.16895 16 16 16zM80 352c8.83105 0 16 -7.16895 16 -16v-160c0 -8.83105 -7.16895 -16 -16 -16s-16 7.16895 -16 16v160c0 8.83105 7.16895 16 16 16zM144 352c8.83105 0 16 -7.16895 16 -16v-160c0 -8.83105 -7.16895 -16 -16 -16s-16 7.16895 -16 16v160 c0 8.83105 7.16895 16 16 16z"/>
    <glyph glyph-name="sensor-on-primary" unicode="" horiz-adv-x="640" d="M616 216c13.2461 0 24 -10.7539 24 -24s-10.7539 -24 -24 -24h-64c-13.2461 0 -24 10.7539 -24 24s10.7539 24 24 24h64zM536 304c-13.2197 0.03125 -23.9678 10.7588 -23.9678 23.9854c0 8.30176 4.22363 15.624 10.6377 19.9346l48 32 c3.91211 2.76855 8.73633 4.42383 13.8887 4.42383c13.2461 0 24 -10.7539 24 -24c0 -8.57031 -4.50195 -16.0977 -11.2686 -20.3438l-48 -32c-3.78223 -2.51758 -8.3457 -4 -13.2266 -4h-0.0634766zM549.29 76l48.0195 -32 c6.47168 -4.30664 10.6904 -11.6367 10.6904 -19.9854c0 -13.2598 -10.7646 -24.0244 -24.0244 -24.0244c-4.91113 0 -9.47949 1.47656 -13.2852 4.00977l-48 32c-6.47363 4.30469 -10.6943 11.6357 -10.6943 19.9854c0 13.2568 10.7617 24.0186 24.0186 24.0186 c4.90625 0 9.47168 -1.47461 13.2754 -4.00391zM80 352c8.83105 0 16 -7.16895 16 -16v-160c0 -8.83105 -7.16895 -16 -16 -16s-16 7.16895 -16 16v160c0 8.83105 7.16895 16 16 16zM208 352c8.83105 0 16 -7.16895 16 -16v-160c0 -8.83105 -7.16895 -16 -16 -16 s-16 7.16895 -16 16v160c0 8.83105 7.16895 16 16 16zM144 352c8.83105 0 16 -7.16895 16 -16v-160c0 -8.83105 -7.16895 -16 -16 -16s-16 7.16895 -16 16v160c0 8.83105 7.16895 16 16 16z"/>
    <glyph glyph-name="sensor-smoke-primary" unicode="" horiz-adv-x="640" d="M572.66 126.72c38.1182 -6.02637 67.3828 -39.0684 67.3828 -78.8701c0 -44.0703 -35.7793 -79.8496 -79.8496 -79.8496h-0.193359h-224c-44.1533 0 -80 35.8467 -80 80s35.8467 80 80 80c0.55957 0 1.08008 -0.169922 1.63965 -0.169922 c-1.07227 5.2168 -1.66797 10.6045 -1.66797 16.1377c0 44.1201 35.8193 79.9395 79.9395 79.9395c33.748 0 62.6396 -20.958 74.3584 -50.5576c8.74512 11.3594 22.4365 18.6201 37.8662 18.6201c26.3867 0 47.8096 -21.4229 47.8096 -47.8105 c0 -6.15234 -1.16406 -12.0352 -3.28516 -17.4395zM80 352c8.83105 0 16 -7.16895 16 -16v-160c0 -8.83105 -7.16895 -16 -16 -16s-16 7.16895 -16 16v160c0 8.83105 7.16895 16 16 16zM144 352c8.83105 0 16 -7.16895 16 -16v-160c0 -8.83105 -7.16895 -16 -16 -16 s-16 7.16895 -16 16v160c0 8.83105 7.16895 16 16 16zM208 352c8.83105 0 16 -7.16895 16 -16v-160c0 -8.83105 -7.16895 -16 -16 -16s-16 7.16895 -16 16v160c0 8.83105 7.16895 16 16 16z"/>
    <glyph glyph-name="siren-primary" unicode="" horiz-adv-x="448" d="M432 96c8.83105 0 16 -7.16895 16 -16v-64c0 -8.83105 -7.16895 -16 -16 -16h-416c-8.83105 0 -16 7.16895 -16 16v64c0 8.83105 7.16895 16 16 16h416z"/>
    <glyph glyph-name="siren-on-primary" unicode="" horiz-adv-x="640" d="M528 96c8.83105 0 16 -7.16895 16 -16v-64c0 -8.83105 -7.16895 -16 -16 -16h-416c-8.83105 0 -16 7.16895 -16 16v64c0 8.83105 7.16895 16 16 16h416zM112 256c0 -13.2461 -10.7539 -24 -24 -24h-64c-13.2461 0 -24 10.7539 -24 24s10.7539 24 24 24h64 c13.2461 0 24 -10.7539 24 -24zM616 280c13.2461 0 24 -10.7539 24 -24s-10.7539 -24 -24 -24h-64c-13.2461 0 -24 10.7539 -24 24s10.7539 24 24 24h64zM90.6904 372l-48 32c-6.7666 4.24609 -11.2217 11.7451 -11.2217 20.3154c0 13.2461 10.7549 24 24 24 c5.15332 0 9.92871 -1.62695 13.8408 -4.39551l48 -32c6.7666 -4.24609 11.2217 -11.7451 11.2217 -20.3154c0 -13.2461 -10.7549 -24 -24 -24c-5.15332 0 -9.92871 1.62695 -13.8408 4.39551zM536 368c-13.2246 0.0253906 -23.9775 10.7559 -23.9775 23.9854 c0 8.31445 4.2373 15.6475 10.668 19.9551l48 32c3.89258 2.72461 8.67871 4.35254 13.7871 4.35254c13.2461 0 24 -10.7539 24 -24c0 -8.53613 -4.46582 -16.0381 -11.1875 -20.293l-48 -32c-3.78223 -2.51758 -8.3457 -4 -13.2266 -4h-0.0634766z"/>
    <glyph glyph-name="solar-system-primary" unicode="" d="M256 256c35.3232 0 64.0049 -28.6768 64.0068 -64c0 -35.3223 -28.6777 -64 -64 -64s-64 28.6777 -64 64c0 35.3203 28.6738 63.9961 63.9932 64zM52.3301 395.646c10.1367 10.1387 24.1533 16.4141 39.6094 16.4141c15.4551 0 29.457 -6.27539 39.5938 -16.4141 c10.1357 -10.1367 16.3936 -24.1367 16.3936 -39.5898c0 -30.9082 -25.0947 -56.0029 -56.0029 -56.0029s-56.0029 25.0947 -56.0029 56.0029c0 15.4531 6.27344 29.4531 16.4092 39.5898zM391.78 327.766c8.68652 -8.68945 14.0615 -20.7031 14.0615 -33.9482 s-5.375 -25.2451 -14.0615 -33.9346c-8.68945 -8.69043 -20.6904 -14.0547 -33.9385 -14.0547c-26.4932 0 -48.0029 21.5088 -48.0029 48.0029c0 26.4932 21.5098 48.0029 48.0029 48.0029c13.248 0 25.249 -5.37793 33.9385 -14.0684zM459.67 67.5508 c10.1348 -10.1377 16.4062 -24.1533 16.4062 -39.6064s-6.27148 -29.4531 -16.4062 -39.5908c-10.1367 -10.1377 -24.1387 -16.3965 -39.5938 -16.3965c-30.9092 0 -56.0029 25.0938 -56.0029 56.0029s25.0938 56.0029 56.0029 56.0029 c15.4551 0 29.457 -6.27441 39.5938 -16.4121z"/>
    <glyph glyph-name="sort-circle-primary" unicode="" d="M164.75 224c-16.4004 0 -24.5898 19.8496 -13 31.4199l91.25 91.1699c3.31836 3.3457 7.92188 5.41895 13.002 5.41895s9.67969 -2.07324 12.998 -5.41895l91.1104 -91.1699c11.5898 -11.5703 3.40918 -31.4199 -13 -31.4199h-182.36zM347.11 160 c16.4092 0 24.5898 -19.8496 13.0693 -31.4102l-91.1797 -91.1797c-3.31836 -3.3457 -7.92188 -5.41895 -13.002 -5.41895s-9.67969 2.07324 -12.998 5.41895l-91.25 91.1797c-11.5898 11.5605 -3.40039 31.4102 13 31.4102h182.36z"/>
    <glyph glyph-name="sort-circle-down-primary" unicode="" d="M360.27 128.59l-91.2695 -91.1797c-3.31836 -3.3457 -7.91797 -5.41895 -12.998 -5.41895s-9.68359 2.07324 -13.002 5.41895l-91.1797 91.1797c-11.5605 11.5605 -3.37988 31.4102 13 31.4102h182.42c16.4102 0 24.5898 -19.8496 13.0293 -31.4102z"/>
    <glyph glyph-name="sort-circle-up-primary" unicode="" d="M151.73 255.41l91.2695 91.1797c3.31836 3.3457 7.91797 5.41895 12.998 5.41895s9.68359 -2.07324 13.002 -5.41895l91.1797 -91.1797c11.5605 -11.5605 3.37988 -31.4102 -13 -31.4102h-182.42c-16.4102 0 -24.5898 19.8496 -13.0293 31.4102z"/>
    <glyph glyph-name="space-station-moon-primary" unicode="" d="M256 128c90.5234 0 174.805 13.2305 246.273 35.7344c-1.43848 -12.2324 -3.81641 -24.3799 -6.98438 -35.998c-70.5781 -20.2754 -151.945 -31.7363 -239.289 -31.7363s-168.711 11.4609 -239.289 31.7363c-3.16797 11.6182 -5.5459 23.7656 -6.98438 35.998 c71.4688 -22.5039 155.75 -35.7344 246.273 -35.7344zM192 208c-44.1533 0 -80 35.8467 -80 80s35.8467 80 80 80s80 -35.8467 80 -80s-35.8467 -80 -80 -80zM192 312c-13.2461 0 -24 -10.7539 -24 -24s10.7539 -24 24 -24s24 10.7539 24 24s-10.7539 24 -24 24z"/>
    <glyph glyph-name="space-station-moon-alt-primary" unicode="" d="M256 128c90.5234 0 174.805 13.2305 246.273 35.7344c-1.43848 -12.2324 -3.81641 -24.3799 -6.98438 -35.998c-70.5781 -20.2754 -151.945 -31.7363 -239.289 -31.7363s-168.711 11.4609 -239.289 31.7363c-3.16797 11.6182 -5.5459 23.7656 -6.98438 35.998 c71.4688 -22.5039 155.75 -35.7344 246.273 -35.7344zM192 208c-44.1533 0 -80 35.8467 -80 80s35.8467 80 80 80s80 -35.8467 80 -80s-35.8467 -80 -80 -80zM192 312c-13.2461 0 -24 -10.7539 -24 -24s10.7539 -24 24 -24s24 10.7539 24 24s-10.7539 24 -24 24z"/>
    <glyph glyph-name="sprinkler-primary" unicode="" d="M412.41 163.56l-67.5205 -78.2295l-24.8896 -24.8896v-124.44h-128v124.44l-24.8896 24.8896l-67.5205 78.2295c-2.22949 2.96973 -3.55176 6.65918 -3.55176 10.6553c0 9.80762 7.96289 17.7705 17.7705 17.7705 c0.00292969 0 -0.00195312 0.0146484 0.000976562 0.0146484h110.19v176c0 8.83105 7.16895 16 16 16h32c8.83105 0 16 -7.16895 16 -16v-176h110.19h0.00976562c9.80762 0 17.7695 -7.96289 17.7695 -17.7695c0 -3.99609 -1.33008 -7.70117 -3.55957 -10.6709z"/>
    <glyph glyph-name="star-shooting-primary" unicode="" d="M82.8975 67.5156l-75.9072 73.9971c-13.7031 13.2959 -6.09375 36.498 12.7031 39.2012l104.799 15.2959l46.9072 95.1992c8.5 17.2021 32.7979 16.999 41.1885 0l46.9072 -95.1992l104.799 -15.2959c18.7969 -2.70312 26.4072 -25.9053 12.7969 -39.2012 l-75.8916 -73.9971l17.8906 -104.59c0.217773 -1.26855 0.307617 -2.53711 0.307617 -3.86719c0 -12.6689 -10.2852 -22.9541 -22.9541 -22.9541c-3.84277 0 -7.4668 0.947266 -10.6504 2.61914l-93.7988 49.3887l-93.7988 -49.3887 c-16.6104 -8.90527 -36.501 5.29688 -33.2979 24.2021z"/>
    <glyph glyph-name="starfighter-primary" unicode="" horiz-adv-x="640" d="M512 96h80v-76.7988l-128 -51.2012v-16c0 -8.83008 -7.16992 -16 -16 -16h-16c-8.83008 0 -16 7.16992 -16 16v16h-192v-16c0 -8.83008 -7.16992 -16 -16 -16h-16c-8.83008 0 -16 7.16992 -16 16v16l-128 51.2012v76.7988h80v-80c0 -8.83105 7.16895 -16 16 -16h64 c8.83105 0 16 7.16895 16 16v80h32v96l30.25 241.986c0.986328 7.88672 7.72266 14.0137 15.875 14.0137h35.748c8.15332 0 14.8906 -6.12793 15.877 -14.0156l30.25 -241.984v-96h32v-80c0 -8.83105 7.16895 -16 16 -16h64c8.83105 0 16 7.16895 16 16v80zM352 144v48 c0 17.6611 -14.3389 32 -32 32s-32 -14.3389 -32 -32v-48c0 -8.83008 7.16992 -16 16 -16h32c8.83008 0 16 7.16992 16 16z"/>
    <glyph glyph-name="starfighter-alt-primary" unicode="" horiz-adv-x="576" d="M288 352c88.3057 0 160 -71.6943 160 -160c0 -88.3066 -71.6934 -160 -160 -160s-160 71.6934 -160 160s71.6934 160 160 160zM300 286.789v-32c8.69922 -1.63086 16.8926 -5.07422 23.957 -9.86328l22.6289 22.627c-13.1543 10.2148 -29.2334 17.0928 -46.5859 19.2363z M276 286.789c-17.3525 -2.14355 -33.4316 -9.02148 -46.5859 -19.2363l22.6289 -22.627c7.06445 4.78906 15.2578 8.23242 23.957 9.86328v32zM212.445 250.584c-10.2139 -13.1543 -17.0908 -29.2324 -19.2344 -46.584h32c1.63184 8.69824 5.0752 16.8926 9.86328 23.957z M193.211 180c2.14355 -17.3516 9.02051 -33.4297 19.2344 -46.584l22.6289 22.627c-4.78809 7.06445 -8.23145 15.2588 -9.86328 23.957h-32zM276 97.2109v32c-8.69922 1.63086 -16.8926 5.07422 -23.957 9.86328l-22.6289 -22.627 c13.1543 -10.2148 29.2334 -17.0928 46.5859 -19.2363zM256 192c0 -17.6611 14.3389 -32 32 -32s32 14.3389 32 32s-14.3389 32 -32 32s-32 -14.3389 -32 -32zM300 97.2109c17.3525 2.14355 33.4316 9.02148 46.5859 19.2363l-22.6289 22.627 c-7.06445 -4.78906 -15.2578 -8.23242 -23.957 -9.86328v-32zM363.555 133.416c10.2139 13.1543 17.0908 29.2324 19.2344 46.584h-32c-1.63184 -8.69824 -5.0752 -16.8926 -9.86328 -23.957zM350.789 204h32c-2.14355 17.3516 -9.02051 33.4297 -19.2344 46.584 l-22.6289 -22.627c4.78809 -7.06445 8.23145 -15.2588 9.86328 -23.957zM48 416c8.83008 0 16 -7.16992 16 -16v-416c0 -8.83008 -7.16992 -16 -16 -16h-32c-8.83008 0 -16 7.16992 -16 16v416c0 8.83008 7.16992 16 16 16h32zM560 416c8.83008 0 16 -7.16992 16 -16v-416 c0 -8.83008 -7.16992 -16 -16 -16h-32c-8.83008 0 -16 7.16992 -16 16v416c0 8.83008 7.16992 16 16 16h32z"/>
    <glyph glyph-name="starship-primary" unicode="" horiz-adv-x="640" d="M208.25 237.113l54.4023 4.28516c-4.32031 -15.752 -6.62793 -32.2344 -6.62793 -49.3496s2.30762 -33.6953 6.62793 -49.4473l-54.4023 4.28516l-70.4883 -50.8867h-73.7617l77.5625 56.9492l-10.7969 0.982422c-19.4609 1.76953 -34.7275 18.1523 -34.7275 38.0703 c0 19.9189 15.2666 36.2988 34.7275 38.0684l10.7969 0.980469l-55.3242 56.9492h73.7617zM448 256c35.3037 -0.0400391 63.96 -28.6963 64 -64c0 -35.3223 -28.6777 -64 -64 -64s-64 28.6777 -64 64s28.6777 64 64 64zM448 160c17.6611 0.000976562 31.999 14.3389 32 32 c0 17.6611 -14.3389 32 -32 32s-32 -14.3389 -32 -32s14.3389 -32 32 -32z"/>
    <glyph glyph-name="starship-freighter-primary" unicode="" horiz-adv-x="576" d="M128.011 96c0 -8.83008 -7.16895 -15.999 -15.999 -15.999c-8.83105 0 -16 7.16895 -16 15.999c0 8.83105 7.16895 16 16 16c8.83008 -0.000976562 15.999 -7.16992 15.999 -16zM112.012 304c8.83008 0 15.999 -7.16992 15.999 -16c0 -8.83105 -7.16895 -16 -15.999 -16 c-8.83105 0 -16 7.16895 -16 16c0 8.83008 7.16895 16 16 16zM80.0127 208c8.83008 0 15.999 -7.16992 15.999 -16c0 -8.83105 -7.16895 -16 -15.999 -16c-8.83105 0 -16 7.16895 -16 16c0 8.83008 7.16895 16 16 16zM480.002 16 c-0.000976562 -26.4912 -21.5078 -47.998 -47.998 -48h-63.999c-14.9785 0.00292969 -28.3477 6.8457 -37.1553 17.6094l-103.669 126.711c-1.07812 -0.0429688 -2.08594 -0.320312 -3.17188 -0.320312c-0.378906 -0.00488281 -0.757812 -0.0078125 -1.1377 -0.0078125 c-44.7725 0 -81.123 36.3496 -81.123 81.123c0 44.7725 36.3506 81.123 81.123 81.123c44.7734 0 81.123 -36.3506 81.123 -81.123c0 -6.92383 -0.856445 -13.6123 -2.49121 -20.0293l89.252 -109.086h41.249c26.4902 -0.00195312 47.9971 -21.5088 47.998 -48zM256.008 192 c0 17.6602 -14.3389 31.998 -31.999 31.998c-17.6611 0 -31.999 -14.3379 -31.999 -31.999s14.3379 -31.999 31.999 -31.999s31.999 14.3389 31.999 32z"/>
    <glyph glyph-name="sword-laser-primary" unicode="" d="M139.438 154.653l22.6299 22.626l79.1973 -79.1934l-22.625 -22.626zM105.496 120.713l22.6299 22.626l79.1973 -79.1934l-22.6289 -22.626zM275.208 132.026c1.44727 -1.44824 2.3418 -3.4502 2.3418 -5.6582c0 -2.20703 -0.894531 -4.20703 -2.3418 -5.65527 l-11.3164 -11.3125c-1.44824 -1.44824 -3.4502 -2.34473 -5.65723 -2.34473c-2.20801 0 -4.20801 0.896484 -5.65527 2.34473l-79.1982 79.1934c-1.44824 1.44727 -2.34473 3.44922 -2.34473 5.65723s0.896484 4.20703 2.34473 5.65527l11.3135 11.3135 c1.44824 1.44922 3.45117 2.3457 5.65918 2.3457s4.20898 -0.896484 5.65723 -2.3457zM9.36816 35.8652l79.1709 79.1777l90.5137 -90.5078l-79.2051 -79.2031c-5.80176 -5.76855 -13.8047 -9.33594 -22.625 -9.33594c-8.83105 0 -16.835 3.57715 -22.6377 9.35938 l-45.2324 45.2744c-5.78027 5.79199 -9.35645 13.793 -9.35645 22.6143c0 8.8291 3.58203 16.8281 9.37207 22.6211z"/>
    <glyph glyph-name="sword-laser-alt-primary" unicode="" d="M94.2236 120.746l22.627 -22.625l-107.484 -107.484l-0.0078125 0.00390625c-5.78418 5.79004 -9.36328 13.793 -9.36328 22.6162c0 8.8291 3.58398 16.8271 9.375 22.6191zM128.169 86.8037l22.6309 -22.6318l-107.503 -107.5l-22.623 22.6436zM309.035 191.938 c14.293 0 21.416 -17.3145 11.2607 -27.374l-124.227 -123.031l-90.5303 90.5293l55.1777 55.1875c2.89648 2.89746 6.89941 4.68848 11.3164 4.68848h0.00292969h136.999zM54.6123 -54.6514l107.503 107.506l22.6387 -22.6387l-84.8809 -84.8809 c-5.80273 -5.77051 -13.8076 -9.33887 -22.6299 -9.33887c-8.82715 0 -16.8281 3.57324 -22.6309 9.35059v0.00195312z"/>
    <glyph glyph-name="swords-laser-primary" unicode="" horiz-adv-x="640" d="M196.602 223.371c10.0547 10.1777 27.3984 3.0625 27.3984 -11.2422v-137.029c0 -4.43848 -1.81055 -8.45996 -4.73438 -11.3574l-119.359 -118.375c-5.79492 -5.78906 -13.8047 -9.37109 -22.6348 -9.37109c-8.8252 0 -16.8213 3.57812 -22.6152 9.36133 l-45.3086 45.2383c-5.77832 5.80176 -9.35156 13.8096 -9.35156 22.6357c0 8.82031 3.56836 16.8145 9.33984 22.6143l113.223 113.16c-5.78418 5.79199 -9.35449 13.7959 -9.35449 22.6201c0 17.665 14.3428 32.0068 32.0078 32.0068 c8.83008 0 16.8301 -3.58398 22.624 -9.375zM168.539 87.5527c8.83105 0 16.0049 7.16895 16.0078 16c0 8.83008 -7.16992 16 -16 16c-8.83105 0 -16 -7.16992 -16 -16c0 -8.82812 7.16504 -15.9961 15.9922 -16zM545.781 120.756l84.8828 -84.8828 c5.77148 -5.80273 9.33984 -13.8086 9.33984 -22.6318c0 -8.82715 -3.57227 -16.8262 -9.34766 -22.6299l-0.00390625 -0.00195312l-107.504 107.508zM411.438 256.295l123.031 -124.223l-90.5312 -90.5312l-55.1875 55.1777 c-2.89648 2.89746 -4.6875 6.90137 -4.6875 11.3184v136.996c0 14.2949 17.3125 21.418 27.375 11.2617zM455.254 30.2246l22.625 22.625l107.484 -107.482l-0.00390625 -0.00585938c-5.79004 -5.78516 -13.793 -9.36523 -22.6172 -9.36523 c-8.82812 0 -16.8262 3.58398 -22.6172 9.375zM489.195 64.168l22.6328 22.6328l107.5 -107.502l-22.6445 -22.623z"/>
    <glyph glyph-name="telescope-primary" unicode="" horiz-adv-x="640" d="M638.777 231.169c0.780273 -1.88281 1.22852 -3.95117 1.22852 -6.11523c0 -6.66699 -4.08594 -12.3867 -9.88867 -14.7891l-117.312 -48.5967c-1.88379 -0.780273 -3.95117 -1.22852 -6.11523 -1.22852c-6.66699 0 -12.3867 4.08594 -14.791 9.88867l-85.7109 206.948 c-0.78125 1.88477 -1.22949 3.95312 -1.22949 6.11816c0 6.66504 4.08496 12.3838 9.88574 14.7861l117.316 48.5977c1.88281 0.780273 3.9502 1.22754 6.11426 1.22754c6.66602 0 12.3857 -4.08594 14.7881 -9.8877zM376.133 99.4922l47.4766 -142.432 c0.530273 -1.58984 0.821289 -3.29297 0.821289 -5.05957c0 -8.83105 -7.16992 -16.001 -16.001 -16.001h-16.8594c-7.06445 0 -13.0615 4.58496 -15.1797 10.9414l-42.168 126.498c-4.61426 -0.943359 -9.28516 -1.43848 -14.1768 -1.43848 c-4.8877 0 -9.66113 0.494141 -14.2725 1.43652l-42.1641 -126.496c-2.11914 -6.35547 -8.11621 -10.9404 -15.1797 -10.9414h-16.8594c-8.83105 0 -15.9971 7.17188 -15.9971 16.0029c0 1.76758 0.287109 3.46777 0.817383 5.05762l47.4648 142.404 c-9.84766 12.168 -15.7988 27.6934 -15.8711 44.5352c0 39.7373 32.2617 72 72 72s72 -32.2627 72 -72c-0.0722656 -16.8301 -6.01562 -32.3447 -15.8516 -44.5078zM319.984 120c13.2363 0.0195312 23.9805 10.7627 24 24c0 13.2461 -10.7539 24 -24 24 s-24 -10.7539 -24 -24s10.7539 -24 24 -24z"/>
    <glyph glyph-name="temperature-down-primary" unicode="" d="M160 125.09c18.6426 -6.59082 31.9854 -24.3809 31.9854 -45.2695c0 -26.4922 -21.5078 -48 -48 -48s-48 21.5078 -48 48c0 20.8887 13.3721 38.6787 32.0146 45.2695v18.9102c0 8.83105 7.16895 16 16 16s16 -7.16895 16 -16v-18.9102zM496 96 c14.2197 0 21.3398 -17.25 11.3096 -27.3096l-80 -96c-2.89551 -2.89453 -6.89844 -4.68555 -11.3115 -4.68555c-4.41406 0 -8.41211 1.79102 -11.3076 4.68555l-80 96c-10.0801 10.0596 -2.89062 27.3096 11.3096 27.3096h48v304c0 8.83105 7.16895 16 16 16h32 c8.83105 0 16 -7.16895 16 -16v-304h48z"/>
    <glyph glyph-name="temperature-up-primary" unicode="" d="M160 125.09c18.6426 -6.59082 31.9854 -24.3809 31.9854 -45.2695c0 -26.4922 -21.5078 -48 -48 -48s-48 21.5078 -48 48c0 20.8887 13.3721 38.6787 32.0146 45.2695v210.91c0 8.83105 7.16895 16 16 16s16 -7.16895 16 -16v-210.91zM507.3 315.31 c10.0605 -10.0596 2.89062 -27.3096 -11.2998 -27.3096h-48v-304c0 -8.83105 -7.16895 -16 -16 -16h-32c-8.83105 0 -16 7.16895 -16 16v304h-48c-14.2197 0 -21.3398 17.25 -11.3301 27.3096l80 96c2.89648 2.89746 6.90137 4.69043 11.3174 4.69043 s8.41602 -1.79297 11.3125 -4.69043z"/>
    <glyph glyph-name="trailer-primary" unicode="" horiz-adv-x="640" d="M624 128c8.83105 0 16 -7.16895 16 -16v-32c0 -8.83105 -7.16895 -16 -16 -16h-337.61c-7.83008 54.21 -54 96 -110.39 96s-102.56 -41.79 -110.39 -96h-49.6104c-8.83105 0 -16 7.16895 -16 16v288c0 8.83105 7.16895 16 16 16h512c8.83105 0 16 -7.16895 16 -16v-240 h80zM96 204.32v107.68c0 4.41504 -3.58496 8 -8 8h-16c-4.41504 0 -8 -3.58496 -8 -8v-128.39c9.85938 8.0166 20.5459 14.9482 32 20.71zM192 222.86v89.1396c0 4.41504 -3.58496 8 -8 8h-16c-4.41504 0 -8 -3.58496 -8 -8v-89.1396 c5.30957 0.489258 10.5703 1.13965 16 1.13965s10.6904 -0.650391 16 -1.13965zM288 183.61v128.39c0 4.41504 -3.58496 8 -8 8h-16c-4.41504 0 -8 -3.58496 -8 -8v-107.68c11.4541 -5.76172 22.1406 -12.6934 32 -20.71zM384 128v184c0 4.41504 -3.58496 8 -8 8h-16 c-4.41504 0 -8 -3.58496 -8 -8v-184h32zM480 128v184c0 4.41504 -3.58496 8 -8 8h-16c-4.41504 0 -8 -3.58496 -8 -8v-184h32z"/>
    <glyph glyph-name="transporter-primary" unicode="" d="M255.957 352c-26.4922 0 -48 21.5078 -48 48s21.5078 48 48 48l0.0195312 -0.00195312l0.0195312 0.00195312c26.4922 0 48 -21.5078 48 -48s-21.5078 -48 -48 -48l-0.0195312 0.00195312zM384 0c17.6602 0 32.001 -14.3398 32.001 -32v-32h-320.01v32 c0 17.6602 14.3408 32 32.001 32h56.002v209.221l-31.4229 -37.7051c-5.87109 -7.04492 -14.6914 -11.4922 -24.5693 -11.4922c-17.6592 0 -31.9961 14.3369 -31.9961 31.9961c0 7.78027 2.7832 14.916 7.40723 20.4648l70.4082 84.4844 c11.7051 14.0918 29.3359 23.0312 49.0684 23.0312h0.0898438h66.0332c0.0263672 0 0.0322266 0.0400391 0.0585938 0.0400391c19.7402 0 37.4004 -8.97852 49.1152 -23.0713l70.3926 -84.4844c4.61816 -5.54688 7.41602 -12.7168 7.41602 -20.4912 c0 -17.6592 -14.3369 -31.9961 -31.9961 -31.9961c-9.87207 0 -18.707 4.48145 -24.5781 11.5186l-31.4229 37.7051v-209.221h56.002zM263.996 0v128h-16v-128h16z"/>
    <glyph glyph-name="transporter-1-primary" unicode="" d="M255.959 352c-26.4922 0 -48 21.5078 -48 48s21.5078 48 48 48l0.0195312 -0.00195312l0.0195312 0.00195312c26.4922 0 48 -21.5078 48 -48s-21.5078 -48 -48 -48l-0.0195312 0.00195312zM152.574 171.516c-5.87109 -7.04199 -14.6895 -11.4873 -24.5654 -11.4873 c-17.6592 0 -31.9961 14.3369 -31.9961 31.9961c0 7.77832 2.78223 14.9121 7.40332 20.46l70.4082 84.4844c11.7041 14.0918 29.335 23.0312 49.0674 23.0312h0.0898438h66.0332c0.0263672 0 0.0322266 0.0400391 0.0585938 0.0400391 c19.7402 0 37.3994 -8.97852 49.1143 -23.0713l70.3926 -84.4844c4.62109 -5.54785 7.42188 -12.7207 7.42188 -20.499c0 -17.6592 -14.3369 -31.9961 -31.9951 -31.9961c-9.87695 0 -18.7139 4.48438 -24.585 11.5264l-31.4219 37.7051v-113.221h-64.002v32h-16v-32 h-64.002v113.221zM384.001 0c17.6611 0 32 -14.3389 32.001 -32v-32h-320.008v32c0.000976562 17.6611 14.3398 32 32.001 32h256.006z"/>
    <glyph glyph-name="transporter-2-primary" unicode="" d="M384.004 0c17.6611 0 32.001 -14.3389 32.001 -32v-32h-320.01v32c0 17.6611 14.3398 32 32.001 32h256.008zM255.961 352c-26.4922 0 -48 21.5078 -48 48s21.5078 48 48 48l0.0195312 -0.00195312l0.0195312 0.00195312c26.4922 0 48 -21.5078 48 -48 s-21.5078 -48 -48 -48l-0.0195312 0.00195312zM338.19 296.969l60.7979 -72.9688h-285.973l60.8096 72.9688c11.7051 14.0918 29.3359 23.0312 49.0684 23.0312h0.0898438h66.0332c0.0263672 0 0.0322266 0.0400391 0.0585938 0.0400391 c19.7402 0 37.4004 -8.97852 49.1152 -23.0713z"/>
    <glyph glyph-name="transporter-3-primary" unicode="" d="M416.005 -32v-32h-320.01v32c0 17.6611 14.3398 32 32.001 32h256.008c17.6611 0 32.001 -14.3389 32.001 -32z"/>
    <glyph glyph-name="transporter-empty-primary" unicode="" d="M416.005 -32v-32h-320.01v32c0 17.6611 14.3398 32 32.001 32h256.008c17.6611 0 32.001 -14.3389 32.001 -32z"/>
    <glyph glyph-name="ufo-primary" unicode="" horiz-adv-x="640" d="M493.652 235.418c87.9922 -22.8086 146.348 -62.3535 146.348 -107.418c0 -70.6914 -143.27 -128 -320 -128s-320 57.3086 -320 128c0 45.0645 58.3555 84.6094 146.348 107.418c-1.47949 -8.97754 -2.27734 -18.04 -2.34766 -27.418 c0 -3.14648 0.304688 -6.21484 0.46875 -9.32227c53.5859 -24.3379 112.734 -38.6777 175.531 -38.6777s121.945 14.3398 175.531 38.6777c0.164062 3.10742 0.46875 6.17578 0.46875 9.32227c-0.0703125 9.37793 -0.868164 18.4404 -2.34766 27.418zM128 88 c13.2461 0.000976562 23.999 10.7539 24 24c0 13.2461 -10.7539 24 -24 24s-24 -10.7539 -24 -24s10.7539 -24 24 -24zM320 56c13.2461 0.000976562 23.999 10.7539 24 24c0 13.2461 -10.7539 24 -24 24s-24 -10.7539 -24 -24s10.7539 -24 24 -24zM512 88 c13.2461 0.000976562 23.999 10.7539 24 24c0 13.2461 -10.7539 24 -24 24s-24 -10.7539 -24 -24s10.7539 -24 24 -24z"/>
    <glyph glyph-name="ufo-beam-primary" unicode="" horiz-adv-x="640" d="M464.965 336.666c85.458 -19.4258 143.035 -55.3906 143.035 -96.666c0 -61.8555 -128.938 -112 -287.993 -112s-287.993 50.1445 -287.993 112c0 41.2754 57.5771 77.2402 143.036 96.666c-3.45312 -12.6738 -5.89844 -25.7539 -5.89844 -39.5234 c0 -2.69531 0.265625 -5.32617 0.40625 -7.99023c45.9287 -20.8613 96.6221 -33.1523 150.449 -33.1523s104.521 12.291 150.449 33.1523c0.140625 2.66406 0.40625 5.29492 0.40625 7.99023c0 13.7695 -2.44531 26.8496 -5.89746 39.5234zM128.012 216 c13.2451 0.000976562 23.999 10.7539 23.999 24s-10.7529 24 -23.999 24s-24 -10.7539 -24 -24s10.7539 -24 24 -24zM320.007 168c13.2451 0.000976562 23.999 10.7539 24 24c0 13.2461 -10.7539 24 -24 24s-24 -10.7539 -24 -24s10.7539 -24 24 -24zM512.002 216 c13.2461 0.000976562 23.999 10.7539 24 24c0 13.2461 -10.7539 24 -24 24c-13.2451 0 -24 -10.7539 -24 -24s10.7549 -24 24 -24z"/>
    <glyph glyph-name="user-alien-primary" unicode="" horiz-adv-x="448" d="M324 256c6.62207 -0.000976562 11.999 -5.37793 12 -12v-8c0 -33.1152 -26.8848 -60 -60 -60h-24c-6.62207 0.000976562 -11.999 5.37793 -12 12v8c0 33.1152 26.8848 60 60 60h24zM148 256c33.1152 0 60 -26.8848 60 -60v-8 c-0.000976562 -6.62207 -5.37793 -11.999 -12 -12h-24c-33.1152 0 -60 26.8848 -60 60v8c0.000976562 6.62207 5.37793 11.999 12 12h24z"/>
    <glyph glyph-name="user-robot-primary" unicode="" horiz-adv-x="448" d="M116 128c-19.8594 0.0205078 -35.9795 16.1406 -36 36v175v0.0146484c0 24.8281 20.1572 44.9854 44.9854 44.9854h0.0146484h198h0.0175781c24.8262 0 44.9824 -20.1562 44.9824 -44.9824v-0.0175781v-175c-0.0195312 -19.8594 -16.1406 -35.9805 -36 -36h-216zM304 176 v32h-32v-32h32zM288 320c-17.6592 0 -32 -14.3408 -32 -32c0 -17.6611 14.3389 -32 32 -32s32 14.3389 32 32s-14.3389 32 -32 32zM208 208v-32h32v32h-32zM176 176v32h-32v-32h32zM160 320c-17.6592 0 -32 -14.3408 -32 -32c0 -17.6611 14.3389 -32 32 -32 s32 14.3389 32 32s-14.3389 32 -32 32zM352 96c52.9834 0 96 -43.0166 96 -96v-32c-0.000976562 -17.6611 -14.3389 -31.999 -32 -32h-96v64c0 17.6611 -14.3389 32 -32 32h-128c-17.6611 0 -32 -14.3389 -32 -32v-64h-96c-17.6611 0.000976562 -31.999 14.3389 -32 32v32 c0 52.9834 43.0166 96 96 96h256z"/>
    <glyph glyph-name="user-visor-primary" unicode="" horiz-adv-x="448" d="M313.594 160c74.1719 -0.0195312 134.387 -60.2344 134.406 -134.406v-41.5938c-0.00683594 -26.4883 -21.5117 -47.9932 -48 -48h-352c-26.4883 0.00683594 -47.9932 21.5117 -48 48v41.5938c0.0195312 74.1719 60.2344 134.387 134.406 134.406h16.6875 c22.1436 -10.2109 47.0889 -15.9082 73.0557 -15.9082s50.6133 5.69727 72.7568 15.9082h16.6875zM353.281 0.203125c1.58105 0.53125 2.7207 2.02246 2.7207 3.78223c0 0.046875 0 0.0927734 -0.00195312 0.139648c-1.15625 35.3438 -11.2656 65.7188 -30.0781 90.3125 c-0.708008 0.926758 -1.81445 1.53125 -3.0625 1.5625c-1.24121 -0.0078125 -2.35938 -0.541992 -3.14062 -1.39062c-19.8281 -23 -31.8281 -53.1094 -35.7031 -89.5c-0.0136719 -0.132812 -0.0244141 -0.260742 -0.0244141 -0.397461 c0 -1.51367 0.835938 -2.83398 2.07129 -3.52441c0.573242 -0.303711 1.23438 -0.475586 1.92773 -0.475586c0.922852 0 1.77637 0.304688 2.46289 0.819336c24.8594 19.3281 33.75 23.8125 37.0469 24.8125c0.431641 0.177734 0.898438 0.306641 1.375 0.375 c2.23438 -1.98438 7.67188 -7.84375 19.8594 -25.0312c0.726562 -1.02148 1.91797 -1.68555 3.26562 -1.6875c0.00390625 0 0.00878906 0.000976562 0.0126953 0.000976562c0.443359 0 0.869141 0.0712891 1.26855 0.202148zM112 272 c-17.6611 0.000976562 -31.999 14.3389 -32 32v64c0 17.6611 14.3389 32 32 32h224c17.6611 0 32 -14.3389 32 -32v-64c-0.000976562 -17.6611 -14.3389 -31.999 -32 -32h-224zM128 352v-32h192v32h-192z"/>
    <glyph glyph-name="vacuum-primary" unicode="" horiz-adv-x="640" d="M368 96c44.1533 0 80 -35.8467 80 -80s-35.8467 -80 -80 -80s-80 35.8467 -80 80s35.8467 80 80 80zM368 0c8.83105 0 16 7.16895 16 16s-7.16895 16 -16 16s-16 -7.16895 -16 -16s7.16895 -16 16 -16zM640 320c0 -53.1299 -32.8398 -98.1104 -79.04 -117.37 c0.150391 -0.370117 0.259766 -0.769531 0.410156 -1.13965c-8.68652 20.792 -20.8594 39.6729 -35.9004 56v0c28.7148 6.30566 50.2686 31.9141 50.2686 62.5107c0 35.2344 -28.5361 63.8574 -63.7383 63.999h-210.39 c-30.6689 -0.112305 -56.3105 -21.7734 -62.6104 -50.5898l-71.4102 -333.41h8.41016c8.83105 0 16 -7.16895 16 -16v-32c0 -8.83105 -7.16895 -16 -16 -16h-160c-8.83105 0 -16 7.16895 -16 16c0 26.4922 21.5078 48 48 48h54.1201l74.3203 346.81 c12.5596 58.6309 65.1992 101.19 125.17 101.19h210.39c70.6094 -0.0771484 127.923 -57.3906 128 -128z"/>
    <glyph glyph-name="vacuum-robot-primary" unicode="" d="M431.36 367.36c96.8496 -96.8506 96.8496 -253.87 0 -350.721c-96.8506 -96.8496 -253.87 -96.8496 -350.721 0c-96.8496 96.8506 -96.8496 253.87 0 350.721c96.8506 96.8496 253.87 96.8496 350.721 0zM199.43 44.9199 c2.89746 2.89648 4.69043 6.90137 4.69043 11.3174s-1.79297 8.41602 -4.69043 11.3125l-67.8799 67.8799c-2.89648 2.89648 -6.90137 4.68457 -11.3174 4.68457c-8.83105 0 -16.002 -7.16992 -16.002 -16.002c0 -4.41504 1.79297 -8.41602 4.68945 -11.3125 l67.8799 -67.8799c2.89648 -2.89648 6.90137 -4.68945 11.3174 -4.68945s8.41699 1.79297 11.3125 4.68945zM267.31 67.5498c2.89746 2.89648 4.69043 6.90137 4.69043 11.3174s-1.79297 8.41699 -4.69043 11.3125l-113.13 113.13 c-2.88184 2.80078 -6.81836 4.52148 -11.1504 4.52148c-8.83105 0 -16 -7.16895 -16 -16c0 -4.3291 1.72363 -8.25977 4.52051 -11.1406l113.141 -113.141c2.89551 -2.89355 6.89844 -4.68457 11.3115 -4.68457c4.41406 0 8.41211 1.79102 11.3076 4.68457zM289.94 135.43 c2.89648 2.89648 4.68945 6.90137 4.68945 11.3174s-1.79297 8.41699 -4.68945 11.3125l-67.8809 67.8809c-2.89648 2.89648 -6.90137 4.68457 -11.3164 4.68457c-8.83203 0 -16.002 -7.1709 -16.002 -16.002c0 -4.41602 1.79199 -8.41699 4.68848 -11.3135 l67.8799 -67.8799c2.89648 -2.89648 6.90137 -4.68945 11.3174 -4.68945s8.41699 1.79297 11.3135 4.68945zM380.45 67.5498c68.6299 68.6201 68.6201 180.271 0 248.9s-180.28 68.6299 -248.9 0c-2.72656 -2.87012 -4.39551 -6.75391 -4.39551 -11.0205 c0 -8.83105 7.16895 -16 16 -16c4.2666 0 8.14551 1.67383 11.0156 4.40039c56.1602 56.1504 147.521 56.1602 203.66 0s56.1396 -147.5 0 -203.66c-2.72656 -2.87012 -4.39648 -6.75293 -4.39648 -11.0205c0 -8.83008 7.16992 -16 16 -16 c4.26758 0 8.14648 1.67383 11.0166 4.40039z"/>
    <glyph glyph-name="window-frame-primary" unicode="" d="M496 0c8.83105 0 16 -7.16895 16 -16v-32c0 -8.83105 -7.16895 -16 -16 -16h-480c-8.83105 0 -16 7.16895 -16 16v32c0 8.83105 7.16895 16 16 16h16v416c0 17.6611 14.3389 32 32 32h384c17.6611 0 32 -14.3389 32 -32v-416h16zM240 0v160h-144v-160h144zM240 224v160 h-144v-160h144zM416 0v160h-144v-160h144zM416 224v160h-144v-160h144z"/>
    <glyph glyph-name="window-frame-open-primary" unicode="" d="M480 416v-256h-448v256c0 17.6611 14.3389 32 32 32h384c17.6611 0 32 -14.3389 32 -32zM240 224v160h-144v-160h144zM416 224v160h-144v-160h144zM496 0c8.83105 0 16 -7.16895 16 -16v-32c0 -8.83105 -7.16895 -16 -16 -16h-480c-8.83105 0 -16 7.16895 -16 16v32 c0 8.83105 7.16895 16 16 16h16v128h64v-128h320v128h64v-128h16z"/>
    <glyph glyph-name="coffin-cross-primary" unicode="" horiz-adv-x="384" d="M374.44 332.81c5.87793 -5.75098 9.52051 -13.7598 9.52051 -22.625c0 -2.67871 -0.333984 -5.2793 -0.960938 -7.76465l-87.0801 -342.18c-3.65137 -13.9355 -16.332 -24.2412 -31.4062 -24.2412c-0.0673828 0 -0.135742 0.000976562 -0.204102 0.000976562h-144.619 c-0.0566406 0 -0.105469 0.0107422 -0.162109 0.0107422c-15.0771 0 -27.7695 10.293 -31.4287 24.2295l-87.0996 342.18c-0.633789 2.49512 -0.980469 5.09766 -0.980469 7.78809c0 8.85352 3.64746 16.8613 9.52051 22.6016l107.79 105.82 c5.93066 5.79785 14.0498 9.37012 22.9902 9.37012h0.00976562h103.38c8.94336 -0.00195312 17.0645 -3.57422 23 -9.37012zM288 256v16c0 8.83105 -7.16895 16 -16 16h-56v48c0 8.83105 -7.16895 16 -16 16h-16c-8.83105 0 -16 -7.16895 -16 -16v-48h-56 c-8.83105 0 -16 -7.16895 -16 -16v-16c0 -8.83105 7.16895 -16 16 -16h56v-128c0 -8.83105 7.16895 -16 16 -16h16c8.83105 0 16 7.16895 16 16v128h56c8.83105 0 16 7.16895 16 16z"/>
    <glyph glyph-name="folder-download-primary" unicode="" d="M364.44 165.56l-96.4404 -95.6992c-3.08203 -3.05371 -7.32129 -4.94043 -11.9971 -4.94043c-4.67676 0 -8.9209 1.88672 -12.0029 4.94043l-96.4199 95.6992c-2.91211 2.89844 -4.71484 6.90918 -4.71484 11.3389c0 8.81738 7.15137 15.9814 15.9648 16.002h65.1699v48 c0 8.83008 7.16895 16 16 16h32c8.83105 0 16 -7.16992 16 -16v-48h65.1797c8.81836 -0.015625 15.9727 -7.17871 15.9727 -16c0 -4.42871 -1.80078 -8.44238 -4.71191 -11.3408z"/>
    <glyph glyph-name="folder-upload-primary" unicode="" d="M353.19 128.92h-65.1904v-48c0 -8.83008 -7.16895 -16 -16 -16h-32c-8.83105 0 -16 7.16992 -16 16v48h-65.1699c-8.82227 0.00976562 -15.9824 7.17578 -15.9824 16c0 4.42871 1.80078 8.44141 4.71191 11.3398l96.4404 95.7402 c3.08203 3.05273 7.32129 4.93945 11.9971 4.93945c4.67676 0 8.9209 -1.88672 12.0029 -4.93945l96.4199 -95.7002c2.93555 -2.90137 4.75586 -6.92871 4.75586 -11.3779c0 -8.8252 -7.16309 -15.9922 -15.9854 -16.002z"/>
    <glyph glyph-name="user-unlock-primary" unicode="" horiz-adv-x="640" d="M224 192c-70.6455 0 -128 57.3545 -128 128s57.3545 128 128 128s128 -57.3545 128 -128s-57.3545 -128 -128 -128zM320 128v-160c0.0820312 -11.6494 3.34375 -22.6357 8.90039 -32h-280.9c-26.4922 0 -48 21.5078 -48 48v41.5996 c0.0166016 74.1699 60.2305 134.384 134.4 134.4h16.6992c22.1426 -10.21 47.085 -15.9053 73.0498 -15.9053c25.9639 0 50.6084 5.69531 72.751 15.9053h16.6992c5 0 9.7002 -1 14.5 -1.5c-5.06641 -9.00684 -8.02539 -19.4561 -8.09961 -30.5z"/>
    <glyph glyph-name="bacteria-primary" unicode="" horiz-adv-x="640" d="M615.67 217.24c0.142578 -1.99121 0.21582 -3.84668 0.21582 -5.87402c0 -4.47559 -0.354492 -8.87012 -1.03613 -13.1562c-1.72949 -10.3701 -4.72949 -20.21 -7.51953 -30.21l10.3398 -3.53027c6.94824 -2.40234 11.9346 -8.99414 11.9346 -16.7549 c0 -9.78711 -7.94629 -17.7334 -17.7344 -17.7334c-2.02637 0 -3.97559 0.34082 -5.79004 0.96875l-10.4805 3.58984c-6.40527 -15.3213 -14.1494 -30.0781 -23 -43.9199l8.88086 -6.45996c4.6377 -3.20605 7.64746 -8.54297 7.64746 -14.6025 c0 -9.80176 -7.95801 -17.7598 -17.7598 -17.7598c-4.10156 0 -7.87988 1.39355 -10.8877 3.73242l-8.82031 6.41992c-10.6826 -12.8574 -22.2148 -24.5176 -34.9502 -35.3398l6.4502 -8.61035c2.23926 -2.96191 3.59082 -6.65625 3.59082 -10.6523 c0 -5.83691 -2.83398 -11.0176 -7.20117 -14.2373c-2.97461 -2.20605 -6.66309 -3.53418 -10.6465 -3.53418c-5.83887 0 -11.0273 2.80176 -14.293 7.13379l-6.32031 8.42969c-13.8379 -9.05273 -28.5889 -16.9854 -43.9404 -23.5801l3.49023 -9.79004 c0.658203 -1.85742 1.02734 -3.86816 1.02734 -5.9502c0 -9.8252 -7.97656 -17.8018 -17.8018 -17.8018c-7.74316 0 -14.3379 4.9541 -16.7852 11.8623l-3.37988 9.45996c-10.8604 -3.16992 -21.7305 -6.34961 -33.1006 -8.24023 c-4.51465 -0.757812 -9.02832 -1.15234 -13.7568 -1.15234c-0.999023 0 -1.99316 0.0175781 -2.9834 0.0527344l-2.81934 -10.7803c-1.98633 -7.66504 -8.95117 -13.3457 -17.2334 -13.3457c-9.82617 0 -17.8037 7.97754 -17.8037 17.8047 c0 1.54395 0.196289 3.04199 0.566406 4.47168l2.84082 10.8496c-15.5664 7.8291 -28.2363 20.2207 -36.4102 35.5801l-11.3398 -3.36035c-1.61035 -0.480469 -3.31348 -0.746094 -5.0791 -0.746094c-9.79199 0 -17.7422 7.9502 -17.7422 17.7432 c0 8.02734 5.3418 14.8164 12.6611 17.0029l11.8594 3.51074c-0.119141 1.82227 -0.125 3.67871 -0.125 5.53125c0 15.5869 4.29883 30.1768 11.7754 42.6484l-9.71973 8.75c-3.68848 3.25684 -6.00293 8.0166 -6.00293 13.3193c0 9.80762 7.96289 17.7705 17.7705 17.7705 c4.69824 0 8.97363 -1.82812 12.1523 -4.80957l10 -9c9.85645 6.9082 21.4297 11.7861 33.7695 13.8994c4.1709 0.804688 8.35742 1.85156 12.3604 3.08008l-4 9.08008c-0.967773 2.1875 -1.52734 4.61133 -1.52734 7.15527c0 7.25684 4.37402 13.5 10.627 16.2344 c2.19824 0.954102 4.63477 1.49414 7.18066 1.5c0.00390625 0 -0.00195312 0.0146484 0.00195312 0.0146484c7.27051 0 13.5322 -4.35352 16.3174 -10.5947l3.91992 -8.84961c1.15039 0.730469 2.35059 1.37988 3.4707 2.15039c3.49023 2.44922 6.79199 5.03516 10 7.83008 c4.13867 3.53418 7.94922 7.2666 11.5693 11.3291c2.82617 3.03223 5.44336 6.15332 7.94043 9.4707c0.69043 0.969727 1.21973 2.0498 1.88965 3.0498l-8.7998 4.11035c-6.0166 2.83984 -10.1523 8.94531 -10.1523 16.0352c0 9.79297 7.9502 17.7432 17.7432 17.7432 c2.70312 0 5.26562 -0.605469 7.55957 -1.68848l9 -4.2207c1.60938 5 2.92676 10.2588 3.87012 15.5205c1.9248 11.2207 6.14648 21.8428 12.0801 31.0596l-9.14062 9.37012c-3.09082 3.19824 -4.99121 7.56055 -4.99121 12.3545c0 9.80859 7.96387 17.7725 17.7725 17.7725 c5.01465 0 9.54688 -2.08203 12.7793 -5.42676l8.58984 -8.80957c13.0723 8.67285 28.8203 13.8057 45.6494 13.8896c1.03027 0 2.10059 -0.259766 3.10059 -0.259766l2.87012 11c2.10059 7.49609 8.98438 13.0137 17.1475 13.0137 c9.83008 0 17.8105 -7.98047 17.8105 -17.8105c0 -1.41504 -0.166016 -2.79297 -0.478516 -4.11328l-2.87988 -11.0605c15.5527 -7.77148 28.2188 -20.1152 36.3896 -35.4297l11.2705 3.33008c1.60547 0.478516 3.30273 0.742188 5.06348 0.742188 c9.79004 0 17.7383 -7.94922 17.7383 -17.7393c0 -8.0293 -5.34668 -14.8203 -12.6719 -17.0029zM416 32c17.6611 0 32 14.3389 32 32s-14.3389 32 -32 32s-32 -14.3389 -32 -32s14.3389 -32 32 -32zM128 256c17.6611 0 32 -14.3389 32 -32s-14.3389 -32 -32 -32 s-32 14.3389 -32 32s14.3389 32 32 32z"/>
    <glyph glyph-name="bacterium-primary" unicode="" d="M208 128c0 -26.4922 -21.5078 -48 -48 -48s-48 21.5078 -48 48s21.5078 48 48 48s48 -21.5078 48 -48z"/>
    <glyph glyph-name="box-tissue-primary" unicode="" d="M0 -32v64h512v-64c0 -17.6611 -14.3389 -32 -32 -32h-448c-17.6611 0 -32 14.3389 -32 32zM480 224c17.6611 0 32 -14.3389 32 -32v-128h-512v128c0 17.6611 14.3389 32 32 32h49l14.2197 -64h-15.2197c-8.83105 0 -16 -7.16895 -16 -16s7.16895 -16 16 -16h352 c8.83105 0 16 7.16895 16 16s-7.16895 16 -16 16h-14.2695l21.3291 64h40.9404z"/>
    <glyph glyph-name="hand-holding-medical-primary" unicode="" horiz-adv-x="576" d="M400 352v-64c0 -8.83105 -7.16895 -16 -16 -16h-64v-64c0 -8.83105 -7.16895 -16 -16 -16h-64c-8.83105 0 -16 7.16895 -16 16v64h-64c-8.83105 0 -16 7.16895 -16 16v64c0 8.83105 7.16895 16 16 16h64v64c0 8.83105 7.16895 16 16 16h64c8.83105 0 16 -7.16895 16 -16 v-64h64c8.83105 0 16 -7.16895 16 -16z"/>
    <glyph glyph-name="hand-sparkles-primary" unicode="" horiz-adv-x="640" d="M156.3 310c2.09082 -1.21094 3.51855 -3.42969 3.62988 -5.99023v0c-0.125 -2.57031 -1.57031 -4.79492 -3.67969 -6l-49.5498 -20.6494h-0.0898438v0l-20.6904 -49.6201c-1.08691 -2.19531 -3.34277 -3.70703 -5.95605 -3.70703s-4.87695 1.51172 -5.96387 3.70703 l-20.6602 49.6602h-0.0703125l-49.5898 20.5996c-2.10938 1.20508 -3.55469 3.42969 -3.67969 6v0c0.124023 2.57617 1.5791 4.80371 3.7002 6l49.6299 20.6904h0.0498047l20.7002 49.6299c1.0918 2.18848 3.3457 3.69434 5.95605 3.69434 s4.87207 -1.50586 5.96387 -3.69434l20.6602 -49.6504h0.0703125zM640 16.0898l-0.0703125 -0.0703125v0c-0.135742 -2.55078 -1.58008 -4.75684 -3.67969 -5.94922l-49.5498 -20.6602h-0.0898438v0l-20.6904 -49.6201 c-1.08691 -2.19531 -3.34277 -3.70703 -5.95605 -3.70703s-4.87695 1.51172 -5.96387 3.70703l-20.6602 49.5898h-0.0703125l-49.5693 20.6699c-2.10059 1.19238 -3.54395 3.39844 -3.68066 5.9502v0c0.118164 2.57324 1.56641 4.80078 3.68066 6l49.6299 20.7402h0.0498047 l20.7002 49.6299c1.0918 2.18848 3.3457 3.69434 5.95605 3.69434s4.87207 -1.50586 5.96387 -3.69434l20.6797 -49.6104h0.0703125l49.5703 -20.6699c2.11328 -1.19922 3.5625 -3.42676 3.67969 -6z"/>
    <glyph glyph-name="hands-wash-primary" unicode="" horiz-adv-x="576" d="M519.1 112c11.6104 0 22.25 -7.83984 24.4404 -19.2402c0.3125 -1.54395 0.477539 -3.12402 0.477539 -4.75977c0 -13.2461 -10.7549 -24 -24 -24h-0.0175781h-160c-4.41504 0 -8 -3.58496 -8 -8s3.58496 -8 8 -8h127.1c11.6104 0 22.25 -7.83984 24.4404 -19.2402 c0.3125 -1.54395 0.477539 -3.12402 0.477539 -4.75977c0 -13.2461 -10.7549 -24 -24 -24h-0.0175781h-128c-4.41504 0 -8 -3.58496 -8 -8s3.58496 -8 8 -8h95.0996c11.6104 0 22.25 -7.83984 24.4404 -19.2402c0.3125 -1.54395 0.477539 -3.12402 0.477539 -4.75977 c0 -13.2461 -10.7549 -24 -24 -24h-0.0175781h-208c-22.6738 0.0859375 -43.9951 6.60645 -62 17.7197c3.8623 9.36328 5.9668 19.6699 5.9668 30.4199c0 38.6191 -27.499 70.8652 -63.9668 78.21v25.6504c0 54.8691 35.7324 101.431 85.1904 117.69l107.72 33.25 c2.24121 0.692383 4.62207 1.0752 7.08984 1.0752c13.252 0 24.0107 -10.7588 24.0107 -24.0107c0 -10.7842 -7.125 -19.917 -16.9209 -22.9453l-47.0898 -17.0596h199.1c11.6104 0 22.25 -7.83984 24.4404 -19.2402c0.3125 -1.54395 0.477539 -3.12402 0.477539 -4.75977 c0 -13.2461 -10.7549 -24 -24 -24h-0.0175781h-128c-4.41504 0 -8 -3.58496 -8 -8s3.58496 -8 8 -8h159.1z"/>
    <glyph glyph-name="handshake-alt-slash-primary" unicode="" horiz-adv-x="640" d="M636.63 -32.5498l-19.6299 -25.2705c-2.92871 -3.76562 -7.50195 -6.18945 -12.6367 -6.18945c-3.69434 0 -7.10352 1.27344 -9.81348 3.37988l-588.359 454.72c-3.76562 2.92871 -6.19043 7.50195 -6.19043 12.6367c0 3.69434 1.27344 7.10352 3.37988 9.81348 l19.6201 25.2695c2.92773 3.77148 7.50488 6.2002 12.6445 6.2002c3.7002 0 7.11426 -1.27734 9.8252 -3.38965l588.351 -454.72c3.76562 -2.92871 6.18945 -7.50195 6.18945 -12.6377c0 -3.69434 -1.27344 -7.10352 -3.37988 -9.8125z"/>
    <glyph glyph-name="handshake-slash-primary" unicode="" horiz-adv-x="640" d="M636.63 -32.5498l-19.6299 -25.2705c-2.92871 -3.76562 -7.50195 -6.18945 -12.6367 -6.18945c-3.69434 0 -7.10352 1.27344 -9.81348 3.37988l-588.359 454.72c-3.76562 2.92871 -6.19043 7.50195 -6.19043 12.6367c0 3.69434 1.27344 7.10352 3.37988 9.81348 l19.6201 25.2695c2.92773 3.77148 7.50488 6.2002 12.6445 6.2002c3.7002 0 7.11426 -1.27734 9.8252 -3.38965l588.351 -454.72c3.76562 -2.92871 6.18945 -7.50195 6.18945 -12.6377c0 -3.69434 -1.27344 -7.10352 -3.37988 -9.8125z"/>
    <glyph glyph-name="head-side-cough-primary" unicode="" horiz-adv-x="640" d="M616 144c-13.2461 0 -24 10.7539 -24 24s10.7539 24 24 24s24 -10.7539 24 -24s-10.7539 -24 -24 -24zM552 32c13.2461 0 24 -10.7539 24 -24s-10.7539 -24 -24 -24s-24 10.7539 -24 24s10.7539 24 24 24zM488 88c13.2461 0 24 -10.7539 24 -24s-10.7539 -24 -24 -24 s-24 10.7539 -24 24s10.7539 24 24 24zM616 -16c13.2461 0 24 -10.7539 24 -24s-10.7539 -24 -24 -24s-24 10.7539 -24 24s10.7539 24 24 24zM616 88c13.2461 0 24 -10.7539 24 -24s-10.7539 -24 -24 -24s-24 10.7539 -24 24s10.7539 24 24 24zM552 128 c13.2461 0 24 -10.7539 24 -24s-10.7539 -24 -24 -24s-24 10.7539 -24 24s10.7539 24 24 24zM288 288c17.6455 -0.0332031 31.9668 -14.3545 32 -32c0 -17.6611 -14.3389 -32 -32 -32s-32 14.3389 -32 32s14.3389 32 32 32z"/>
    <glyph glyph-name="head-side-cough-slash-primary" unicode="" horiz-adv-x="640" d="M636.62 -32.5498l-19.6201 -25.2705c-2.92871 -3.76562 -7.50195 -6.18945 -12.6367 -6.18945c-3.69434 0 -7.10352 1.27344 -9.81348 3.37988l-588.37 454.72c-3.76562 2.92871 -6.18945 7.50195 -6.18945 12.6367c0 3.69434 1.27344 7.10352 3.37988 9.81348 l19.6299 25.2695c2.92871 3.76855 7.50293 6.19531 12.6406 6.19531c3.69727 0 7.1084 -1.27539 9.81934 -3.38477l588.35 -454.72c3.76562 -2.92871 6.19043 -7.50195 6.19043 -12.6377c0 -3.69434 -1.27344 -7.10352 -3.37988 -9.8125z"/>
    <glyph glyph-name="head-side-mask-primary" unicode="" d="M320 224c-17.6455 0.0332031 -31.9668 14.3545 -32 32c0 17.6611 14.3389 32 32 32s32 -14.3389 32 -32s-14.3389 -32 -32 -32zM336 80c-8.83105 0 -16 -7.16895 -16 -16s7.16895 -16 16 -16h149.34l-10.6699 -32h-138.67c-8.83105 0 -16 -7.16895 -16 -16 s7.16895 -16 16 -16h128l-1.41016 -4.24023c-8.47363 -25.4199 -32.458 -43.7578 -60.71 -43.7598h-145.88v192h256l-16 -48h-160z"/>
    <glyph glyph-name="head-side-virus-primary" unicode="" d="M368 240c8.83105 0 16 -7.16895 16 -16s-7.16895 -16 -16 -16h-12.1201c-28.5098 0 -42.79 -34.4697 -22.6299 -54.6299l8.58008 -8.57031c2.89648 -2.89648 4.68457 -6.90137 4.68457 -11.3174c0 -8.83105 -7.16992 -16.002 -16.002 -16.002 c-4.41602 0 -8.41602 1.79297 -11.3125 4.68945l-8.57031 8.58008c-20.1602 20.1602 -54.6299 5.87988 -54.6299 -22.6299v-12.1201c0 -8.83105 -7.16895 -16 -16 -16s-16 7.16895 -16 16v12.1201c0 28.5098 -34.4697 42.79 -54.6299 22.6299l-8.57031 -8.58008 c-2.89648 -2.89648 -6.90137 -4.68457 -11.3174 -4.68457c-8.83105 0 -16.002 7.16992 -16.002 16.002c0 4.41602 1.79297 8.41602 4.68945 11.3125l8.58008 8.57031c20.1602 20.1602 5.87988 54.6299 -22.6299 54.6299h-12.1201c-8.83105 0 -16 7.16895 -16 16 s7.16895 16 16 16h12.1201c28.5098 0 42.79 34.4697 22.6299 54.6299l-8.58008 8.57031c-2.89648 2.89648 -4.68457 6.90137 -4.68457 11.3174c0 8.83105 7.16992 16.002 16.002 16.002c4.41602 0 8.41602 -1.79297 11.3125 -4.68945l8.57031 -8.58008 c20.1602 -20.1602 54.6299 -5.87988 54.6299 22.6299v12.1201c0 8.83105 7.16895 16 16 16s16 -7.16895 16 -16v-12.1201c0 -28.5098 34.4697 -42.79 54.6299 -22.6299l8.57031 8.58008c2.89648 2.89648 6.90137 4.68457 11.3174 4.68457 c8.83105 0 16.002 -7.16992 16.002 -16.002c0 -4.41602 -1.79297 -8.41602 -4.68945 -11.3125l-8.58008 -8.57031c-20.1602 -20.1602 -5.87988 -54.6299 22.6299 -54.6299h12.1201zM208 240c8.83105 0 16 7.16895 16 16s-7.16895 16 -16 16s-16 -7.16895 -16 -16 s7.16895 -16 16 -16zM272 176c8.83105 0 16 7.16895 16 16s-7.16895 16 -16 16s-16 -7.16895 -16 -16s7.16895 -16 16 -16z"/>
    <glyph glyph-name="house-user-primary" unicode="" horiz-adv-x="576" d="M288 144c-35.3223 0 -64 28.6777 -64 64s28.6777 64 64 64s64 -28.6777 64 -64s-28.6777 -64 -64 -64zM320 112c52.9834 0 96 -43.0166 96 -96c0 -8.83105 -7.16895 -16 -16 -16h-224c-8.83105 0 -16 7.16895 -16 16c0 52.9834 43.0166 96 96 96h64z"/>
    <glyph glyph-name="laptop-house-primary" unicode="" horiz-adv-x="640" d="M629.33 0c5.88867 0 10.6699 -4.78125 10.6699 -10.6699v-10.6602c-0.0820312 -23.4883 -19.1201 -42.5498 -42.5996 -42.6699h-298.801c-23.4795 0.120117 -42.5176 19.1816 -42.5996 42.6699v10.6602c0 5.88867 4.78125 10.6699 10.6699 10.6699h37.3301v160 c0 17.6699 12.8896 32 28.7998 32h230.4c15.9102 0 28.7998 -14.3301 28.7998 -32v-160h37.3301zM544 0v144h-192v-144h192z"/>
    <glyph glyph-name="lungs-virus-primary" unicode="" horiz-adv-x="640" d="M448 144c8.83105 0 16 -7.16895 16 -16s-7.16895 -16 -16 -16h-12.1201c-28.5098 0 -42.79 -34.4697 -22.6299 -54.6299l8.58008 -8.58008c2.99316 -2.9082 4.84961 -6.98047 4.84961 -11.4785c0 -8.83105 -7.16992 -16 -16 -16 c-4.50195 0 -8.57129 1.8623 -11.4795 4.8584l-8.57031 8.57031c-20.1602 20.1602 -54.6299 5.87988 -54.6299 -22.6201v-12.1201c0 -8.83105 -7.16895 -16 -16 -16s-16 7.16895 -16 16v12.1201c0 28.5 -34.4697 42.7803 -54.6299 22.6201l-8.57031 -8.57031 c-2.9082 -2.99609 -6.98242 -4.85449 -11.4834 -4.85449c-8.83105 0 -16 7.16992 -16 16c0 4.49902 1.86035 8.56641 4.85352 11.4746l8.58008 8.58008c20.1602 20.1602 5.87988 54.6299 -22.6299 54.6299h-12.1201c-8.83105 0 -16 7.16895 -16 16s7.16895 16 16 16h12.1201 c28.5098 0 42.79 34.4697 22.6299 54.6201l-8.58008 8.58008c-2.89648 2.89648 -4.68457 6.90137 -4.68457 11.3174c0 8.83105 7.16992 16.002 16.002 16.002c4.41602 0 8.41602 -1.79297 11.3125 -4.68945l8.57031 -8.58008 c20.1602 -20.1602 54.6299 -5.87988 54.6299 22.6299v12.1201c0 8.83105 7.16895 16 16 16s16 -7.16895 16 -16v-12.1201c0 -28.5098 34.4697 -42.79 54.6299 -22.6299l8.57031 8.58008c2.89648 2.89648 6.90137 4.68457 11.3174 4.68457 c8.83105 0 16.002 -7.16992 16.002 -16.002c0 -4.41602 -1.79297 -8.41602 -4.68945 -11.3125l-8.58008 -8.58008c-20.1602 -20.1504 -5.87988 -54.6201 22.6299 -54.6201h12.1201zM288 144c8.83105 0 16 7.16895 16 16s-7.16895 16 -16 16s-16 -7.16895 -16 -16 s7.16895 -16 16 -16zM352 80c8.83105 0 16 7.16895 16 16s-7.16895 16 -16 16s-16 -7.16895 -16 -16s7.16895 -16 16 -16z"/>
    <glyph glyph-name="people-arrows-primary" unicode="" horiz-adv-x="576" d="M444.4 137.56l-72.1201 -68.0693c-2.1543 -2.05371 -5.06934 -3.31445 -8.27734 -3.31445c-6.62305 0 -12 5.37695 -12 12c0 0.0185547 -0.00292969 0.0361328 -0.00292969 0.0546875v36.1396h-128v-36.1396v-0.0556641c0 -6.62305 -5.37695 -12 -12 -12 c-3.20801 0 -6.12598 1.26172 -8.28027 3.31543l-72.1201 68.0693c-2.22461 2.24219 -3.59961 5.32812 -3.59961 8.7334s1.375 6.49512 3.59961 8.7373l72.1201 68.0693c2.1543 2.05371 5.06934 3.31543 8.27734 3.31543c6.62305 0 12 -5.37793 12 -12 c0 -0.0185547 0.00292969 -0.0361328 0.00292969 -0.0546875v-36h128v36v0.0546875c0 6.62305 5.37695 12 12 12c3.20801 0 6.12598 -1.26172 8.28027 -3.31543l72.1201 -68.0996c2.21582 -2.24023 3.58496 -5.32031 3.58496 -8.71777s-1.36914 -6.48145 -3.58496 -8.72266z "/>
    <glyph glyph-name="plane-slash-primary" unicode="" horiz-adv-x="640" d="M6.17969 394.09c-3.76562 2.92871 -6.18945 7.50195 -6.18945 12.6367c0 3.69434 1.27344 7.10352 3.37988 9.81348l19.6299 25.2695c2.92871 3.76855 7.50293 6.19531 12.6406 6.19531c3.69727 0 7.1084 -1.27539 9.81934 -3.38477l588.36 -454.72 c3.76562 -2.92871 6.18945 -7.50195 6.18945 -12.6377c0 -3.69434 -1.27344 -7.10352 -3.37988 -9.8125l-19.6299 -25.2705c-2.92871 -3.76562 -7.50195 -6.18945 -12.6367 -6.18945c-3.69434 0 -7.10352 1.27344 -9.81348 3.37988z"/>
    <glyph glyph-name="pump-medical-primary" unicode="" horiz-adv-x="384" d="M226.67 154.67c7.35742 0 13.3301 -5.97266 13.3301 -13.3301v-0.00976562v-26.6602v-0.00976562c0 -7.35742 -5.97266 -13.3301 -13.3301 -13.3301h-40v-40c0 -7.35742 -5.97266 -13.3301 -13.3301 -13.3301h-0.00976562h-26.6602h-0.00976562 c-7.35742 0 -13.3301 5.97266 -13.3301 13.3301v40h-40c-7.35742 0 -13.3301 5.97266 -13.3301 13.3301v0.00976562v26.6602v0.00976562c0 7.35742 5.97266 13.3301 13.3301 13.3301h40v40c0 7.35742 5.97266 13.3301 13.3301 13.3301h0.00976562h26.6602h0.00976562 c7.35742 0 13.3301 -5.97266 13.3301 -13.3301v-40h40zM379.31 353.94c2.89746 -2.89648 4.69043 -6.90137 4.69043 -11.3174s-1.79297 -8.41699 -4.69043 -11.3135l-22.6191 -22.6191c-2.89648 -2.89746 -6.90137 -4.69043 -11.3174 -4.69043 s-8.41699 1.79297 -11.3135 4.69043l-43.3096 43.3096h-66.75v-32h-128v96c0 17.6611 14.3389 32 32 32h64c17.6611 0 32 -14.3389 32 -32h66.75c17.6582 0 33.666 -7.1582 45.25 -18.7402z"/>
    <glyph glyph-name="pump-soap-primary" unicode="" horiz-adv-x="384" d="M379.31 353.94c2.89746 -2.89648 4.69043 -6.90137 4.69043 -11.3174s-1.79297 -8.41699 -4.69043 -11.3135l-22.6191 -22.6191c-2.89648 -2.89746 -6.90137 -4.69043 -11.3174 -4.69043s-8.41699 1.79297 -11.3135 4.69043l-43.3096 43.3096h-66.75v-32h-128v96 c0 17.6611 14.3389 32 32 32h64c17.6611 0 32 -14.3389 32 -32h66.75c17.6582 0 33.666 -7.1582 45.25 -18.7402zM152 188c1.8252 2.43262 4.72266 4.00879 7.99512 4.00879s6.17969 -1.57617 8.00488 -4.00879c16.2998 -21.7998 52 -72.2695 52 -97.2695 c0 -32.4209 -26.8799 -58.75 -60 -58.75s-60 26.3291 -60 58.75c0 25 35.6699 75.4697 52 97.2695z"/>
    <glyph glyph-name="shield-virus-primary" unicode="" d="M384 224c8.83105 0 16 -7.16895 16 -16s-7.16895 -16 -16 -16h-12.1201c-28.5098 0 -42.79 -34.4697 -22.6299 -54.6299l8.58008 -8.57031c2.89648 -2.89648 4.68457 -6.90137 4.68457 -11.3174c0 -8.83105 -7.16992 -16.002 -16.002 -16.002 c-4.41602 0 -8.41602 1.79297 -11.3125 4.68945l-8.57031 8.58008c-20.1602 20.1602 -54.6299 5.87988 -54.6299 -22.6299v-12.1201c0 -8.83105 -7.16895 -16 -16 -16s-16 7.16895 -16 16v12.1201c0 28.5098 -34.4697 42.79 -54.6299 22.6299l-8.57031 -8.58008 c-2.89648 -2.89648 -6.90137 -4.68457 -11.3174 -4.68457c-8.83105 0 -16.002 7.16992 -16.002 16.002c0 4.41602 1.79297 8.41602 4.68945 11.3125l8.58008 8.57031c20.1602 20.1602 5.87988 54.6299 -22.6299 54.6299h-12.1201c-8.83105 0 -16 7.16895 -16 16 s7.16895 16 16 16h12.1201c28.5098 0 42.79 34.4697 22.6299 54.6299l-8.58008 8.57031c-2.89648 2.89648 -4.68457 6.90137 -4.68457 11.3174c0 8.83105 7.16992 16.002 16.002 16.002c4.41602 0 8.41602 -1.79297 11.3125 -4.68945l8.57031 -8.58008 c20.1602 -20.1602 54.6299 -5.87988 54.6299 22.6299v12.1201c0 8.83105 7.16895 16 16 16s16 -7.16895 16 -16v-12.1201c0 -28.5098 34.4697 -42.79 54.6299 -22.6299l8.57031 8.58008c2.89648 2.89648 6.90137 4.68457 11.3174 4.68457 c8.83105 0 16.002 -7.16992 16.002 -16.002c0 -4.41602 -1.79297 -8.41602 -4.68945 -11.3125l-8.58008 -8.57031c-20.1602 -20.1602 -5.87988 -54.6299 22.6299 -54.6299h12.1201zM224 224c8.83105 0 16 7.16895 16 16s-7.16895 16 -16 16s-16 -7.16895 -16 -16 s7.16895 -16 16 -16zM288 160c8.83105 0 16 7.16895 16 16s-7.16895 16 -16 16s-16 -7.16895 -16 -16s7.16895 -16 16 -16z"/>
    <glyph glyph-name="sink-primary" unicode="" d="M352 336v16c0 17.6611 -14.3389 32 -32 32s-32 -14.3389 -32 -32v-192h-64v188.21c0 46.4297 31.29 89.0801 76.8701 97.9297c6.15625 1.23926 12.4512 1.8877 18.9697 1.8877c53.0283 0 96.0879 -43.0166 96.1602 -96.0273v-16c0 -8.83105 -7.16895 -16 -16 -16h-32 c-8.83105 0 -16 7.16895 -16 16zM464 240c8.83105 0 16 -7.16895 16 -16v-16c0 -8.83105 -7.16895 -16 -16 -16h-64v-32h-48v48c0 17.6611 14.3389 32 32 32h80zM128 240c17.6611 0 32 -14.3389 32 -32v-48h-48v32h-64c-8.83105 0 -16 7.16895 -16 16v16 c0 8.83105 7.16895 16 16 16h80z"/>
    <glyph glyph-name="soap-primary" unicode="" d="M416 256c52.9834 0 96 -43.0166 96 -96v-128c0 -52.9834 -43.0166 -96 -96 -96h-320c-52.9834 0 -96 43.0166 -96 96v128c0 52.9834 43.0166 96 96 96h128c0.0634766 -24.6279 9.49707 -47.1133 24.9102 -64h-88.9102c-52.9834 0 -96 -43.0166 -96 -96 s43.0166 -96 96 -96h192c0.0703125 0 0.171875 -0.0322266 0.242188 -0.0322266c52.873 0 95.7998 42.9268 95.7998 95.7998c0 41.3477 -26.251 76.6123 -62.9824 90.0225c19.0049 17.4219 30.9033 42.4307 30.9404 70.21zM96 96c0 35.3223 28.6777 64 64 64h192 c35.3223 0 64 -28.6777 64 -64s-28.6777 -64 -64 -64h-192c-35.3223 0 -64 28.6777 -64 64z"/>
    <glyph glyph-name="stopwatch-20-primary" unicode="" horiz-adv-x="448" d="M216 203c0 -35.6201 -12.4404 -51.25 -34.3496 -81.3496c-11.5605 -15.0508 -24.6104 -35.5703 -26.4102 -51.2002h49.1299c0.0410156 0 0.0800781 -0.00195312 0.121094 -0.00195312c4.48145 0 8.12891 -3.60352 8.19922 -8.06836v-22.3096 c-0.0703125 -4.46582 -3.71582 -8.07129 -8.19727 -8.07129c-0.0410156 0 -0.0820312 0 -0.123047 0.000976562h-82.8506c-0.0644531 -0.000976562 -0.125977 -0.015625 -0.191406 -0.015625c-9.08398 0 -16.46 7.375 -16.46 16.46 c0 0.395508 0.0146484 0.787109 0.0419922 1.17578c2.78027 35.2197 14.6699 57.3701 38.4502 91.3701c20.4199 29.1895 27.0996 37.3398 27.0996 62.3398c0 16.9199 -1.79004 24.2695 -12.21 24.2695c-9.38965 0 -12.6904 -7.39941 -12.6904 -22.6797v-5.22949 c-0.0693359 -4.46582 -3.71387 -8.07129 -8.19629 -8.07129c-0.0449219 0 -0.0888672 0 -0.132812 0.000976562h-24.9004c-0.0449219 -0.000976562 -0.0869141 0.000976562 -0.130859 0.000976562c-4.48242 0 -8.12891 3.60352 -8.19922 8.06934v4.06934 c0 27.2998 8.48047 60.2402 56.4297 60.2402c42.9805 0 55.5703 -25.8096 55.5703 -61zM288.19 264c36.8096 0 55.8096 -22.6396 55.8096 -61.3203v-107c0 -35.1602 -12.2998 -63.6797 -57.2305 -63.6797c-43.5791 0 -54.7695 29.5195 -54.7695 63.4502v105.33 c0 40.7295 19.5801 63.2197 56.1904 63.2197zM300.89 91v115.93c0 11.2705 -3 19.3301 -13 19.3301c-9.40918 0 -13.2295 -7.49023 -13.2295 -20v-115.939c0 -13.1104 3.60938 -20.5898 13.2295 -20.5898s13 8.0293 13 21.2695z"/>
    <glyph glyph-name="store-alt-slash-primary" unicode="" horiz-adv-x="640" d="M6.17969 394.09c-3.76562 2.92871 -6.18945 7.50195 -6.18945 12.6367c0 3.69434 1.27344 7.10352 3.37988 9.81348l19.6299 25.2695c2.92871 3.76855 7.50293 6.19531 12.6406 6.19531c3.69727 0 7.1084 -1.27539 9.81934 -3.38477l588.35 -454.72 c3.76562 -2.92871 6.19043 -7.50195 6.19043 -12.6377c0 -3.69434 -1.27344 -7.10352 -3.37988 -9.8125l-19.6201 -25.2598c-2.92871 -3.76953 -7.50391 -6.19629 -12.6416 -6.19629c-3.69238 0 -7.09961 1.27148 -9.80859 3.37598z"/>
    <glyph glyph-name="store-slash-primary" unicode="" horiz-adv-x="640" d="M6.17969 394.09c-3.76562 2.92871 -6.18945 7.50195 -6.18945 12.6367c0 3.69434 1.27344 7.10352 3.37988 9.81348l19.6299 25.2695c2.92871 3.76855 7.50293 6.19531 12.6406 6.19531c3.69727 0 7.1084 -1.27539 9.81934 -3.38477l588.36 -454.72 c3.76562 -2.92871 6.18945 -7.50195 6.18945 -12.6377c0 -3.69434 -1.27344 -7.10352 -3.37988 -9.8125l-19.6299 -25.2598c-2.92871 -3.76953 -7.50391 -6.19629 -12.6416 -6.19629c-3.69238 0 -7.09961 1.27148 -9.80859 3.37598z"/>
    <glyph glyph-name="toilet-paper-slash-primary" unicode="" horiz-adv-x="640" d="M6.17969 394.09c-3.76562 2.92871 -6.18945 7.50195 -6.18945 12.6367c0 3.69434 1.27344 7.10352 3.37988 9.81348l19.6299 25.2695c2.92871 3.76855 7.50293 6.19531 12.6406 6.19531c3.69727 0 7.1084 -1.27539 9.81934 -3.38477l588.36 -454.72 c3.76562 -2.92871 6.18945 -7.50195 6.18945 -12.6377c0 -3.69434 -1.27344 -7.10352 -3.37988 -9.8125l-19.6299 -25.2705c-2.92871 -3.76562 -7.50195 -6.18945 -12.6367 -6.18945c-3.69434 0 -7.10352 1.27344 -9.81348 3.37988z"/>
    <glyph glyph-name="users-slash-primary" unicode="" horiz-adv-x="640" d="M6.19043 394.09c-3.76562 2.92871 -6.19043 7.50195 -6.19043 12.6367c0 3.69434 1.27344 7.10352 3.37988 9.81348l19.6201 25.2695c2.92773 3.77148 7.50488 6.2002 12.6445 6.2002c3.7002 0 7.11426 -1.27734 9.8252 -3.38965l588.351 -454.72 c3.76562 -2.92871 6.18945 -7.50195 6.18945 -12.6377c0 -3.69434 -1.27344 -7.10352 -3.37988 -9.8125l-19.6299 -25.2705c-2.92871 -3.76562 -7.50195 -6.18945 -12.6367 -6.18945c-3.69434 0 -7.10352 1.27344 -9.81348 3.37988z"/>
    <glyph glyph-name="virus-primary" unicode="" d="M272 221.78c0 -26.4922 -21.5078 -48 -48 -48s-48 21.5078 -48 48c0 26.4912 21.5078 48 48 48s48 -21.5088 48 -48z"/>
    <glyph glyph-name="virus-slash-primary" unicode="" horiz-adv-x="640" d="M636.63 -32.5498l-19.6299 -25.2598c-2.92871 -3.76953 -7.50391 -6.19629 -12.6416 -6.19629c-3.69238 0 -7.09961 1.27148 -9.80859 3.37598l-588.37 454.72c-3.76562 2.92871 -6.18945 7.50195 -6.18945 12.6367c0 3.69434 1.27344 7.10352 3.37988 9.81348 l19.6299 25.2695c2.92871 3.76855 7.50293 6.19531 12.6406 6.19531c3.69727 0 7.1084 -1.27539 9.81934 -3.38477l588.36 -454.72c3.76562 -2.92871 6.18945 -7.50195 6.18945 -12.6377c0 -3.69434 -1.27344 -7.10352 -3.37988 -9.8125z"/>
    <glyph glyph-name="viruses-primary" unicode="" horiz-adv-x="640" d="M624 96c8.83105 0 16 -7.16895 16 -16s-7.16895 -16 -16 -16h-12.1201c-28.5098 0 -42.79 -34.4697 -22.6299 -54.6299l8.58008 -8.57031c2.89648 -2.89648 4.68457 -6.90137 4.68457 -11.3174c0 -8.83105 -7.16992 -16.002 -16.002 -16.002 c-4.41602 0 -8.41602 1.79297 -11.3125 4.68945l-8.57031 8.58008c-20.1602 20.1602 -54.6299 5.87988 -54.6299 -22.6299v-12.1201c0 -8.83105 -7.16895 -16 -16 -16s-16 7.16895 -16 16v12.1201c0 28.5098 -34.4697 42.79 -54.6299 22.6299l-8.57031 -8.58008 c-2.89648 -2.89648 -6.90137 -4.68457 -11.3174 -4.68457c-8.83105 0 -16.002 7.16992 -16.002 16.002c0 4.41602 1.79297 8.41602 4.68945 11.3125l8.58008 8.57031c20.1602 20.1602 5.87988 54.6299 -22.6299 54.6299h-12.1201c-8.83105 0 -16 7.16895 -16 16 s7.16895 16 16 16h12.1201c28.5098 0 42.79 34.4697 22.6299 54.6299l-8.58008 8.57031c-2.89648 2.89648 -4.68457 6.90137 -4.68457 11.3174c0 8.83105 7.16992 16.002 16.002 16.002c4.41602 0 8.41602 -1.79297 11.3125 -4.68945l8.57031 -8.58008 c20.1602 -20.1602 54.6299 -5.87988 54.6299 22.6299v12.1201c0 8.83105 7.16895 16 16 16s16 -7.16895 16 -16v-12.1201c0 -28.5098 34.4697 -42.79 54.6299 -22.6299l8.57031 8.58008c2.89648 2.89648 6.90137 4.68457 11.3174 4.68457 c8.83105 0 16.002 -7.16992 16.002 -16.002c0 -4.41602 -1.79297 -8.41602 -4.68945 -11.3125l-8.58008 -8.57031c-20.1602 -20.1602 -5.87988 -54.6299 22.6299 -54.6299h12.1201zM480 64c17.6611 0 32 14.3389 32 32s-14.3389 32 -32 32s-32 -14.3389 -32 -32 s14.3389 -32 32 -32zM160 320c17.6611 0 32 -14.3389 32 -32s-14.3389 -32 -32 -32s-32 14.3389 -32 32s14.3389 32 32 32z"/>
    <glyph glyph-name="vest-primary" unicode="" horiz-adv-x="448" d="M437.252 208.123c6.76562 -10.1484 10.748 -22.3994 10.748 -35.5v-204.623c0 -17.6611 -14.3389 -32 -32 -32h-192v224l96 288h32c17.6611 0 32 -14.3389 32 -32v-128zM387.312 28.6885c2.89746 2.89453 4.69043 6.89844 4.69043 11.3135 s-1.79297 8.41504 -4.69043 11.3096l-48 48c-2.87891 2.78125 -6.80078 4.48828 -11.1152 4.48828c-8.83105 0 -16 -7.16992 -16 -16c0 -4.31445 1.71094 -8.23242 4.49219 -11.1113l48 -48c2.89453 -2.89746 6.89844 -4.69043 11.3135 -4.69043 s8.41504 1.79297 11.3096 4.69043zM96 448h32l79.1348 -237.4l-13.4922 -40.4805c-1.05957 -3.17969 -1.64258 -6.58496 -1.64258 -10.1191v-224h-160c-17.6611 0 -32 14.3389 -32 32v204.623c0 13.1006 3.98242 25.3516 10.748 35.5l53.252 79.877v128 c0 17.6611 14.3389 32 32 32zM131.312 76.6885c2.78125 2.87891 4.48828 6.80078 4.48828 11.1152c0 8.83105 -7.16992 16 -16 16c-4.31445 0 -8.23242 -1.71094 -11.1113 -4.49219l-48 -48c-2.78125 -2.87891 -4.48828 -6.80078 -4.48828 -11.1152 c0 -8.83105 7.16992 -16 16 -16c4.31445 0 8.23242 1.71094 11.1113 4.49219z"/>
    <glyph glyph-name="vest-patches-primary" unicode="" horiz-adv-x="448" d="M437.252 208.123c7.00781 -10.5127 10.748 -22.8652 10.748 -35.5v-204.623c0 -17.6729 -14.3271 -32 -32 -32h-192v224l96 288h32c17.6729 0 32 -14.3271 32 -32v-128zM361.274 112.314c13.7227 1.22656 23.8535 13.3467 22.626 27.0703 c-1.16406 12.8008 -12.5742 22.1113 -25.4004 22.0762l-5.05078 -0.0371094l0.0371094 5.05762c0.0722656 12.7998 -9.26758 24.2568 -22.0566 25.4189c-0.65332 0.0576172 -1.31055 0.0908203 -1.96777 0.0976562c-13.7988 0.144531 -25.1025 -10.9248 -25.2471 -24.7236 l-0.214844 -48.5742v-0.0585938c0.015625 -3.68359 3.01562 -6.65723 6.7002 -6.6416l48.5264 0.214844v0c0.68457 0.00488281 1.36621 0.0380859 2.04785 0.0996094zM96 448h32l79.1348 -237.4l-13.4922 -40.4805c-1.08789 -3.2627 -1.64258 -6.67969 -1.64258 -10.1191 v-224h-160c-17.6729 0 -32 14.3271 -32 32v204.623c0 12.6348 3.74023 24.9873 10.748 35.5l53.252 79.877v128c0 17.6729 14.3271 32 32 32zM96 -8c22.0908 0 40 17.9092 40 40s-17.9092 40 -40 40s-40 -17.9092 -40 -40s17.9092 -40 40 -40zM128.5 175.516 c4.58301 4.67676 4.57617 12.1621 -0.015625 16.8291c-4.65234 4.72949 -12.2568 4.79102 -16.9844 0.139648l-15.5 -15.5l-15.5 15.5c-4.66797 4.59277 -12.1543 4.59961 -16.8301 0.015625c-4.7373 -4.64258 -4.8125 -12.2471 -0.169922 -16.9844l15.5156 -15.5156 l-15.5156 -15.5156c-4.58301 -4.67676 -4.57617 -12.1611 0.015625 -16.8291c4.65234 -4.72949 12.2568 -4.79102 16.9844 -0.139648l15.5 15.5l15.5 -15.5c4.66699 -4.5918 12.1533 -4.59863 16.8291 -0.015625c4.7373 4.64258 4.81348 12.2471 0.170898 16.9844 l-15.5156 15.5156l15.5156 15.5156v0z"/>
    <glyph glyph-name="glass-martini-primary" unicode="" d="M502 390.4l-214 -214.04v-192.36h56c22.0762 0 40 -17.9238 40 -40c0 -4.41504 -3.58496 -8 -8 -8h-240c-4.41504 0 -8 3.58496 -8 8c0 22.0762 17.9238 40 40 40h56v192.4l-214 214c-21.3203 21.2598 -6.26953 57.5996 23.7803 57.5996h444.399 c30.0508 0 45.1006 -36.3398 23.8203 -57.5996zM256 234.87l149.12 149.13h-298.28z"/>
    <glyph glyph-name="music-primary" unicode="" d="M128 321.49c0.00878906 14.3125 9.43359 26.4336 22.4102 30.5098l41.5898 12.2803v-364.28c0 -35.3398 -43 -64 -96 -64s-96 28.6602 -96 64s43 64 96 64c11.0352 -0.0625 21.7139 -1.42285 32 -3.91992v261.41zM470.38 446.49 c3.03613 0.957031 6.26953 1.47949 9.62012 1.47949c17.6514 0 31.9834 -14.3223 32 -31.9697v-352c0 -35.3496 -43 -64 -96 -64s-96 28.6602 -96 64s43 64 96 64c11.0361 -0.0605469 21.7158 -1.4248 32 -3.92969v315.81z"/>
    <glyph glyph-name="search-primary" unicode="" d="M504.9 -28.7002l-28.3008 -28.2998c-4.33008 -4.35547 -10.3252 -7.05371 -16.9463 -7.05371s-12.623 2.69824 -16.9531 7.05371l-99.7002 99.7002c-4.32715 4.3418 -7.00293 10.3291 -7.00293 16.9375c0 0.0195312 0.00292969 0.0419922 0.00292969 0.0625v16.2998 l36 36h16.2998h0.0605469c6.60742 0 12.5977 -2.67285 16.9395 -7l99.7002 -99.7002c4.30566 -4.35547 6.96582 -10.3428 6.96582 -16.9453c0 -6.6543 -2.7002 -12.6904 -7.06543 -17.0547z"/>
    <glyph glyph-name="heart-primary" unicode="" d="M244.72 56.5195l-140 140.78c-28.3701 28.5205 -33.7793 75 -8.35938 106.23c14.0146 17.3906 35.4863 28.5244 59.5381 28.5244c21.1963 0 40.3711 -8.68848 54.2217 -22.6445l45.4902 -45.7002l42.3701 42.5801c28.3799 28.5098 74.6494 34 105.71 8.4502 c17.3291 -14.1904 28.3955 -35.749 28.3955 -59.8721c0 -21.2529 -8.63184 -40.502 -22.5264 -54.4883l-143.149 -143.86c-2.76953 -2.78906 -6.60645 -4.51758 -10.8438 -4.51758s-8.07715 1.72852 -10.8467 4.51758z"/>
    <glyph glyph-name="star-primary" unicode="" horiz-adv-x="576" d="M437.64 205.54l-66.0498 -64.2305l15.6299 -90.8594c0.114258 -0.664062 0.173828 -1.34766 0.173828 -2.04395c0 -6.62305 -5.37695 -12 -12 -12c-2.00586 0 -3.91113 0.511719 -5.57324 1.38379l-81.8203 42.9404l-81.8203 -42.9404 c-1.66211 -0.87207 -3.55469 -1.36523 -5.56055 -1.36523c-6.62305 0 -12 5.37695 -12 12c0 0.696289 0.046875 1.36133 0.161133 2.02539l15.6299 90.8594l-66 64.2305c-2.2373 2.17969 -3.62695 5.22559 -3.62695 8.59277c0 6.01172 4.44531 10.999 10.2168 11.8672 l91.3398 13.2803l40.9004 82.8096c1.95898 3.96777 6.0459 6.69922 10.7666 6.69922s8.79395 -2.73145 10.7529 -6.69922l40.9004 -82.8096l91.3398 -13.2803c5.79297 -0.849609 10.2461 -5.8457 10.2461 -11.8721c0 -3.36426 -1.37305 -6.4082 -3.60645 -8.58789z"/>
    <glyph glyph-name="user-primary" unicode="" horiz-adv-x="448" d="M313.6 160c74.1699 -0.0166016 134.384 -60.2305 134.4 -134.4v-41.5996c0 -26.4922 -21.5078 -48 -48 -48h-352c-26.4922 0 -48 21.5078 -48 48v41.5996c0.0166016 74.1699 60.2305 134.384 134.4 134.4h16.6992c22.1426 -10.21 47.085 -15.9053 73.0498 -15.9053 c25.9639 0 50.6084 5.69531 72.751 15.9053h16.6992z"/>
    <glyph glyph-name="film-primary" unicode="" d="M488 384c0.0205078 0 0.0400391 0.000976562 0.0605469 0.000976562c13.2119 0 23.9395 -10.7266 23.9395 -23.9395v-0.0615234v-336c0 -0.0205078 0.000976562 -0.0400391 0.000976562 -0.0605469c0 -13.2119 -10.7266 -23.9395 -23.9395 -23.9395h-0.0615234h-8v20 c0 6.62305 -5.37695 12 -12 12h-40c-6.62305 0 -12 -5.37695 -12 -12v-20h-320v20c0 6.62305 -5.37695 12 -12 12h-40c-6.62305 0 -12 -5.37695 -12 -12v-20h-8c-0.0205078 0 -0.0400391 -0.000976562 -0.0605469 -0.000976562 c-13.2119 0 -23.9395 10.7266 -23.9395 23.9395v0.0615234v336c0 0.0205078 -0.000976562 0.0400391 -0.000976562 0.0605469c0 13.2119 10.7266 23.9395 23.9395 23.9395h0.0615234h8v-20c0 -6.62305 5.37695 -12 12 -12h40c6.62305 0 12 5.37695 12 12v20h320v-20 c0 -6.62305 5.37695 -12 12 -12h40c6.62305 0 12 5.37695 12 12v20h8zM96 76v40c0 6.62305 -5.37695 12 -12 12h-40c-6.62305 0 -12 -5.37695 -12 -12v-40c0 -6.62305 5.37695 -12 12 -12h40c6.62305 0 12 5.37695 12 12zM96 172v40c0 6.62305 -5.37695 12 -12 12h-40 c-6.62305 0 -12 -5.37695 -12 -12v-40c0 -6.62305 5.37695 -12 12 -12h40c6.62305 0 12 5.37695 12 12zM96 268v40c0 6.62305 -5.37695 12 -12 12h-40c-6.62305 0 -12 -5.37695 -12 -12v-40c0 -6.62305 5.37695 -12 12 -12h40c6.62305 0 12 5.37695 12 12zM368 60v96 c0 6.62305 -5.37695 12 -12 12h-200c-6.62305 0 -12 -5.37695 -12 -12v-96c0 -6.62305 5.37695 -12 12 -12h200c6.62305 0 12 5.37695 12 12zM368 228v96c0 6.62305 -5.37695 12 -12 12h-200c-6.62305 0 -12 -5.37695 -12 -12v-96c0 -6.62305 5.37695 -12 12 -12h200 c6.62305 0 12 5.37695 12 12zM480 76v40c0 6.62305 -5.37695 12 -12 12h-40c-6.62305 0 -12 -5.37695 -12 -12v-40c0 -6.62305 5.37695 -12 12 -12h40c6.62305 0 12 5.37695 12 12zM480 172v40c0 6.62305 -5.37695 12 -12 12h-40c-6.62305 0 -12 -5.37695 -12 -12v-40 c0 -6.62305 5.37695 -12 12 -12h40c6.62305 0 12 5.37695 12 12zM480 268v40c0 6.62305 -5.37695 12 -12 12h-40c-6.62305 0 -12 -5.37695 -12 -12v-40c0 -6.62305 5.37695 -12 12 -12h40c6.62305 0 12 5.37695 12 12z"/>
    <glyph glyph-name="th-large-primary" unicode="" d="M488 416c13.2461 0 24 -10.7539 24 -24v-160c0 -13.2461 -10.7539 -24 -24 -24h-192c-13.2461 0 -24 10.7539 -24 24v160c0 13.2461 10.7539 24 24 24h192zM216 416c13.2461 0 24 -10.7539 24 -24v-160c0 -13.2461 -10.7539 -24 -24 -24h-192 c-13.2461 0 -24 10.7539 -24 24v160c0 13.2461 10.7539 24 24 24h192z"/>
    <glyph glyph-name="th-primary" unicode="" d="M488 96c13.2461 0 24 -10.7539 24 -24v-80c0 -13.2461 -10.7539 -24 -24 -24h-101.33c-13.2461 0 -24 10.7539 -24 24v80c0 13.2461 10.7539 24 24 24h101.33zM306.67 256c13.2461 0 24 -10.7539 24 -24v-80c0 -13.2461 -10.7539 -24 -24 -24h-101.34 c-13.2461 0 -24 10.7539 -24 24v80c0 13.2461 10.7539 24 24 24h101.34zM488 416c13.2461 0 24 -10.7539 24 -24v-80c0 -13.2461 -10.7539 -24 -24 -24h-101.33c-13.2461 0 -24 10.7539 -24 24v80c0 13.2461 10.7539 24 24 24h101.33zM125.33 416 c13.2461 0 24 -10.7539 24 -24v-80c0 -13.2461 -10.7539 -24 -24 -24h-101.33c-13.2461 0 -24 10.7539 -24 24v80c0 13.2461 10.7539 24 24 24h101.33zM125.33 96c13.2461 0 24 -10.7539 24 -24v-80c0 -13.2461 -10.7539 -24 -24 -24h-101.33c-13.2461 0 -24 10.7539 -24 24 v80c0 13.2461 10.7539 24 24 24h101.33z"/>
    <glyph glyph-name="th-list-primary" unicode="" d="M125.33 256c13.2461 0 24 -10.7539 24 -24v-80c0 -13.2461 -10.7539 -24 -24 -24h-101.33c-13.2461 0 -24 10.7539 -24 24v80c0 13.2461 10.7539 24 24 24h101.33zM125.33 416c13.2461 0 24 -10.7539 24 -24v-80c0 -13.2461 -10.7539 -24 -24 -24h-101.33 c-13.2461 0 -24 10.7539 -24 24v80c0 13.2461 10.7539 24 24 24h101.33zM125.33 96c13.2461 0 24 -10.7539 24 -24v-80c0 -13.2461 -10.7539 -24 -24 -24h-101.33c-13.2461 0 -24 10.7539 -24 24v80c0 13.2461 10.7539 24 24 24h101.33z"/>
    </font>
</defs>
</svg>
