<svg xmlns="http://www.w3.org/2000/svg" xmlns:xlink="http://www.w3.org/1999/xlink" version="1.1">
<metadata>
Created by FontForge 20201107 at Wed Aug  4 12:24:14 2021
 By Robert Madole
Copyright (c) Font Awesome
</metadata>
<!-- Font Awesome Pro 5.15.4 by @fontawesome - https://fontawesome.com License - https://fontawesome.com/license (Commercial License) --><defs>
<font id="FontAwesome5Pro-Regular" horiz-adv-x="512">
  <font-face font-family="Font Awesome 5 Pro Regular" font-weight="400" font-stretch="normal" units-per-em="512" panose-1="2 0 5 3 0 0 0 0 0 0" ascent="448" descent="-64" bbox="-1 -64.8086 640.2 448.996" underline-thickness="25" underline-position="-50" unicode-range="U+0020-F8FF"/>
    <missing-glyph/>
    <glyph glyph-name="caravan-alt" unicode="" horiz-adv-x="640" d="M416 352c17.6611 0 32 -14.3389 32 -32v-64c0 -17.6611 -14.3389 -32 -32 -32h-64c-17.6611 0 -32 14.3389 -32 32v64c0 17.6611 14.3389 32 32 32h64zM624 112c8.83105 0 16 -7.16895 16 -16v-16c0 -8.83105 -7.16895 -16 -16 -16h-336c0 -52.9834 -43.0166 -96 -96 -96 s-96 43.0166 -96 96c-52.9834 0 -96 43.0166 -96 96v192c0 52.9834 43.0166 96 96 96h320c88.3066 0 160 -71.6934 160 -160v-176h48zM192 16c26.4795 0.0273438 47.9727 21.5205 48 48c0 26.4922 -21.5078 48 -48 48s-48 -21.5078 -48 -48s21.5078 -48 48 -48zM528 112v176 c-0.0664062 61.7842 -50.2158 111.934 -112 112h-320c-26.4795 -0.0273438 -47.9727 -21.5205 -48 -48v-192c0.0273438 -26.4795 21.5205 -47.9727 48 -48h13.3096c16.6904 28.5703 47.25 48 82.6904 48s66.0498 -19.4297 82.6904 -48h253.31zM256 352 c17.6611 0 32 -14.3389 32 -32v-64c0 -17.6611 -14.3389 -32 -32 -32h-128c-17.6611 0 -32 14.3389 -32 32v64c0 17.6611 14.3389 32 32 32h128z"/>
    <glyph glyph-name="cat-space" unicode="" horiz-adv-x="640" d="M448 448c97.1367 0 176 -78.8633 176 -176c0 -74.5938 -46.4805 -138.197 -112 -163.818v-140.182c-0.00683594 -17.6582 -14.3418 -31.9932 -32 -32h-64c-17.6582 0.00683594 -31.9932 14.3418 -32 32v86.0469l-82 -48.2344 c1.10449 -7.16406 1.7373 -14.374 1.875 -21.8125h16.125c17.6582 -0.00683594 31.9932 -14.3418 32 -32v-0.00878906c0 -8.82617 -7.16504 -15.9912 -15.9902 -15.9912h-0.00976562h-184c-48.5938 0 -88 39.2969 -88 112.703v212.375 c0 22.3594 -16.9688 43.5469 -39.3125 42.9375c-0.233398 -0.00683594 -0.453125 -0.00976562 -0.6875 -0.00976562c-13.2441 0 -23.9971 10.7529 -23.9971 23.9971s10.7529 23.9971 23.9971 23.9971c48.5459 -0.0488281 87.9512 -39.4541 88 -88v-93.0156 c37.2363 50.5801 93.6367 86.4414 160.197 97.0996c-0.0292969 1.31445 -0.197266 2.59375 -0.197266 3.91602c0 97.1367 78.8633 176 176 176zM448 400c-27.082 -0.0136719 -52.3154 -8.58789 -72.9375 -23.0625l40.9375 -40.9375h64l40.9375 40.9375 c-20.6221 14.4746 -45.8555 23.0488 -72.9375 23.0625zM504 272c0 8.82617 -7.16504 16 -15.9902 16h-0.00976562c-8.83105 0 -16 -7.16895 -16 -16s7.16895 -16 16 -16s16 7.16895 16 16zM424 272c0 8.82617 -7.16504 16 -15.9902 16h-0.00976562 c-8.83105 0 -16 -7.16895 -16 -16s7.16895 -16 16 -16s16 7.16895 16 16zM287.438 52.9219l94.9492 55.8516c-49.0479 19.748 -87.0635 60.8486 -102.715 111.826c-97.2422 -15.6211 -167.672 -97.9355 -167.672 -196.6c0.0205078 -22.0674 17.9326 -39.9795 40 -40h103.719 c-0.681641 37.6211 -19.2314 70.8652 -47.625 91.5469c-6.625 4.79688 -8.03125 14.1406 -4.0625 21.2812l7.4375 13.3906c4.4375 8.01562 15 11.0781 22.5312 5.8125c22.8955 -16.0908 41.2393 -37.6621 53.4375 -63.1094zM464 -16v112.807 c-5.375 -0.539062 -10.4951 -0.816406 -16.0107 -0.816406c-6.75391 0 -13.4121 0.414062 -19.9502 1.21875c2.48047 -4.50195 3.9248 -9.70312 3.96094 -15.1934v-98.0156h32zM448 144c70.6084 0.0791016 127.921 57.3916 128 128c0 32.1699 -12.334 61.2539 -32 83.7637 v-83.7637c0 -52.9834 -43.0166 -96 -96 -96s-96 43.0166 -96 96v83.7637c-19.666 -22.5098 -32 -51.5938 -32 -83.7637c0.0800781 -70.6084 57.3916 -127.92 128 -128zM146.945 379.23c-1.74902 0.875977 -2.9502 2.67969 -2.9502 4.76758s1.20117 3.89746 2.9502 4.77344 l39.7109 16.5586l16.5625 39.7129c0.871094 1.75488 2.67578 2.96191 4.7666 2.96191s3.90137 -1.20703 4.77246 -2.96191l16.5586 -39.7129l39.7148 -16.5586c1.74902 -0.875977 2.9502 -2.67969 2.9502 -4.76758s-1.20117 -3.89746 -2.9502 -4.77344l-39.7148 -16.5605 l-16.5586 -39.7109c-0.870117 -1.75586 -2.67578 -2.96387 -4.7666 -2.96387s-3.90234 1.20801 -4.77246 2.96387l-16.5625 39.7109z"/>
    <glyph glyph-name="coffee-pot" unicode="" d="M428 273c52 -40.0703 84 -101.86 84 -169.68c-0.0195312 -51.4805 -18.71 -84.7705 -49.71 -117.721c-10.3936 -10.8525 -25.0225 -17.5996 -41.2207 -17.5996h-0.229492h-265.67c-0.0664062 0 -0.129883 -0.0146484 -0.196289 -0.0146484 c-16.2471 0 -30.9199 6.79004 -41.334 17.6846c-31.0195 32.9404 -49.6396 66.2402 -49.6396 117.71c0 68.46 32.9199 129.4 84.1904 169.09l-34.7305 95.5303h-25.46c-22.0762 0 -40 -17.9238 -40 -40v-88c0 -8.83105 -7.16895 -16 -16 -16h-16 c-8.83105 0 -16 7.16895 -16 16v88c0 48.5684 39.4316 88 88 88h392zM411.47 368h-246.939l29.0898 -80h188.76zM114.09 128h347.82c-6.83984 45.7695 -32.5898 85.8701 -69.8398 112h-205.86c-37.9199 -26.0898 -65.0098 -65.7803 -72.1201 -112z"/>
    <glyph glyph-name="comet" unicode="" d="M308.422 184.062c6.48438 -0.951172 11.4844 -6.54297 11.4844 -13.2891c0 -3.75 -1.54004 -7.14258 -4.02148 -9.58008l-44.2539 -43.166l10.4336 -61.0117c0.126953 -0.741211 0.179688 -1.48242 0.179688 -2.25977c0 -7.3877 -5.99805 -13.3857 -13.3857 -13.3857 c-2.24023 0 -4.35352 0.551758 -6.20996 1.52637l-54.6953 28.8105l-54.6953 -28.8105c-1.8584 -0.978516 -3.9873 -1.55176 -6.23145 -1.55176c-7.38477 0 -13.3799 5.99512 -13.3799 13.3799c0 0.78125 0.0664062 1.5459 0.195312 2.29102l10.4961 61.0117 l-44.2617 43.166c-2.50488 2.43555 -4.04688 5.84277 -4.04688 9.60938c0 6.73438 4.97852 12.3145 11.4531 13.2598l61.1094 8.92188l27.3535 55.5332c2.17773 4.4375 6.72754 7.49512 12 7.49512c5.27344 0 9.83789 -3.05762 12.0156 -7.49512l27.3516 -55.5332z M502.35 438.243c5.9668 -5.91992 9.65137 -14.1309 9.65137 -23.1924c0 -3.44922 -0.535156 -6.77441 -1.52832 -9.89746c-8.49805 -28.293 -29.1191 -94.6924 -52.3027 -153.187c14.5098 -5.52734 24.7891 -19.6016 24.7891 -36.042 c0 -6.44336 -1.58594 -12.5195 -4.38672 -17.8584c-21.9961 -42.0879 -79.2969 -146.375 -136.381 -203.369c-36.2988 -36.2764 -86.4756 -58.7246 -141.798 -58.7246s-105.442 22.4482 -141.741 58.7246c-78.2031 78.1953 -78.2031 205.369 0 283.564 c57.1777 57.1025 161.25 114.284 203.461 136.282c5.33887 2.79102 11.4346 4.41309 17.8711 4.41309c16.4092 0 30.4404 -10.2588 36.0254 -24.708c58.2695 23.1074 124.852 43.791 153.252 52.291c3.06934 0.949219 6.33496 1.47363 9.71387 1.47363 c9.14062 0 17.4141 -3.73926 23.374 -9.77051zM430.77 210.27c-5.98633 1.66504 -9.16699 2.63184 -37.4004 10.998l10.7168 24.9043c20.4961 47.8848 40.1797 107.487 52.3965 146.28c-38.8984 -12.2012 -98.6992 -31.9961 -146.283 -52.4004l-24.9023 -10.6865 c-6.70703 22.9668 -8.55176 29.3496 -10.998 37.3857c-39.8984 -21.2949 -132.568 -73.2881 -181.652 -122.376c-59.3945 -59.4941 -59.3945 -156.188 0 -215.682c27.5908 -27.6221 65.7568 -44.7188 107.844 -44.7188s80.2119 17.0967 107.803 44.7188 c48.4902 48.3867 98.5742 136.783 122.477 181.576z"/>
    <glyph glyph-name="fan-table" unicode="" horiz-adv-x="448" d="M448 224c0 -115.6 -87.5801 -210.69 -200 -222.68v-17.3203h88c21.3203 0 41.2197 -13.8896 47.4805 -33.1201c2.40918 -7.41016 -3.89062 -14.8799 -11.6709 -14.8799h-295.609c-7.79004 0 -14.0898 7.46973 -11.6807 14.8799 c6.27051 19.2305 26.1602 33.1201 47.4805 33.1201h88v17.3203c-112.42 11.9893 -200 107.08 -200 222.68c0 123.71 100.29 224 224 224s224 -100.29 224 -224zM224 48c97.0498 0 176 79 176 176s-79 176 -176 176s-176 -78.9502 -176 -176s79 -176 176 -176zM354.06 181.69 l-97.1895 16.1895c1.02344 -5.32129 1.50391 -10.8379 1.50391 -16.4561c0 -15.6699 -4.16797 -30.374 -11.4541 -43.0635c-15.1631 -26.2529 -43.5742 -43.7852 -76.0449 -43.7852c-15.917 0 -30.8506 4.25 -43.7246 11.6748 c-6.58008 3.79004 -13.5303 15.6602 -4.77051 26.2598l62.6504 76.1006c-53.0801 18.8398 -64.2305 71.7793 -55.3799 104.899c6.02051 22.7402 20.9199 41.8174 40.8691 53.25v0c12.1006 6.90039 22.5303 -2.14941 25.1006 -9l34.4297 -91.9395 c15.2842 12.9844 35.124 20.8467 56.7305 20.8467c48.3584 0 87.6201 -39.2617 87.6201 -87.6201v-0.106445c-0.00390625 -9.65039 -7.82324 -17.4844 -17.4736 -17.4844c-0.976562 0 -1.93359 0.0800781 -2.86719 0.234375zM224 208c8.83105 0 16 7.16895 16 16 s-7.16895 16 -16 16s-16 -7.16895 -16 -16s7.16895 -16 16 -16z"/>
    <glyph glyph-name="faucet" unicode="" d="M368 224c79.4004 0 144 -64.5996 144 -144v-32c0 -26.4922 -21.5078 -48 -48 -48h-64c-26.4922 0 -48 21.5078 -48 48v16h-28.8203c-23.46 -29.0498 -58.9297 -48 -99.1797 -48s-75.7197 18.9502 -99.1797 48h-108.82c-8.83105 0 -16 7.16895 -16 16v16 c0 8.83105 7.16895 16 16 16h134.75c12.3086 -28.2734 40.4287 -48.0625 73.2119 -48.0625c32.7822 0 60.9795 19.7891 73.2881 48.0625h70.75c17.6611 0 32 -14.3389 32 -32v-32h64v32c-0.0546875 52.958 -43.042 95.9453 -96 96h-70.75 c-12.3086 28.2734 -40.4287 48.0625 -73.2119 48.0625c-32.7822 0 -60.9795 -19.7891 -73.2881 -48.0625h-134.75c-8.83105 0 -16 7.16895 -16 16v16c0 8.83105 7.16895 16 16 16h108.82c18.6699 23.1104 44.8301 39.8096 75.1797 45.5801v30.8203 s-118.57 -12.4004 -120 -12.4004c-8.74023 0 -16 7.48047 -16 16.8896v30.2207c0 9.41992 7.28027 16.8896 16 16.8896c1.37988 0 -6.12012 0.790039 120 -13.3203v29.3203c0 8.83105 7.16895 16 16 16h16c8.83105 0 16 -7.16895 16 -16v-29.3203 c126.12 14.1104 118.6 13.3203 120 13.3203c8.74023 0 16 -7.46973 16 -16.8896v-30.2207c0 -9.40918 -7.29004 -16.8896 -16 -16.8896c-1.40039 0 -120 12.4004 -120 12.4004v-30.8203c30.3496 -5.77051 56.5098 -22.4697 75.1797 -45.5801h44.8203z"/>
    <glyph glyph-name="faucet-drip" unicode="" d="M416 -32c0 17.6699 32 64 32 64s32 -46.3301 32 -64c0 -17.6611 -14.3389 -32 -32 -32s-32 14.3389 -32 32zM368 288c79.4004 0 144 -64.5996 144 -144v-32c0 -26.4922 -21.5078 -48 -48 -48h-64c-26.4922 0 -48 21.5078 -48 48v16h-28.8203 c-23.46 -29.0498 -58.9297 -48 -99.1797 -48s-75.7197 18.9502 -99.1797 48h-108.82c-8.83105 0 -16 7.16895 -16 16v16c0 8.83105 7.16895 16 16 16h134.75c12.3086 -28.2734 40.4287 -48.0625 73.2119 -48.0625c32.7822 0 60.9795 19.7891 73.2881 48.0625h70.75 c17.6611 0 32 -14.3389 32 -32v-32h64v32c-0.0546875 52.958 -43.042 95.9453 -96 96h-70.75c-12.3086 28.2734 -40.4287 48.0625 -73.2119 48.0625c-32.7822 0 -60.9795 -19.7891 -73.2881 -48.0625h-134.75c-8.83105 0 -16 7.16895 -16 16v16c0 8.83105 7.16895 16 16 16 h108.82c18.6699 23.1104 44.8301 39.8096 75.1797 45.5801v30.8203s-118.57 -12.4004 -120 -12.4004c-8.74023 0 -16 7.48047 -16 16.8896v30.2207c0 9.41992 7.28027 16.8896 16 16.8896c1.37988 0 -6.12012 0.790039 120 -13.3203v29.3203c0 8.83105 7.16895 16 16 16h16 c8.83105 0 16 -7.16895 16 -16v-29.3203c126.12 14.1104 118.6 13.3203 120 13.3203c8.74023 0 16 -7.46973 16 -16.8896v-30.2207c0 -9.40918 -7.29004 -16.8896 -16 -16.8896c-1.40039 0 -120 12.4004 -120 12.4004v-30.8203 c30.3496 -5.77051 56.5098 -22.4697 75.1797 -45.5801h44.8203z"/>
    <glyph glyph-name="galaxy" unicode="" d="M506.463 181.088c3.60352 -15.0879 5.53125 -30.5205 5.53125 -46.7051c0 -6.81738 -0.338867 -13.5557 -1 -20.1992c-1.87109 -18.5107 -17.5029 -33.042 -36.5029 -33.042c-15.1553 0 -28.1777 9.2041 -33.7764 22.3232 c-9.34473 21.6377 -25.4922 39.4277 -45.9365 50.8271c0.733398 -7.00293 1.10059 -13.748 1.10059 -20.9434c0 -13.667 -1.35742 -27.0195 -3.94434 -39.9307c-14.6875 -73.5449 -73.6865 -134.575 -146.81 -151.871c-15.165 -3.59375 -30.874 -5.52051 -47.125 -5.54688 c-0.0351562 0 0.129883 -0.00683594 0.0947266 -0.00683594c-6.71973 0 -13.3604 0.34082 -19.9062 1.00684c-18.5117 1.87402 -33.043 17.5078 -33.043 36.5107c0 15.1445 9.19043 28.1602 22.293 33.7686c21.6094 9.33105 39.3867 25.4355 50.8115 45.8271 c-6.89551 -0.714844 -13.5361 -1.07227 -20.6191 -1.07227c-13.7734 0 -27.2246 1.38574 -40.2227 4.02539c-73.5303 14.6719 -134.591 73.6699 -151.841 146.824c-3.62305 15.0996 -5.56152 30.5518 -5.56152 46.7559c0 6.80566 0.337891 13.5322 0.999023 20.165 c1.51465 16.7402 14.4795 30.2461 30.9678 32.5928c1.87305 0.297852 3.74219 0.475586 5.69824 0.475586c15.1182 0 28.0996 -9.22559 33.6143 -22.3496c9.34375 -21.6377 25.4912 -39.4277 45.9365 -50.8271c-0.734375 7.00195 -1.10156 13.7471 -1.10156 20.9424 c0 13.667 1.35742 27.0205 3.94434 39.9307c14.6875 73.5459 73.6865 134.575 146.81 151.872c15.0938 3.61426 30.5361 5.54883 46.7305 5.54883c6.81934 0 13.5605 -0.339844 20.2061 -1.00293c16.7383 -1.51953 30.2412 -14.4814 32.5928 -30.9678 c0.316406 -1.92188 0.503906 -3.8457 0.503906 -5.85645c0 -15.0752 -9.23242 -28.0098 -22.3467 -33.4551c-21.6094 -9.33105 -39.3867 -25.4346 -50.8115 -45.8271c6.87988 0.708984 13.502 1.0625 20.5684 1.0625c13.7891 0 27.2568 -1.38281 40.2734 -4.01562 c73.5303 -14.6709 134.592 -73.6699 151.841 -146.824zM365.966 214.103c38.2959 -5.875 72.1064 -25.6738 95.8105 -54.1699c-10.3926 62.3496 -59.7549 109.583 -116.591 120.935c-9.88281 2.0332 -20.041 3.06152 -30.5215 3.06152 c-17.2432 0 -33.8154 -2.89258 -49.2588 -8.21777c-2.43262 -0.831055 -5.04785 -1.31152 -7.76074 -1.31152c-13.2627 0 -24.0303 10.7666 -24.0303 24.0293c0 1.20508 0.0888672 2.38965 0.260742 3.54688c5.88965 38.2998 25.7051 72.1113 54.2178 95.8105 c-62.6709 -10.6367 -109.621 -59.8838 -120.967 -116.622c-2.03223 -9.87793 -3.05957 -20.0312 -3.05957 -30.5068c0 -17.2363 2.8916 -33.8037 8.21582 -49.2422c0.834961 -2.43848 1.31934 -5.05957 1.31934 -7.7793c0 -13.2529 -10.7598 -24.0127 -24.0127 -24.0127 c-1.20801 0 -2.39551 0.0898438 -3.55566 0.261719c-38.2959 5.875 -72.1064 25.6738 -95.8105 54.1709c10.373 -62.2334 59.6494 -109.562 116.592 -120.935c9.86133 -2.00879 19.9893 -3.02246 30.4414 -3.02246c17.2637 0 33.8613 2.87793 49.3379 8.17871 c2.43457 0.832031 5.05176 1.31348 7.76758 1.31348c13.2588 0 24.0244 -10.7646 24.0244 -24.0244c0 -1.20801 -0.0888672 -2.39453 -0.261719 -3.55469c-5.88965 -38.2998 -25.7051 -72.1104 -54.2178 -95.8096c62.6709 10.6367 109.621 59.8828 120.967 116.622 c2.03223 9.87695 3.05957 20.0303 3.05957 30.5059c0 17.2373 -2.8916 33.8037 -8.21582 49.2422c-0.835938 2.43945 -1.32031 5.06055 -1.32031 7.78223c0 13.252 10.7598 24.0107 24.0117 24.0107c1.20898 0 2.39648 -0.0898438 3.55762 -0.262695zM256 231.993 c22.0752 0 39.999 -17.9238 39.999 -39.999c0 -22.0762 -17.9229 -39.999 -39.999 -39.999s-39.999 17.9229 -39.999 39.999s17.9229 39.999 39.999 39.999z"/>
    <glyph glyph-name="garage" unicode="" horiz-adv-x="640" d="M597.91 337.92c24.7207 -10.2188 42.0898 -34.5459 42.0898 -62.9404v-0.179688v-322.8c0 -8.83105 -7.16895 -16 -16 -16h-16c-8.83105 0 -16 7.16895 -16 16v322.8l0.0136719 -0.00390625c0 8.45996 -5.16602 15.7236 -12.5137 18.8037l-251.59 104.82 c-2.41699 1.00391 -5.09473 1.55859 -7.87402 1.55859c-2.77832 0 -5.42871 -0.554688 -7.8457 -1.55859l-251.69 -104.82c-7.33984 -3.02051 -12.5 -10.2344 -12.5 -18.6582v-0.141602v-322.8c0 -8.83105 -7.16895 -16 -16 -16h-16c-8.83105 0 -16 7.16895 -16 16v322.8 c0 0.0595703 -0.0449219 0.0869141 -0.0449219 0.146484c0 28.3945 17.4141 52.7549 42.1348 62.9736l251.601 104.79c8.08301 3.38574 17.0488 5.25684 26.3555 5.25684s18.1807 -1.87109 26.2637 -5.25684zM504 256c22.0762 0 40 -17.9238 40 -40v-264 c0 -8.83105 -7.16895 -16 -16 -16h-16c-8.83105 0 -16 7.16895 -16 16v144h-352v-144c0 -8.83105 -7.16895 -16 -16 -16h-16c-8.83105 0 -16 7.16895 -16 16v264c0 22.0762 17.9238 40 40 40h368zM496 128v80h-352v-80h352zM368 32c8.83105 0 16 -7.16895 16 -16 s-7.16895 -16 -16 -16h-96c-8.83105 0 -16 7.16895 -16 16s7.16895 16 16 16h96z"/>
    <glyph glyph-name="garage-car" unicode="" horiz-adv-x="640" d="M504 256c22.0762 0 40 -17.9238 40 -40v-264c0 -8.83105 -7.16895 -16 -16 -16h-16c-8.83105 0 -16 7.16895 -16 16v256h-352v-256c0 -8.83105 -7.16895 -16 -16 -16h-16c-8.83105 0 -16 7.16895 -16 16v264c0 22.0762 17.9238 40 40 40h368zM597.91 337.91 c24.7207 -10.2158 42.0898 -34.5312 42.0898 -62.9238v-0.176758v-322.81c0 -8.83105 -7.16895 -16 -16 -16h-16c-8.83105 0 -16 7.16895 -16 16v322.81c-0.000976562 8.46191 -5.15234 15.7168 -12.5 18.8008l-251.59 104.81 c-2.41699 1.00391 -5.09473 1.55859 -7.87402 1.55859c-2.77832 0 -5.42871 -0.554688 -7.8457 -1.55859l-251.69 -104.81c-7.34082 -3.02441 -12.5 -10.2402 -12.5 -18.666v-0.134766v-322.81c0 -8.83105 -7.16895 -16 -16 -16h-16c-8.83105 0 -16 7.16895 -16 16v322.81 c0 0.0595703 -0.0449219 0.0849609 -0.0449219 0.143555c0 28.3926 17.4141 52.751 42.1348 62.9668l251.601 104.79c8.08301 3.38574 17.0488 5.25684 26.3555 5.25684s18.1807 -1.87109 26.2637 -5.25684zM430.19 77.6201 c19.5312 -5.98828 33.7607 -24.1484 33.8096 -45.6201v-24c-0.0429688 -10.3613 -6.71777 -19.1631 -16 -22.3799v-33.6201c0 -8.83105 -7.16895 -16 -16 -16h-32c-8.83105 0 -16 7.16895 -16 16v32h-128v-32c0 -8.83105 -7.16895 -16 -16 -16h-32 c-8.83105 0 -16 7.16895 -16 16v33.6201c-9.28223 3.2168 -15.957 12.0186 -16 22.3799v24c0.0644531 21.0312 13.7236 38.876 32.6504 45.21l11.6992 46.79c7.45215 30.0986 34.6572 52.4697 67.0449 52.4697h0.0654297h64 c0.03125 0 0.0546875 -0.0302734 0.0859375 -0.0302734c32.3633 0 59.5576 -22.3066 67.0342 -52.3691zM232 11.4404c9.59961 0 24 -1.66016 24 8.30957s-14.4004 24.9199 -24 24.9199s-16 -6.65039 -16 -16.6201s6.40039 -16.6094 16 -16.6094zM258.81 80h121.311 l-8.12012 32.4199c-2.28418 9.20703 -10.6084 16.0498 -20.5176 16.0498h-0.0224609h-64c-0.0078125 0 -0.0126953 -0.00976562 -0.0205078 -0.00976562c-9.90918 0 -18.2354 -6.83301 -20.5195 -16.04zM408 11.4404c9.59961 0 16 6.55957 16 16.5596 s-6.40039 16.6699 -16 16.6699s-24 -14.9502 -24 -24.9199s14.4004 -8.30957 24 -8.30957z"/>
    <glyph glyph-name="garage-open" unicode="" horiz-adv-x="640" d="M597.91 337.92c24.7207 -10.2158 42.0898 -34.541 42.0898 -62.9336v-0.176758v-322.81c0 -8.83105 -7.16895 -16 -16 -16h-16c-8.83105 0 -16 7.16895 -16 16v322.81c-0.000976562 8.46191 -5.15234 15.7168 -12.5 18.8008l-251.59 104.81 c-2.41699 1.00391 -5.09473 1.55859 -7.87402 1.55859c-2.77832 0 -5.42871 -0.554688 -7.8457 -1.55859l-251.69 -104.81c-7.34082 -3.02441 -12.5 -10.2402 -12.5 -18.666v-0.134766v-322.81c0 -8.83105 -7.16895 -16 -16 -16h-16c-8.83105 0 -16 7.16895 -16 16v322.81 c0 0.0595703 -0.0449219 0.0849609 -0.0449219 0.143555c0 28.3926 17.4141 52.751 42.1348 62.9668l251.601 104.79c8.08301 3.38574 17.0488 5.25684 26.3555 5.25684s18.1807 -1.87109 26.2637 -5.25684zM504 256c22.0762 0 40 -17.9238 40 -40v-264 c0 -8.83105 -7.16895 -16 -16 -16h-16c-8.83105 0 -16 7.16895 -16 16v176h-352v-176c0 -8.83105 -7.16895 -16 -16 -16h-16c-8.83105 0 -16 7.16895 -16 16v264c0 22.0762 17.9238 40 40 40h368zM496 208h-352v-48h352v48zM430.19 77.6201 c19.5312 -5.98828 33.7607 -24.1484 33.8096 -45.6201v-24c-0.0429688 -10.3613 -6.71777 -19.1631 -16 -22.3799v-33.6201c0 -8.83105 -7.16895 -16 -16 -16h-32c-8.83105 0 -16 7.16895 -16 16v32h-128v-32c0 -8.83105 -7.16895 -16 -16 -16h-32 c-8.83105 0 -16 7.16895 -16 16v33.6201c-9.28223 3.2168 -15.957 12.0186 -16 22.3799v24c0.0429688 21.0527 13.709 38.9209 32.6504 45.2598l4.67969 18.7402h49.4795l-4 -16h121.311l-4 16h49.4795zM232 11.4404c9.59961 0 24 -1.66016 24 8.30957 s-14.4004 24.9199 -24 24.9199s-16 -6.65039 -16 -16.6201s6.40039 -16.6094 16 -16.6094zM408 11.4404c9.59961 0 16 6.55957 16 16.5596s-6.40039 16.6699 -16 16.6699s-24 -14.9502 -24 -24.9199s14.4004 -8.30957 24 -8.30957z"/>
    <glyph glyph-name="heat" unicode="" horiz-adv-x="448" d="M48 291.88c0.108398 -38.7461 15.8779 -73.8594 41.3301 -99.2695c33.7861 -33.7803 54.6709 -80.4541 54.6709 -131.957c0 -0.177734 0 -0.355469 -0.000976562 -0.533203v-76.1201c0 -8.83105 -7.16895 -16 -16 -16h-16c-8.83105 0 -16 7.16895 -16 16v76.1201 c-0.110352 38.748 -15.8789 73.8643 -41.3301 99.2803c-33.7861 33.7725 -54.6709 80.4414 -54.6709 131.939c0 0.180664 0 0.360352 0.000976562 0.540039v44.1201c0 8.83105 7.16895 16 16 16h16c8.83105 0 16 -7.16895 16 -16v-44.1201zM200 291.88 c0.108398 -38.7461 15.8779 -73.8594 41.3301 -99.2695c33.7861 -33.7803 54.6709 -80.4541 54.6709 -131.957c0 -0.177734 0 -0.355469 -0.000976562 -0.533203v-76.1201c0 -8.83105 -7.16895 -16 -16 -16h-16c-8.83105 0 -16 7.16895 -16 16v76.1201 c-0.110352 38.748 -15.8789 73.8643 -41.3301 99.2803c-33.7861 33.7725 -54.6709 80.4414 -54.6709 131.939c0 0.180664 0 0.360352 0.000976562 0.540039v108.12c0 8.83105 7.16895 16 16 16h16c8.83105 0 16 -7.16895 16 -16v-108.12zM393.33 192.61 c33.7861 -33.7803 54.6709 -80.4541 54.6709 -131.957c0 -0.177734 0 -0.355469 -0.000976562 -0.533203v-76.1201c0 -8.83105 -7.16895 -16 -16 -16h-16c-8.83105 0 -16 7.16895 -16 16v76.1201c-0.110352 38.748 -15.8789 73.8643 -41.3301 99.2803 c-33.7861 33.7725 -54.6709 80.4414 -54.6709 131.939c0 0.180664 0 0.360352 0.000976562 0.540039v44.1201c0 8.83105 7.16895 16 16 16h16c8.83105 0 16 -7.16895 16 -16v-44.1201c0.108398 -38.7461 15.8779 -73.8594 41.3301 -99.2695z"/>
    <glyph glyph-name="house" unicode="" horiz-adv-x="576" d="M570.63 208c3.30957 -2.93262 5.38672 -7.21777 5.38672 -11.9824c0 -4.06348 -1.51758 -7.77441 -4.0166 -10.5977l-10.6602 -11.9297c-2.93164 -3.30273 -7.21289 -5.375 -11.9717 -5.375c-4.07324 0 -7.79297 1.52539 -10.6182 4.03516l-26.75 24v-220.15 c0 -22.0762 -17.9238 -40 -40 -40h-368.04c-22.0762 0 -40 17.9238 -40 40v220.13l-26.75 -24c-2.8252 -2.50977 -6.5498 -4.04492 -10.6221 -4.04492c-4.75977 0 -9.03613 2.08301 -11.9678 5.38477l-10.6201 11.9502c-2.49902 2.82324 -4.02637 6.53906 -4.02637 10.6025 c0 4.76465 2.08691 9.04492 5.39648 11.9775l256.07 229.92c7.06348 6.27246 16.3975 10.084 26.5781 10.084s19.4775 -3.81152 26.541 -10.084l53.4404 -48v2.08008c0 13.2461 10.7539 24 24 24h96c13.2461 0 24 -10.7539 24 -24v-131.36zM464 -16v255.25l-176 158 l-176 -158v-255.25h352zM464 303.74v64.2598h-48v-21.1699zM224 240c0 8.83105 7.16895 16 16 16h96c8.83105 0 16 -7.16895 16 -16v-96c0 -8.83105 -7.16895 -16 -16 -16h-96c-8.83105 0 -16 7.16895 -16 16v96z"/>
    <glyph glyph-name="house-day" unicode="" horiz-adv-x="640" d="M352 144c0.0273438 8.81836 7.18164 15.9727 16 16h64c8.81836 -0.0273438 15.9727 -7.18164 16 -16v-64c0 -8.83105 -7.16895 -16 -16 -16h-64c-8.83105 0 -16 7.16895 -16 16v64zM634.63 152c3.28516 -2.93066 5.34473 -7.20117 5.34473 -11.9453 c0 -4.06152 -1.51758 -7.77148 -4.01465 -10.5947l-10.6201 -12c-2.93164 -3.29883 -7.21094 -5.36914 -11.9668 -5.36914c-4.0752 0 -7.79688 1.52637 -10.623 4.03906l-26.75 24.2598v-164.39c0 -22.0762 -17.9238 -40 -40 -40h-272c-22.0762 0 -40 17.9238 -40 40v164.39 l-26.79 -24.2998c-2.82617 -2.51172 -6.55273 -4.04883 -10.6279 -4.04883c-4.75586 0 -9.03027 2.08008 -11.9619 5.37891l-10.6201 12c-2.49902 2.82324 -4.02637 6.53906 -4.02637 10.6025c0 4.76465 2.08691 9.04492 5.39648 11.9775l210.54 190.88 c6.41113 5.66797 14.8701 9.10938 24.0918 9.10938s17.6465 -3.44141 24.0576 -9.10938l103.94 -94.2197v55.3398c0 8.83105 7.16895 16 16 16h16c8.83105 0 16 -7.16895 16 -16v-98.8496zM528 -16v199.94l-128 116.06l-128 -116.06v-199.94h256zM104 272 c0 -36.2695 27.0996 -65.8896 62 -70.8096l-39 -35.4209l-63.2305 -21.0996c-1.18945 -0.400391 -2.46289 -0.618164 -3.78711 -0.618164c-6.56152 0 -11.8896 5.32812 -11.8896 11.8906c0 1.32324 0.216797 2.59766 0.617188 3.78809l23 69.0996l-65.1104 32.5098 c-3.91699 1.94824 -6.6123 5.97949 -6.6123 10.6484s2.69531 8.71289 6.6123 10.6621l65.0801 32.6396l-23 69c-0.385742 1.1709 -0.595703 2.41992 -0.595703 3.71973c0 6.5625 5.32812 11.8896 11.8906 11.8896c1.31543 0 2.58203 -0.213867 3.76562 -0.609375 l69.0898 -23l32.5195 65.1104c1.94922 3.91699 5.97949 6.6123 10.6484 6.6123s8.71387 -2.69531 10.6621 -6.6123l32.5703 -65.2305l69 23c1.18359 0.395508 2.44824 0.611328 3.76465 0.611328c6.5625 0 11.8896 -5.32812 11.8896 -11.8906 c0 -1.29883 -0.208984 -2.5498 -0.594727 -3.7207l-23 -69l7.38965 -3.68945l-40 -36.2803c-1.67969 38.1895 -33.0693 68.7998 -71.6797 68.7998c-39.7178 -0.0439453 -71.9561 -32.2822 -72 -72zM136 272c0.0380859 22.0586 17.9414 39.9619 40 40 c22.0762 0 40 -17.9238 40 -40s-17.9238 -40 -40 -40s-40 17.9238 -40 40z"/>
    <glyph glyph-name="house-leave" unicode="" horiz-adv-x="640" d="M363.25 59l-26.8896 -27h-232.36c-22.0762 0 -40 17.9238 -40 40v164.43l-26.7695 -24.3096c-2.82715 -2.51562 -6.55566 -4.05371 -10.6338 -4.05371c-4.75879 0 -9.03516 2.08203 -11.9668 5.38379l-10.6299 12c-2.49023 2.82129 -4.01172 6.53027 -4.01172 10.585 c0 4.75781 2.08105 9.0332 5.38184 11.9648l210.62 190.9c6.41797 5.66602 14.8809 9.10547 24.1064 9.10547c9.22656 0 17.6553 -3.43945 24.0732 -9.10547l123.96 -112.33l-7.12988 -2.89062c-13.3652 -5.43066 -25.54 -13.1035 -36.0898 -22.6094l-104.811 95 l-128.05 -116.07v-200h260.41l-7.58984 -18.3604c-0.351562 -0.994141 -0.907227 -1.8916 -1.62012 -2.63965zM528 352c-26.4375 0.00585938 -47.9004 21.4697 -47.9004 47.9082v0.0917969c0 26.4922 21.5107 48 48.002 48c26.4922 0 48 -21.5078 48 -48 s-21.5078 -48 -48 -48h-0.101562zM639 166.48c0.588867 -1.87305 0.978516 -3.86523 1.01953 -5.9209c0.00585938 -0.201172 0.00976562 -0.373047 0.00976562 -0.576172c0 -0.689453 -0.0332031 -1.37109 -0.0996094 -2.04297 c-0.260742 -2.13379 -0.825195 -4.21777 -1.62988 -6.13086c-0.219727 -0.509766 -0.30957 -1.06934 -0.55957 -1.56934c-1.2334 -2.42969 -2.81152 -4.62305 -4.7002 -6.5498c-0.469727 -0.480469 -1.04004 -0.850586 -1.5498 -1.30078 c-1.52734 -1.37012 -3.19238 -2.55762 -5 -3.55957c-0.780273 -0.419922 -1.58008 -0.780273 -2.39062 -1.12012c-1.77539 -0.724609 -3.69531 -1.25879 -5.64941 -1.5498c-0.768555 -0.158203 -1.55664 -0.279297 -2.35059 -0.360352 c-2.01562 0.00390625 -3.96387 0.28125 -5.81934 0.790039c-1.01953 0.12207 -2.03223 0.323242 -3 0.589844c-3.17871 1.21582 -6.04004 3.05371 -8.44043 5.37988l-29.29 29c-6.18848 6.17578 -10.9521 13.75 -13.8193 22.21 c-14.3203 42.79 -14.4209 45.7002 -21.8203 55.4004l-26.2002 -104.79l53.8301 -49.6104c12.7471 -11.8076 21.9668 -27.3779 26 -44.8896l19.5098 -84.7002c0.40625 -1.74902 0.609375 -3.55664 0.609375 -5.42969c0 -11.3604 -7.91016 -20.8877 -18.5195 -23.3701 c-1.44629 -0.276367 -2.89648 -0.421875 -4.42285 -0.421875c-1.28906 0 -2.55371 0.103516 -3.78711 0.301758c-1.2041 0.121094 -2.39746 0.338867 -3.54004 0.640625c-1.75098 0.511719 -3.44531 1.23438 -5 2.11914c-0.972656 0.487305 -1.9082 1.03906 -2.7998 1.65039 c-1.51465 1.19336 -2.85645 2.53516 -4.0498 4.0498c-0.630859 0.654297 -1.21387 1.33008 -1.77051 2.0498c-1.53223 2.27637 -2.69141 4.86719 -3.35938 7.61035l-19.5098 84.7998c-1.80371 7.96289 -5.99023 15.041 -11.79 20.3906l-79 73 c-14.6006 15.8193 -19.6006 35.71 -14.9102 54.6094l19.8193 79.2002c-11.2295 -3.61035 -22.6396 -8.39941 -44.3291 -17.1104c-9.95215 -3.98926 -18.0498 -11.4736 -22.8203 -21l-14 -30.3799c-1.37695 -2.93262 -3.27637 -5.53711 -5.61035 -7.72949 c-2.31934 -2.18164 -5.07812 -3.89355 -8.12988 -5c-0.259766 -0.0898438 -0.5 -0.259766 -0.759766 -0.339844c-1.91113 -0.511719 -3.88965 -0.787109 -5.95996 -0.787109c-0.639648 0 -1.27344 0.0253906 -1.90039 0.0771484 c-0.620117 0.0400391 -1.22949 0.129883 -1.84961 0.219727c-2.4375 0.318359 -4.81738 0.983398 -7 1.91992c-0.240234 0.0996094 -0.490234 0.150391 -0.719727 0.259766c-2.37793 1.16797 -4.54199 2.66309 -6.45996 4.4502 c-0.460938 0.429688 -0.890625 0.889648 -1.32031 1.33984c-1.75488 1.80566 -3.20703 3.87598 -4.31055 6.16992c-0.0595703 0.140625 -0.169922 0.25 -0.229492 0.390625c-0.995117 2.44629 -1.56348 5.13379 -1.58984 7.92969 c-0.0205078 0.679688 0.0595703 1.37988 0.0595703 2.08984c0.151367 3.2627 0.943359 6.40039 2.23047 9.21973l14.4102 31.1006c9.98828 20.3096 27.127 36.29 48.2393 44.7998c42.7305 17.21 60.9004 26 95.7305 26c0.0361328 0 0.0429688 0.0166016 0.078125 0.0166016 c46.4482 0 85.8984 -30.1992 99.7715 -72.0166l12.8799 -38.7998c0.430664 -1.21191 1.11719 -2.30078 2 -3.2002l29.2803 -28.9004c2.32031 -2.30176 4.18555 -5.03125 5.49023 -8.08008c0.313477 -0.817383 0.584961 -1.67871 0.799805 -2.53906zM176.1 256h64 c8.81836 -0.0273438 15.9727 -7.18164 16 -16v-64c0 -8.83105 -7.16895 -16 -16 -16h-64c-8.83008 0 -16 7.16895 -16 16v64c0.0273438 8.81836 7.18262 15.9727 16 16zM427.43 110l0.930664 -0.900391l29.8896 -27.5596l-19.4404 -49.9297 c-4.44336 -11.1533 -11.0645 -21.1455 -19.4092 -29.5l-58.4004 -58.5c-4.33691 -4.33301 -10.3301 -7.00781 -16.9385 -7.00781c-13.2236 0 -23.96 10.7363 -23.96 23.9609c0 6.61523 2.68652 12.6084 7.02832 16.9463l58.4297 58.4902 c3.85352 3.78125 6.89746 8.3418 8.91016 13.4502l27.71 67.2998c1.53027 -1.91016 2.69043 -3.99023 4.37988 -5.82031z"/>
    <glyph glyph-name="house-night" unicode="" horiz-adv-x="640" d="M112 224c-61.8145 0 -112 50.1855 -112 112s50.1855 112 112 112c6.98926 -0.109375 13.7627 -0.743164 20.46 -1.87012c2.4375 -0.458008 4.29492 -2.59668 4.29492 -5.16602c0 -1.95117 -1.06543 -3.65625 -2.64453 -4.56348 c-26.5566 -15.0908 -44.4639 -43.583 -44.4639 -76.2842c0 -48.4248 39.3154 -87.7402 87.7402 -87.7402c5.66113 0 11.1992 0.537109 16.5635 1.56445c0.317383 0.0595703 0.638672 0.0878906 0.974609 0.0878906c2.89746 0 5.25 -2.35254 5.25 -5.25 c0 -1.25391 -0.44043 -2.40527 -1.1748 -3.30859c-20.4971 -25.335 -51.7959 -41.4697 -86.8916 -41.4697h-0.108398zM195 379.22c-1.75195 0.874023 -2.95703 2.67773 -2.95703 4.76758c0 2.08887 1.20508 3.89941 2.95703 4.77246l39.6699 16.5605l16.5605 39.6797 c0.868164 1.75879 2.67383 2.96973 4.7666 2.96973s3.9043 -1.21094 4.77246 -2.96973l16.5605 -39.6797l39.7695 -16.5605c1.75293 -0.873047 2.95703 -2.67773 2.95703 -4.7666c0 -2.08984 -1.2041 -3.89941 -2.95703 -4.77344l-39.7197 -16.5596l-16.5596 -39.7197 c-0.869141 -1.75879 -2.6748 -2.96973 -4.76758 -2.96973c-2.0918 0 -3.9043 1.21094 -4.77246 2.96973l-16.5605 39.7197zM157.1 68.7598c1.75293 -0.873047 2.95703 -2.67773 2.95703 -4.7666c0 -2.08984 -1.2041 -3.89941 -2.95703 -4.77344l-39.7197 -16.5596 l-16.5596 -39.7197c-0.869141 -1.75879 -2.6748 -2.96973 -4.76758 -2.96973c-2.0918 0 -3.9043 1.21094 -4.77246 2.96973l-16.5605 39.7197l-39.7197 16.5596c-1.75195 0.874023 -2.95703 2.67773 -2.95703 4.76758c0 2.08887 1.20508 3.89941 2.95703 4.77246 l39.6699 16.5605l16.5605 39.6797c0.868164 1.75879 2.67383 2.96973 4.7666 2.96973s3.9043 -1.21094 4.77246 -2.96973l16.6104 -39.6797zM634.63 152c3.28516 -2.93066 5.34473 -7.20117 5.34473 -11.9453c0 -4.06152 -1.51758 -7.77148 -4.01465 -10.5947l-10.6201 -12 c-2.93164 -3.29883 -7.21094 -5.36914 -11.9668 -5.36914c-4.0752 0 -7.79688 1.52637 -10.623 4.03906l-26.75 24.2598v-164.39c0 -22.0762 -17.9238 -40 -40 -40h-272c-22.0762 0 -40 17.9238 -40 40v164.39l-26.79 -24.2998 c-2.82617 -2.51172 -6.55273 -4.04883 -10.6279 -4.04883c-4.75586 0 -9.03027 2.08008 -11.9619 5.37891l-10.6201 12c-2.49902 2.82324 -4.02637 6.53906 -4.02637 10.6025c0 4.76465 2.08691 9.04492 5.39648 11.9775l210.54 190.88 c6.41113 5.66797 14.8701 9.10938 24.0918 9.10938s17.6465 -3.44141 24.0576 -9.10938l103.94 -94.2197v55.3398c0 8.83105 7.16895 16 16 16h16c8.83105 0 16 -7.16895 16 -16v-98.8496zM528 -16v199.94l-128 116.06l-128 -116.06v-199.94h256zM352 144 c0.0273438 8.81836 7.18164 15.9727 16 16h64c8.81836 -0.0273438 15.9727 -7.18164 16 -16v-64c0 -8.83105 -7.16895 -16 -16 -16h-64c-8.83105 0 -16 7.16895 -16 16v64z"/>
    <glyph glyph-name="house-return" unicode="" horiz-adv-x="640" d="M176.08 256h64c8.81738 -0.0273438 15.9727 -7.18164 16 -16v-64c0 -8.83105 -7.16992 -16 -16 -16h-64c-8.81836 0.0273438 -15.9727 7.18164 -16 16v64c0.0332031 8.81543 7.18457 15.9668 16 16zM112.08 279.91l-0.0800781 -199.91h237.67 c-3.48145 -7.20117 -6.31934 -14.9658 -8.30957 -22.8799l-5.78027 -25.1201h-231.58c-22.0762 0 -40 17.9238 -40 40v164.4l-26.7803 -24.2607c-2.82715 -2.51465 -6.55469 -4.05371 -10.6328 -4.05371c-4.75879 0 -9.03516 2.08203 -11.9668 5.38379l-10.6201 11.9502 c-2.49902 2.82324 -4.02637 6.53906 -4.02637 10.6025c0 4.76465 2.08691 9.04492 5.39648 11.9775l210.61 190.88c6.41406 5.66895 14.876 9.11133 24.1016 9.11133s17.6533 -3.44238 24.0684 -9.11133l125.46 -114.39c-12.709 -9.49609 -23.5146 -20.9443 -32.2705 -34.21 l-117.26 105.72zM432.07 352c-26.4404 0.0224609 -47.9004 21.4932 -47.9004 47.9385v0.0615234c0 26.4922 21.5098 48 48.002 48s48 -21.5078 48 -48s-21.5078 -48 -48 -48h-0.101562zM524.91 187.21c4.68945 -18.9004 -0.310547 -38.79 -14.9102 -54.5996l-79 -73 c-5.80469 -5.34766 -9.99512 -12.4258 -11.7998 -20.3906l-19.5098 -84.7998c-0.672852 -2.74121 -1.83105 -5.33203 -3.36035 -7.61035c-0.556641 -0.722656 -1.14355 -1.39844 -1.78027 -2.0498c-1.17676 -1.5127 -2.50195 -2.85449 -4 -4.0498 c-0.890625 -0.611328 -1.82617 -1.16309 -2.7998 -1.65039c-1.55469 -0.884766 -3.24902 -1.60742 -5 -2.11914c-1.14258 -0.301758 -2.33496 -0.519531 -3.54004 -0.640625c-1.2334 -0.198242 -2.45605 -0.300781 -3.74512 -0.300781 c-1.52637 0 -3.01855 0.144531 -4.46484 0.420898c-10.6514 2.45117 -18.6172 11.9844 -18.6172 23.375c0 1.86523 0.213867 3.68164 0.617188 5.4248l19.5596 84.7002c4.03613 17.5098 13.2559 33.0801 26 44.8896l53.8301 49.6104l-26.1895 104.79 c-7.41016 -9.7002 -7.5 -12.6104 -21.8203 -55.4004c-2.86719 -8.45996 -7.63184 -16.0342 -13.8203 -22.21l-29.29 -29c-2.40039 -2.32617 -5.26074 -4.16406 -8.43945 -5.37988c-0.967773 -0.266602 -1.98047 -0.467773 -3 -0.589844 c-1.85547 -0.510742 -3.80371 -0.788086 -5.82031 -0.790039c-0.792969 0.0810547 -1.58203 0.202148 -2.34961 0.360352c-1.95117 0.291016 -3.86719 0.825195 -5.64062 1.5498c-0.81543 0.330078 -1.62012 0.708008 -2.38965 1.12012 c-1.80859 1 -3.47363 2.18848 -5 3.55957c-0.5 0.450195 -1.08008 0.820312 -1.5498 1.30078c-1.88867 1.92676 -3.4668 4.12012 -4.7002 6.5498c-0.25 0.5 -0.339844 1.05957 -0.549805 1.56934c-0.807617 1.91211 -1.37598 3.99609 -1.63965 6.13086 c-0.0595703 0.666992 -0.0849609 1.31836 -0.0849609 2c0 2.25879 0.330078 4.44043 0.944336 6.5c0.213867 0.862305 0.489258 1.72363 0.810547 2.53906c1.29688 3.05078 3.16016 5.78027 5.47949 8.08008l29.3301 28.9004c0.882812 0.899414 1.56934 1.98828 2 3.2002 l12.8799 38.7998c13.8701 41.8174 53.2891 72 99.7354 72h0.104492c34.8203 0 53.0205 -8.7998 95.7207 -26c21.1318 -8.4834 38.2949 -24.4531 48.2998 -44.7598l14.4102 -31.1104c1.28613 -2.82031 2.08008 -5.95898 2.23926 -9.21973v-2.08984 c-0.0234375 -2.7959 -0.587891 -5.48242 -1.5791 -7.93066c-0.0605469 -0.139648 -0.170898 -0.25 -0.230469 -0.389648c-1.10352 -2.29395 -2.55469 -4.36523 -4.30957 -6.16992c-0.430664 -0.450195 -0.860352 -0.910156 -1.33008 -1.33984 c-1.91309 -1.78906 -4.07422 -3.28418 -6.4502 -4.4502c-0.230469 -0.110352 -0.490234 -0.160156 -0.719727 -0.259766c-2.18359 -0.936523 -4.56348 -1.60059 -7 -1.91992c-0.610352 -0.0908203 -1.2207 -0.220703 -1.84082 -0.220703 c-0.625977 -0.0507812 -1.23047 -0.0732422 -1.87012 -0.0732422c-2.07129 0 -4.0791 0.272461 -5.98926 0.783203c-0.259766 0.0800781 -0.5 0.25 -0.759766 0.34082c-3.05273 1.10645 -5.81152 2.81738 -8.13086 5c-2.33301 2.19238 -4.23242 4.79688 -5.60938 7.72949 l-14 30.3799c-4.77246 9.52441 -12.8701 17.0088 -22.8203 21c-21.7002 8.70996 -33.1104 13.5 -44.3301 17.1104zM632.91 -22.4805c4.1709 -4.31055 6.76172 -10.1982 6.76172 -16.6641c0 -13.2178 -10.7314 -23.9502 -23.9502 -23.9502 c-6.44238 0 -12.2949 2.5498 -16.6016 6.69434l-58.3896 58.5c-8.35156 8.35254 -14.9766 18.3447 -19.4209 29.5l-19.4297 49.9307l29.8398 27.5596l0.94043 0.870117l0.859375 0.929688c1.69043 1.82031 2.86035 3.91016 4.38086 5.82031l27.71 -67.2998 c2.01758 -5.09375 5.06055 -9.64062 8.90918 -13.4102z"/>
    <glyph glyph-name="house-signal" unicode="" horiz-adv-x="640" d="M0 224c159.06 0 288 -128.94 288 -288h-48c0 132.55 -107.45 240 -240 240v48v0zM0 32c52.9834 0 96 -43.0166 96 -96h-48c0 26.4922 -21.5078 48 -48 48v48zM0 128c106 0 192 -86 192 -192h-48c0 79.4756 -64.5244 144 -144 144v48zM634.63 248 c3.28223 -2.93066 5.33984 -7.19922 5.33984 -11.9404c0 -4.05957 -1.51562 -7.76758 -4.00977 -10.5898l-10.6201 -12c-2.93164 -3.29883 -7.21094 -5.36914 -11.9668 -5.36914c-4.0752 0 -7.79688 1.52734 -10.623 4.03906l-26.75 24.2705v-164.41 c0 -22.0762 -17.9238 -40 -40 -40h-214.52c-4.78125 16.4473 -10.9238 32.709 -18.0703 48h224.59v199.95l-128 116.12l-128 -116.12v-147.8c-14.1729 19.5742 -30.0635 37.2275 -48 53.3496v50.9102l-26.79 -24.3105 c-2.82617 -2.51172 -6.55273 -4.04883 -10.6279 -4.04883c-4.75586 0 -9.03027 2.08008 -11.9619 5.37891l-10.6201 12c-2.49609 2.82227 -4.02148 6.53613 -4.02148 10.5967c0 4.7627 2.08496 9.04199 5.3916 11.9736l210.54 190.9 c6.41211 5.66504 14.8701 9.10547 24.0918 9.10547s17.6455 -3.44043 24.0576 -9.10547l103.94 -94.2402v55.3398c0 8.83105 7.16895 16 16 16h16c8.83105 0 16 -7.16895 16 -16v-98.8398zM432 160h-64c-8.81836 0.0273438 -15.9727 7.18164 -16 16v64 c0 8.83105 7.16895 16 16 16h64c8.83105 0 16 -7.16895 16 -16v-64c-0.0273438 -8.81836 -7.18164 -15.9727 -16 -16z"/>
    <glyph glyph-name="lamp-desk" unicode="" d="M392.65 169.6l77.75 77.7607c6.04199 -8.93945 9.54883 -19.7363 9.54883 -31.3291c0 -30.9072 -25.0928 -56 -56 -56c-11.5889 0 -22.3613 3.52832 -31.2988 9.56836zM509.3 362.24c1.73047 -4.14941 2.70801 -8.72754 2.70801 -13.501 c0 -9.72754 -3.9707 -18.5352 -10.3779 -24.8896l-185.49 -185.51c-6.37695 -6.37598 -15.1885 -10.3164 -24.9092 -10.3164c-19.4404 0 -35.2236 15.7783 -35.2305 35.2168v85l-22.8701 22.8896l-86.1299 -86.1299l57.3799 -201h131.62 c21.3203 0 41.2197 -13.8896 47.4805 -33.1201c2.40918 -7.41016 -3.88086 -14.8799 -11.6709 -14.8799h-359.619c-7.78027 0 -14.0801 7.46973 -11.6709 14.8799c6.26074 19.2305 26.1709 33.1201 47.4805 33.1201h106.48l-57.5703 201.44 c-0.600586 2.09863 -0.929688 4.31445 -0.929688 6.60547c0 6.61621 2.68359 12.6113 7.01953 16.9541l99.7598 99.7002c-6.83105 13.167 -10.7393 28.2324 -10.7393 44.0781c0 52.8076 42.8721 95.6807 95.6797 95.6807c26.6777 0 50.8203 -10.9424 68.1797 -28.5791 l35.8799 -35.8799h85c0.0302734 0 0.0429688 0.0224609 0.0722656 0.0224609c14.6553 0 27.2246 -9.00684 32.4678 -21.7822zM304 194.08l141.88 141.92h-74l-49.9395 49.9004c-8.64551 8.39453 -20.4512 13.5527 -33.4424 13.5527c-26.4922 0 -48 -21.5078 -48 -48 c0 -12.9932 5.17383 -24.7871 13.5723 -33.4336l49.9297 -49.9395v-74z"/>
    <glyph glyph-name="lamp-floor" unicode="" horiz-adv-x="384" d="M382 235.24c7.70996 -20.9199 -7.57031 -43.2402 -29.6396 -43.2402h-136.65v-208h55.29c21.0898 0 40.75 -13.8896 46.9404 -33.1201c2.37988 -7.41016 -3.84082 -14.8799 -11.54 -14.8799h-228.811c-7.68945 0 -13.9102 7.46973 -11.5 14.8799 c6.19043 19.2305 25.8506 33.1201 46.9102 33.1201h55.29v208h-136.65c-22.0693 0 -37.3496 22.3203 -29.6396 43.2402l71.1699 192c4.4248 12.082 16.0039 20.7119 29.5996 20.7598h178.461c13.6152 -0.0273438 25.2129 -8.66406 29.6396 -20.7598zM54.4502 240h275.1 l-59.2803 160h-156.539z"/>
    <glyph glyph-name="light-ceiling" unicode="" d="M256 -64c-35.3223 0 -64 28.6777 -64 64h128c0 -35.3223 -28.6777 -64 -64 -64zM280 286.9c119.22 -10.9004 215 -102.091 231.68 -218.521c2.76074 -19.1895 -12.6797 -36.3799 -32.2393 -36.3799h-446.881c-19.5596 0 -34.9893 17.1904 -32.2393 36.3799 c16.6797 116.43 112.46 207.62 231.68 218.521v161.1h48v-161.1zM51.3496 80h409.301c-22.1309 92.4199 -107 160 -204.65 160s-182.52 -67.5801 -204.65 -160z"/>
    <glyph glyph-name="light-switch" unicode="" horiz-adv-x="384" d="M320 448c35.3223 0 64 -28.6777 64 -64v-384c0 -35.3223 -28.6777 -64 -64 -64h-256c-35.3223 0 -64 28.6777 -64 64v384c0 35.3223 28.6777 64 64 64h256zM336 0v384c0 8.83105 -7.16895 16 -16 16h-105.63c-3.18555 -9.30566 -11.999 -16.0029 -22.3789 -16.0029 c-10.3789 0 -19.2061 6.69727 -22.3916 16.0029h-105.6c-8.83105 0 -16 -7.16895 -16 -16v-384c0 -8.83105 7.16895 -16 16 -16h105.6c3.18555 9.30566 12 16.0029 22.3789 16.0029s19.2061 -6.69727 22.3916 -16.0029h105.63c8.83105 0 16 7.16895 16 16zM256 352 c17.6611 0 32 -14.3389 32 -32v-256c0 -17.6611 -14.3389 -32 -32 -32h-128c-17.6611 0 -32 14.3389 -32 32v256c0 17.6611 14.3389 32 32 32h128zM240 80v88h-96v-88h96zM240 216v88h-96v-88h96z"/>
    <glyph glyph-name="light-switch-off" unicode="" horiz-adv-x="384" d="M320 448c35.3223 0 64 -28.6777 64 -64v-384c0 -35.3223 -28.6777 -64 -64 -64h-256c-35.3223 0 -64 28.6777 -64 64v384c0 35.3223 28.6777 64 64 64h256zM336 0v384c0 8.83105 -7.16895 16 -16 16h-105.62c-3.17969 -9.30859 -11.9941 -16.0098 -22.373 -16.0098 c-10.3799 0 -19.207 6.70117 -22.3867 16.0098h-105.62c-8.83105 0 -16 -7.16895 -16 -16v-384c0 -8.83105 7.16895 -16 16 -16h105.62c3.17969 9.30859 11.9941 16.0098 22.373 16.0098c10.3799 0 19.207 -6.70117 22.3867 -16.0098h105.62c8.83105 0 16 7.16895 16 16z M256 352c17.6611 0 32 -14.3389 32 -32v-256c0 -17.6611 -14.3389 -32 -32 -32h-128c-17.6611 0 -32 14.3389 -32 32v256c0 17.6611 14.3389 32 32 32h128zM240 192v112h-96v-112h96z"/>
    <glyph glyph-name="light-switch-on" unicode="" horiz-adv-x="384" d="M320 448c35.3223 0 64 -28.6777 64 -64v-384c0 -35.3223 -28.6777 -64 -64 -64h-256c-35.3223 0 -64 28.6777 -64 64v384c0 35.3223 28.6777 64 64 64h256zM336 0v384c0 8.83105 -7.16895 16 -16 16h-105.6c-3.18555 -9.30566 -12 -16.0029 -22.3789 -16.0029 s-19.2061 6.69727 -22.3916 16.0029h-105.63c-8.83105 0 -16 -7.16895 -16 -16v-384c0 -8.83105 7.16895 -16 16 -16h105.63c3.18555 9.30566 11.999 16.0029 22.3789 16.0029c10.3789 0 19.2061 -6.69727 22.3916 -16.0029h105.6c8.83105 0 16 7.16895 16 16zM256 352 c17.6611 0 32 -14.3389 32 -32v-256c0 -17.6611 -14.3389 -32 -32 -32h-128c-17.6611 0 -32 14.3389 -32 32v256c0 17.6611 14.3389 32 32 32h128zM240 80v96h-96v-96h96z"/>
    <glyph glyph-name="microwave" unicode="" d="M464 384c26.4922 0 48 -21.5078 48 -48v-288c0 -26.4922 -21.5078 -48 -48 -48v0l-24 -32h-48l-24 32h-224l-24 -32h-48l-24 32v0c-26.4922 0 -48 21.5078 -48 48v288c0 26.4922 21.5078 48 48 48h416zM464 48v288h-416v-288h416zM416 176c-13.2461 0 -24 10.7539 -24 24 s10.7539 24 24 24s24 -10.7539 24 -24s-10.7539 -24 -24 -24zM416 256c-13.2461 0 -24 10.7539 -24 24s10.7539 24 24 24s24 -10.7539 24 -24s-10.7539 -24 -24 -24zM96 80c-8.83105 0 -16 7.16895 -16 16v192c0 8.83105 7.16895 16 16 16h256c8.83105 0 16 -7.16895 16 -16 v-192c0 -8.83105 -7.16895 -16 -16 -16h-256z"/>
    <glyph glyph-name="outlet" unicode="" d="M448 448c35.3223 0 64 -28.6777 64 -64v-384c0 -35.3223 -28.6777 -64 -64 -64h-384c-35.3223 0 -64 28.6777 -64 64v384c0 35.3223 28.6777 64 64 64h384zM464 0v384c0 8.83105 -7.16895 16 -16 16h-384c-8.83105 0 -16 -7.16895 -16 -16v-384 c0 -8.83105 7.16895 -16 16 -16h384c8.83105 0 16 7.16895 16 16zM353.85 352c0.0820312 0.000976562 0.162109 0.00488281 0.243164 0.00488281c6.31152 0 12.0293 -2.56348 16.167 -6.70508c38.0303 -39.0098 61.7402 -93.2002 61.7402 -153.3 s-23.7402 -114.29 -61.7402 -153.29c-4.14062 -4.14746 -9.8623 -6.71094 -16.1797 -6.71094c-0.0771484 0 -0.15332 0 -0.230469 0.000976562h-195.699c-0.0771484 -0.000976562 -0.152344 -0.00390625 -0.229492 -0.00390625c-6.31738 0 -12.04 2.56641 -16.1807 6.71387 c-38.0303 39.0098 -61.7402 93.1904 -61.7402 153.29s23.71 114.29 61.7402 153.3c4.1377 4.1416 9.85449 6.70117 16.165 6.70117c0.0820312 0 0.163086 0 0.245117 -0.000976562h195.699zM208 176v80c0 8.83105 -7.16895 16 -16 16h-16c-8.83105 0 -16 -7.16895 -16 -16 v-80c0 -8.83105 7.16895 -16 16 -16h16c8.83105 0 16 7.16895 16 16zM288 96v16c0 17.6611 -14.3389 32 -32 32s-32 -14.3389 -32 -32v-16h64zM352 176v80c0 8.83105 -7.16895 16 -16 16h-16c-8.83105 0 -16 -7.16895 -16 -16v-80c0 -8.83105 7.16895 -16 16 -16h16 c8.83105 0 16 7.16895 16 16z"/>
    <glyph glyph-name="oven" unicode="" horiz-adv-x="448" d="M96 16c-8.83105 0 -16 7.16895 -16 16v160c0 8.83105 7.16895 16 16 16h256c8.83105 0 16 -7.16895 16 -16v-160c0 -8.83105 -7.16895 -16 -16 -16h-256zM128 160v-32h192v32h-192zM104 368c13.2461 0 24 -10.7539 24 -24s-10.7539 -24 -24 -24s-24 10.7539 -24 24 s10.7539 24 24 24zM344 368c13.2461 0 24 -10.7539 24 -24s-10.7539 -24 -24 -24s-24 10.7539 -24 24s10.7539 24 24 24zM184 368c13.2461 0 24 -10.7539 24 -24s-10.7539 -24 -24 -24s-24 10.7539 -24 24s10.7539 24 24 24zM384 448c35.3223 0 64 -28.6777 64 -64v-416 c0 -17.6611 -14.3389 -32 -32 -32h-384c-17.6611 0 -32 14.3389 -32 32v416c0 35.3223 28.6777 64 64 64h320zM400 -16v256h-352v-256h352zM400 288v96c0 8.83105 -7.16895 16 -16 16h-320c-8.83105 0 -16 -7.16895 -16 -16v-96h352zM264 368c13.2461 0 24 -10.7539 24 -24 s-10.7539 -24 -24 -24s-24 10.7539 -24 24s10.7539 24 24 24z"/>
    <glyph glyph-name="planet-moon" unicode="" horiz-adv-x="576" d="M512 448c35.3223 0 64 -28.6777 64 -64s-28.6777 -64 -64 -64s-64 28.6777 -64 64s28.6777 64 64 64zM224 384c123.713 0 224 -100.285 224 -224c0 -123.713 -100.287 -224 -224 -224s-224 100.287 -224 224c0 123.715 100.287 224 224 224zM224 -16 c97.0469 0 176 78.9531 176 176c0 86.4297 -62.6758 158.35 -144.932 173.084c-1.04297 -10.377 -3.99805 -20.4785 -9.81836 -29.209l-49.7285 -57.3574c-4.86719 -5.61426 -7.82617 -12.96 -7.82617 -20.9668c0 -8.83008 3.58496 -16.8311 9.37695 -22.623 c6.75391 -6.75293 16.0859 -10.9268 26.3809 -10.9277h64.5469c17.6611 0 32 -14.3389 32 -32v-16.8906c0 -10.2627 -2.45801 -20.0264 -6.75781 -28.627l-40.3242 -80.6484c-4.02441 -8.04395 -11.7285 -13.9111 -20.8926 -15.4531 c-3.44238 -0.581055 -6.91602 -1.05859 -10.4199 -1.43359c-0.522461 -0.0517578 -1.03711 -0.078125 -1.57324 -0.078125c-8.84961 0 -16.0342 7.18457 -16.0342 16.0342v0.0283203c-0.00195312 23.4785 -0.00390625 63.0684 0.00195312 63.0684 c-17.6611 0 -32 14.3389 -32 32v32l-54.627 54.6289c-5.79297 5.79102 -13.7969 9.37109 -22.627 9.37109l-25.0254 0.00195312c-0.0263672 0 -0.0332031 -0.0292969 -0.0595703 -0.0292969c-9.94531 0 -18.6963 5.15332 -23.7256 12.9336 c-11.3945 -23.1611 -17.9062 -49.377 -17.9355 -76.9062c0 -97.0469 78.9531 -176 176 -176z"/>
    <glyph glyph-name="planet-ringed" unicode="" d="M502.932 438.961c23.4912 -23.4922 -0.0136719 -88.3125 -54.8154 -167.217c10.1787 -24.4775 15.8916 -51.4551 15.8916 -79.5986c0 -0.0439453 0 -0.0869141 -0.000976562 -0.130859c0 -114.89 -93.1338 -208.023 -208.021 -208.023 c-0.0439453 0 -0.222656 0.0917969 -0.265625 0.0917969c-28.1455 0 -54.9873 5.62109 -79.4658 15.7998c-78.9023 -54.8018 -143.723 -78.3057 -167.214 -54.8135c-23.4707 23.4678 0.132812 88.249 54.8662 167.069c-10.2119 24.5098 -15.9443 51.5303 -15.9443 79.7217 v0.154297c0 114.888 93.1338 208.023 208.023 208.023c0.0498047 0 0.235352 -0.0917969 0.285156 -0.0917969c28.1924 0 55.0781 -5.64062 79.5879 -15.8545c78.8213 54.7344 143.602 78.3369 167.072 54.8691zM63.9639 -0.0078125 c7.97656 -7.97559 32.873 2.36523 67.4336 25.7178c-15.8877 11.9189 -29.748 25.7744 -41.6729 41.6572c-23.2998 -34.4902 -33.7246 -59.4121 -25.7607 -67.375zM172.575 56.1025c34.7207 27.4883 74.6113 63.1074 115.412 103.908 c40.7998 40.7998 76.4209 80.6924 103.908 115.413c-28.1904 45.7627 -78.3301 76.6084 -135.909 76.6084c-88.2354 0 -160.02 -71.7842 -160.02 -160.018c0 -57.5791 30.8477 -107.721 76.6084 -135.912zM255.986 31.9961c88.2334 0 160.017 71.7832 160.017 160.019 c0 0.0136719 -0.00292969 -0.0917969 -0.00292969 -0.0791016c0 11.0918 -1.12988 21.9219 -3.28223 32.3799c-28.1201 -35.1162 -57.5547 -67.9268 -89.3848 -99.6484c-31.7227 -31.8291 -64.5332 -61.2646 -99.6494 -89.3857 c10.459 -2.15234 21.1709 -3.28516 32.2637 -3.28516h0.0390625zM380.634 358.274c15.8809 -11.9248 29.7354 -25.7842 41.6543 -41.6709c23.3545 34.5635 33.6934 59.457 25.7188 67.4316c-7.96387 7.96387 -32.8828 -2.46289 -67.373 -25.7607z"/>
    <glyph glyph-name="police-box" unicode="" horiz-adv-x="384" d="M184 240c0 -4.41504 -3.58496 -8 -8 -8h-28v36h36v-28zM140 312v-36h-36v28c0 4.41504 3.58496 8 8 8h28zM112 232c-4.41504 0 -8 3.58496 -8 8v28h36v-36h-28zM184 304v-28h-36v36h28c4.41504 0 8 -3.58496 8 -8zM112 128c-4.41504 0 -8 3.58496 -8 8v64 c0 4.41504 3.58496 8 8 8h64c4.41504 0 8 -3.58496 8 -8v-64c0 -4.41504 -3.58496 -8 -8 -8h-64zM280 240c0 -4.41504 -3.58496 -8 -8 -8h-28v36h36v-28zM280 304v-28h-36v36h28c4.41504 0 8 -3.58496 8 -8zM208 232c-4.41504 0 -8 3.58496 -8 8v28h36v-36h-28zM236 312v-36 h-36v28c0 4.41504 3.58496 8 8 8h28zM368 -16c8.83008 0 16 -7.16992 16 -16v-16c0 -8.83008 -7.16992 -16 -16 -16h-352c-8.83008 0 -16 7.16992 -16 16v16c0 8.83008 7.16992 16 16 16h16v376c0 13.2461 10.7539 24 24 24h8v16c0 8.83008 7.16992 16 16 16h88v16 c0 8.83008 7.16992 16 16 16h16c8.83008 0 16 -7.16992 16 -16v-16h87.9785c8.83008 0 16 -7.16992 16 -16v-16h8.02148c13.2451 0 24 -10.7549 24 -24v-376h16zM304 -16v352h-224v-352h224z"/>
    <glyph glyph-name="portal-enter" unicode="" d="M416 448c79.3457 0 96 -139.209 96 -255.992c0 -211.579 -52.2051 -255.992 -96 -255.992c-65.127 0 -87.9863 93.7998 -94.0977 191.994h48.4375c6.23242 -83.5361 24.3066 -143.996 45.6602 -143.996c26.5098 0 48 93.123 48 207.994s-21.4902 207.993 -48 207.993 c-25.3008 0 -45.9805 -84.876 -47.8184 -192.472l23.8809 -0.0849609c13.2812 -0.0458984 24 -10.2646 23.9375 -23.5303c-0.0439453 -13.2002 -10.7744 -23.9053 -23.9854 -23.9053h-0.0146484h-0.09375l-48.4062 0.15625 c-24.7188 0.09375 -46.1875 15.4678 -53.4062 39.1396l-13.9688 45.9355c-1.42383 4.40527 -3.61523 8.49512 -6.40625 12.0625l-41.9375 -104.794l51.8438 -31.2959c16.2402 -9.83398 27.0342 -27.625 27.0342 -47.9795c0 -5.32031 -0.741211 -10.4688 -2.12793 -15.3467 l-33.3125 -104.466c-2.85938 -10.0459 -12.1055 -17.417 -23.0625 -17.4209c-2.29492 0.00976562 -4.51465 0.332031 -6.625 0.921875c-10.0371 2.8623 -17.3955 12.1006 -17.3955 23.0508c0 2.2959 0.323242 4.51758 0.926758 6.62012l33.2812 104.466 c0.193359 0.703125 0.302734 1.44141 0.3125 2.20312c-0.147461 2.8418 -1.63184 5.33203 -3.84375 6.84277l-83.7812 50.5928c-16.2783 9.74414 -27.1016 27.5518 -27.1016 47.8867c0 7.43359 1.45703 14.5293 4.10156 21.0176l35.3125 87.3408l-14.875 3.375 c-2.82715 0.62793 -5.77148 0.943359 -8.78613 0.943359c-9.22363 0 -17.7275 -3.10156 -24.5264 -8.31836l-48.375 -37.374c-4.05859 -3.13965 -9.18652 -5.03027 -14.7109 -5.03027c-13.251 0 -24.0088 10.7578 -24.0088 24.0078 c0 7.73145 3.66211 14.6133 9.34473 19.0059l48.375 37.3584c14.8154 11.5254 33.4473 18.4258 53.6543 18.4258c6.73633 0 13.2949 -0.762695 19.5957 -2.20801l78.25 -17.7021c30.8711 -7.01074 55.6465 -30.2354 64.8125 -60.2324l0.00195312 -0.00585938 c10.0273 153.944 55.2168 188.812 93.9043 188.812zM272.156 352.003c-26.4971 0 -48.0146 21.5049 -48.0312 47.998c0 26.4912 21.5068 47.999 47.998 47.999s47.998 -21.5078 47.998 -47.998c0 -26.4805 -21.4893 -47.9814 -47.9648 -47.999zM126.156 131.15 c7.20117 -11.3613 16.7969 -20.8057 28.2812 -27.8271l9.5625 -5.76562l-13.5312 -31.6084c-8.56055 -19.9717 -28.3779 -33.9365 -51.4678 -33.9365h-0.0322266h-74.9688c-13.2451 0 -23.999 10.7539 -23.999 23.999c0 13.2461 10.7539 23.999 23.999 23.999h74.9688 c3.2959 0.00976562 6.12207 2.00684 7.34375 4.85938z"/>
    <glyph glyph-name="portal-exit" unicode="" d="M368.156 352.003c-26.498 0 -48.0156 21.5049 -48.0312 47.999c0 26.4912 21.5068 47.998 47.998 47.998s47.998 -21.5078 47.998 -47.998c0 -26.4805 -21.4893 -47.9814 -47.9648 -47.999zM488.062 208.008c13.2129 -0.0380859 23.9307 -10.7773 23.9307 -24 c0 -13.2432 -10.751 -23.9951 -23.9932 -23.999h-0.09375l-48.4062 0.15625c-25.1934 0.00195312 -46.4971 16.7471 -53.4062 39.7021l-13.9688 45.373c-1.42383 4.40527 -3.61621 8.49512 -6.40625 12.0625l-41.9375 -104.794l51.8438 -31.2959 c16.2393 -9.83398 27.0342 -27.625 27.0342 -47.9795c0 -5.32031 -0.742188 -10.4688 -2.12793 -15.3467l-33.3125 -104.465c-2.85938 -10.0469 -12.1055 -17.418 -23.0625 -17.4219c-2.2959 0.00976562 -4.51465 0.332031 -6.625 0.921875 c-10.0381 2.8623 -17.3965 12.1006 -17.3965 23.0508c0 2.2959 0.324219 4.51758 0.927734 6.62012l33.2812 104.466c0.193359 0.703125 0.302734 1.44141 0.3125 2.20312c-0.147461 2.84277 -1.63184 5.33301 -3.84375 6.84375l-83.7812 50.5918 c-16.2783 9.74414 -27.1016 27.5518 -27.1016 47.8877c0 7.43359 1.45703 14.5293 4.10156 21.0166l35.3125 87.3408l-14.875 3.375c-2.82715 0.628906 -5.77148 0.943359 -8.78711 0.943359c-9.22266 0 -17.7275 -3.10156 -24.5254 -8.31836l-40.8145 -31.5322 c1.13477 -19.9268 1.6582 -39.9717 1.6582 -59.4023c0 -44.4971 -2.43164 -81.1611 -6.49023 -111.996h9.45898c3.29492 0.00878906 6.12207 2.00586 7.34375 4.8584l19.8438 46.2803c7.20117 -11.3604 16.7969 -20.8057 28.2812 -27.8271l9.5625 -5.76562 l-13.5312 -31.6084c-8.56055 -19.9717 -28.3779 -33.9365 -51.4678 -33.9365h-0.0322266h-74.9688h-0.0224609c-13.2451 0 -23.999 10.7539 -23.999 24c0 13.2451 10.7539 23.999 23.999 23.999h0.0224609h16.2246c4.83008 32.4062 7.77539 70.5498 7.77539 111.996 c0 114.871 -21.4902 207.994 -48 207.994s-48 -93.123 -48 -207.994s21.4902 -207.994 48 -207.994c6.54492 0 12.7793 5.7207 18.4648 16h52.6309c-19.168 -49.9453 -46.4629 -63.998 -71.0957 -63.998c-79.3438 0 -96 139.211 -96 255.992 c0 211.581 52.2051 255.992 96 255.992c53.4238 0 78.3594 -63.1719 88.9961 -140.053l16.7852 12.9629c14.8164 11.5264 33.4482 18.4258 53.6553 18.4258c6.73535 0 13.2939 -0.762695 19.5947 -2.20703l78.25 -17.7031 c30.8711 -7.01074 55.6465 -30.2354 64.8125 -60.2324l13.9688 -45.3584c0.972656 -3.26855 4 -5.65527 7.58301 -5.65527h0.0107422z"/>
    <glyph glyph-name="radar" unicode="" d="M504 192c0 -136.967 -111.033 -248 -248 -248s-248 111.033 -248 248s111.033 248 248 248h0.210938c51.4199 0 99.4189 -15.9287 138.936 -42.916l30.2305 30.2305c2.89648 2.89648 6.89648 4.68848 11.3115 4.68848s8.41895 -1.79199 11.3154 -4.68848 l11.3105 -11.3105c2.89648 -2.89648 4.68848 -6.89648 4.68848 -11.3115s-1.79199 -8.41895 -4.68848 -11.3154l-201.373 -201.373l-0.00585938 -0.00390625h62.0645v-0.18457c0 -35.3223 -28.6777 -64 -64 -64s-64 28.6777 -64 64 c0 34.5908 27.5352 62.8125 61.8457 63.9678l34.543 34.543c-10.1357 3.56836 -21.0615 5.58008 -32.3887 5.67383c-57.3994 0 -104 -46.6006 -104 -104s46.6006 -104 104 -104s104 46.6006 104 104h48c0 -73.9473 -52.8516 -135.428 -122.811 -149.057 c-7.17285 8.02148 -17.5986 13.0732 -29.1953 13.0732s-22.0107 -5.05176 -29.1836 -13.0732c-60.3301 11.834 -108.033 59.5371 -119.867 119.867c8.02148 7.17285 13.0732 17.5986 13.0732 29.1953s-5.05176 22.0107 -13.0732 29.1836 c13.6289 69.959 75.1094 122.811 149.057 122.811c24.918 0 47.9922 -6.67773 68.6602 -17.4023l35.6406 35.6406c-30.2451 18.7705 -66.1221 29.7432 -104.301 29.7617c-98.9492 0 -181.127 -72.3066 -197.012 -166.811 c-11.1602 -7.09766 -18.9883 -18.9844 -18.9883 -33.1895s7.82812 -26.0918 18.9883 -33.1895c14.1875 -83.4893 80.333 -149.635 163.822 -163.822c7.09766 -11.1602 18.9844 -18.9883 33.1895 -18.9883s26.0918 7.82812 33.1895 18.9883 c94.5039 15.8848 166.811 98.0625 166.811 197.012h48z"/>
    <glyph glyph-name="raygun" unicode="" horiz-adv-x="576" d="M111.951 296.018c13.2441 0 24.001 -10.7529 24.002 -23.9961c0 -13.2451 -10.7529 -23.998 -23.9971 -23.998s-23.9971 10.752 -23.9971 23.9971c0 13.2422 10.75 23.9941 23.9922 23.9971zM207.961 296.018c13.2441 0 24.001 -10.7529 24.002 -23.9961 c0 -13.2451 -10.7529 -23.998 -23.9971 -23.998s-23.9971 10.752 -23.9971 23.9971c0 13.2422 10.75 23.9941 23.9922 23.9971zM320.033 416.003c8.8291 0 16.002 -7.16797 16.002 -15.998v-255.968c0 -8.83008 -7.16895 -15.998 -15.998 -15.998h-0.00390625h-16.002 c-8.83008 0 -15.999 7.16797 -16 15.998v27.6875c-2.36133 -1.13867 -4.47461 -2.68359 -6.92578 -3.6543l-120.088 -208.012c-8.27051 -14.4014 -23.8262 -24.0283 -41.6113 -24.0283c-8.73828 0 -16.9326 2.34375 -23.9902 6.43652l-55.4121 31.9961 c-14.3975 8.27441 -24.0195 23.8301 -24.0195 41.6133c0 8.73047 2.33887 16.9189 6.42383 23.9727l70.4199 121.918c-52.6797 9.13281 -92.8281 54.7754 -92.8281 110.055c0 44.5781 26.248 82.7471 63.9609 100.771l0.0449219 59.1895 c0.000976562 8.83008 7.18457 15.9893 16.0146 15.9893c2.56445 0 4.99023 -0.605469 7.13965 -1.68066l104.799 -62.2832h48.0059c17.1924 -0.0820312 33.5762 -4.16309 48.0664 -11.2617v27.2598c0.000976562 8.83008 7.16992 15.998 16 15.998h16.002zM119.426 -15.9727 l101.613 176.008h-73.8926l-12.7461 -22.0684l-70.4199 -121.92zM288.031 230.217v83.6094c-11.627 13.5498 -28.8428 22.124 -48.0664 22.1875h-128.014c-35.3184 0 -63.9922 -28.6748 -63.9922 -63.9922c0 -35.3184 28.6738 -63.9922 63.9922 -63.9922h128.014 c19.2236 0.0625 36.4395 8.63672 48.0664 22.1875zM554.938 328.988c1.58984 0.530273 3.29395 0.821289 5.06152 0.821289c8.83008 0 15.999 -7.16797 16.001 -15.9971v-83.582c-0.00195312 -8.83105 -7.17383 -15.9951 -16.0049 -15.9951 c-1.76953 0 -3.47168 0.288086 -5.06348 0.819336l-74.8125 24.9707h-64.0762v-63.9922c0 -8.83008 -7.1709 -15.998 -16 -15.998h-16.002c-8.83008 0 -16.001 7.16797 -16.002 15.998v191.976c0.000976562 8.83008 7.17188 15.998 16.002 15.998h16.002 c8.8291 0 16 -7.16797 16 -15.998v-63.9912h63.959z"/>
    <glyph glyph-name="refrigerator" unicode="" horiz-adv-x="384" d="M336 448c26.4922 0 48 -21.5078 48 -48v-416c0 -26.4922 -21.5078 -48 -48 -48h-288c-26.4922 0 -48 21.5078 -48 48v416c0 26.4922 21.5078 48 48 48h288zM336 400h-288v-128h192v64c0 8.83105 7.16895 16 16 16h16c8.83105 0 16 -7.16895 16 -16v-64h48v128zM48 -16 h288v240h-48v-144c0 -8.83105 -7.16895 -16 -16 -16h-16c-8.83105 0 -16 7.16895 -16 16v144h-192v-240z"/>
    <glyph glyph-name="rocket-launch" unicode="" d="M35.6855 95.9336c40.2852 40.2812 94.002 42.8691 130.565 6.31055c36.5664 -36.5625 33.9785 -90.2695 -6.31055 -130.549c-25.7529 -25.7539 -90.249 -38.6641 -159.364 -35.1055c-3.52539 68.8164 9.25195 133.49 35.1094 159.344zM117.318 11.9023 c13.4277 13.4258 14.2891 31.3262 2.10156 43.5137c-12.1875 12.1855 -30.0898 11.3223 -43.5176 -2.10352c-8.61914 -8.61719 -12.877 -30.1738 -11.7031 -53.1094c23.0352 -1.1875 44.5332 3.11523 53.1191 11.6992zM505.163 428.703 c6.91211 -32.1055 6.91211 -57.2559 6.81836 -82.4062c0 -102.688 -55.4316 -164.781 -128.02 -211.094v-104.438c0 -16.2793 -11.9141 -35.5586 -26.4746 -42.8438l-98.748 -49.4062c-3.27246 -1.48047 -6.91406 -2.375 -10.7031 -2.51562 c-13.2451 0.00195312 -23.999 10.7549 -24.0039 24v104c-0.00292969 52.9844 -43.0283 96 -96.0127 96h-103.953c-13.2461 0.00195312 -24 10.7549 -24.0039 24c0.136719 3.79004 1.03223 7.43164 2.51562 10.7031l49.4219 98.7988 c7.28906 14.5742 26.5918 26.498 42.8887 26.498h104.202c46.209 72.7969 108.109 128 211.328 128c25.0449 0 50.1973 0 82.293 -6.86328c5.46289 -1.16797 11.2754 -6.9707 12.4512 -12.4336zM358.138 175.668c74.1836 47.3301 105.836 98.3594 105.836 170.629 c0.0625 16.9863 0.123047 33.1914 -2.18164 51.4551c-17.832 2.24805 -33.7246 2.24805 -51.373 2.24805c-72.6777 0 -123.756 -31.6172 -170.795 -105.721c-16.3164 -25.7031 -6.83984 -7.76953 -52.2129 -99.4531c31.627 -14.4355 56.957 -39.751 71.4102 -71.3672 c91.8105 45.4688 73.9844 36.0469 99.3164 52.209zM368.056 344c22.0742 -0.0078125 39.9951 -17.9268 40.0059 -40c0 -22.0762 -17.9229 -40 -40 -40c-22.0762 0 -40 17.9238 -40 40c0 22.0742 17.9209 39.9971 39.9941 40z"/>
    <glyph glyph-name="sensor" unicode="" horiz-adv-x="448" d="M200 320c13.2461 0 24 -10.7539 24 -24v-112c0 -13.2461 -10.7539 -24 -24 -24s-24 10.7539 -24 24v112c0 13.2461 10.7539 24 24 24zM120 320c13.2461 0 24 -10.7539 24 -24v-112c0 -13.2461 -10.7539 -24 -24 -24s-24 10.7539 -24 24v112c0 13.2461 10.7539 24 24 24z M384 416c35.3223 0 64 -28.6777 64 -64v-320c0 -35.3223 -28.6777 -64 -64 -64h-320c-35.3223 0 -64 28.6777 -64 64v320c0 35.3223 28.6777 64 64 64h320zM400 32v320c0 8.83105 -7.16895 16 -16 16h-320c-8.83105 0 -16 -7.16895 -16 -16v-320 c0 -8.83105 7.16895 -16 16 -16h320c8.83105 0 16 7.16895 16 16z"/>
    <glyph glyph-name="sensor-alert" unicode="" horiz-adv-x="640" d="M633.09 44.6299c19.6504 -34.0596 -4.93945 -76.6299 -44.2695 -76.6299h-281.641c-39.3301 0 -63.9199 42.5703 -44.2695 76.6396l140.83 244.141c19.6602 34.0996 68.8701 34.0996 88.5293 0zM448 16c13.2461 0 24 10.7539 24 24s-10.7539 24 -24 24 s-24 -10.7539 -24 -24s10.7539 -24 24 -24zM467.08 98.7998l9.59961 96c0.0400391 0.398438 0.0605469 0.791016 0.0605469 1.2002c0 6.62305 -5.37695 12 -12 12h-33.4707c-6.62207 0 -12 -5.36523 -12 -11.9883c0 -0.408203 0.0205078 -0.813477 0.0605469 -1.21191 l9.58984 -96c0.608398 -6.05469 5.72559 -10.7998 11.9395 -10.7998h0.0107422h14.2695c6.21387 0 11.332 4.74512 11.9404 10.7998zM176 296c0 13.2461 10.7539 24 24 24s24 -10.7539 24 -24v-112c0 -13.2461 -10.7539 -24 -24 -24s-24 10.7539 -24 24v112zM224.35 16 c0.436523 -13.9131 4.37109 -27.0957 10.8701 -38.46c2.0498 -3.54004 4.82031 -6.38965 7.29004 -9.54004h-178.51c-35.3223 0 -64 28.6777 -64 64v320c0 35.3223 28.6777 64 64 64h320c35.3223 0 64 -28.6777 64 -64v-5.65039c-17.8398 0 -34.2002 -6.01953 -48 -15.9199 v21.5703c0 8.83105 -7.16895 16 -16 16h-320c-8.83105 0 -16 -7.16895 -16 -16v-320c0 -8.83105 7.16895 -16 16 -16h160.35zM96 296c0 13.2461 10.7539 24 24 24s24 -10.7539 24 -24v-112c0 -13.2461 -10.7539 -24 -24 -24s-24 10.7539 -24 24v112z"/>
    <glyph glyph-name="sensor-fire" unicode="" horiz-adv-x="640" d="M325.8 16c13.6074 -18.9014 30.2051 -34.9863 49.5498 -48h-311.35c-35.3223 0 -64 28.6777 -64 64v320c0 35.3223 28.6777 64 64 64h320c25.248 -0.0693359 47.0352 -14.7725 57.3203 -36.1201l-23 -22.7002c-6.32031 -5.89941 -12.3203 -12.1299 -18.3203 -18.29 v13.1104c0 8.83105 -7.16895 16 -16 16h-320c-8.83105 0 -16 -7.16895 -16 -16v-320c0 -8.83105 7.16895 -16 16 -16h261.8zM176 296c0 13.2461 10.7539 24 24 24s24 -10.7539 24 -24v-112c0 -13.2461 -10.7539 -24 -24 -24s-24 10.7539 -24 24v112zM96 296 c0 13.2461 10.7539 24 24 24s24 -10.7539 24 -24v-112c0 -13.2461 -10.7539 -24 -24 -24s-24 10.7539 -24 24v112zM551.14 297.14c51.75 -48.0293 88.8604 -126.52 88.8604 -164.569c0 -90.9004 -71.6602 -164.57 -160 -164.57s-160 73.6699 -160 164.57 c0 51.1396 49.8203 136.029 120 201.14c26.3115 -24.2529 49.7891 -50.502 71 -79.4102c12.4736 15.2959 25.6992 29.4092 40.1396 42.8398zM530.07 47.0801c30.7793 21.54 37.9795 63.2695 20.8193 95.8896c-2.05957 4.03027 -4.40918 8.2207 -7 12.4902l-36.6494 -41.7803 s-57.4199 73.3203 -61.75 78.3203c-30.2998 -36.3203 -45.4902 -57.5898 -45.4902 -81.7305c0 -48.4297 36.71 -78.2695 81.7998 -78.2695c0.0742188 0 0.224609 0.046875 0.297852 0.046875c17.8252 0 34.3623 5.55762 47.9727 15.0332z"/>
    <glyph glyph-name="sensor-on" unicode="" horiz-adv-x="640" d="M616 216c13.2461 0 24 -10.7539 24 -24s-10.7539 -24 -24 -24h-80c-13.2461 0 -24 10.7539 -24 24s10.7539 24 24 24h80zM536 304c-13.2197 0.03125 -23.9678 10.7588 -23.9678 23.9854c0 8.30176 4.22363 15.624 10.6377 19.9346l48 32 c3.91211 2.76855 8.73633 4.42383 13.8887 4.42383c13.2461 0 24 -10.7539 24 -24c0 -8.57031 -4.50195 -16.0977 -11.2686 -20.3438l-48 -32c-3.78223 -2.51758 -8.3457 -4 -13.2266 -4h-0.0634766zM549.29 76l48.0195 -32 c6.47168 -4.30664 10.6904 -11.6367 10.6904 -19.9854c0 -13.2598 -10.7646 -24.0244 -24.0244 -24.0244c-4.91113 0 -9.47949 1.47656 -13.2852 4.00977l-48 32c-6.47363 4.30469 -10.6943 11.6357 -10.6943 19.9854c0 13.2568 10.7617 24.0186 24.0186 24.0186 c4.90625 0 9.47168 -1.47461 13.2754 -4.00391zM120 320c13.2461 0 24 -10.7539 24 -24v-112c0 -13.2461 -10.7539 -24 -24 -24s-24 10.7539 -24 24v112c0 13.2461 10.7539 24 24 24zM200 320c13.2461 0 24 -10.7539 24 -24v-112c0 -13.2461 -10.7539 -24 -24 -24 s-24 10.7539 -24 24v112c0 13.2461 10.7539 24 24 24zM384 416c35.3223 0 64 -28.6777 64 -64v-320c0 -35.3223 -28.6777 -64 -64 -64h-320c-35.3223 0 -64 28.6777 -64 64v320c0 35.3223 28.6777 64 64 64h320zM400 32v320c0 8.83105 -7.16895 16 -16 16h-320 c-8.83105 0 -16 -7.16895 -16 -16v-320c0 -8.83105 7.16895 -16 16 -16h320c8.83105 0 16 7.16895 16 16z"/>
    <glyph glyph-name="sensor-smoke" unicode="" horiz-adv-x="640" d="M572.67 126.72c38.1182 -6.02637 67.3838 -39.0684 67.3838 -78.8701c0 -44.0703 -35.7793 -79.8496 -79.8496 -79.8496h-0.204102h-224c-44.1533 0 -80 35.8467 -80 80s35.8467 80 80 80c0.55957 0 1.08008 -0.169922 1.63965 -0.169922 c-1.07227 5.2168 -1.66797 10.6045 -1.66797 16.1377c0 44.1201 35.8193 79.9395 79.9395 79.9395c33.748 0 62.6396 -20.958 74.3584 -50.5576c8.74414 11.374 22.4453 18.6465 37.8867 18.6465c26.3867 0 47.8096 -21.4229 47.8096 -47.8105 c0 -6.16211 -1.16895 -12.0537 -3.2959 -17.4658zM176 296c0 13.2461 10.7539 24 24 24s24 -10.7539 24 -24v-112c0 -13.2461 -10.7539 -24 -24 -24s-24 10.7539 -24 24v112zM64 16h165.22c5.39648 -18.3994 15.3643 -34.8623 28.6406 -48h-193.86 c-35.3223 0 -64 28.6777 -64 64v320c0 35.3223 28.6777 64 64 64h320c35.3223 0 64 -28.6777 64 -64v-101.22c-10.2598 3.06934 -20.8604 5.21973 -32 5.21973c-5.45898 -0.121094 -10.7617 -0.635742 -16 -1.51953v97.5195c0 8.83105 -7.16895 16 -16 16h-320 c-8.83105 0 -16 -7.16895 -16 -16v-320c0 -8.83105 7.16895 -16 16 -16zM96 296c0 13.2461 10.7539 24 24 24s24 -10.7539 24 -24v-112c0 -13.2461 -10.7539 -24 -24 -24s-24 10.7539 -24 24v112z"/>
    <glyph glyph-name="siren" unicode="" horiz-adv-x="448" d="M416 112c17.6611 0 32 -14.3389 32 -32v-80c0 -17.6611 -14.3389 -32 -32 -32h-384c-17.6611 0 -32 14.3389 -32 32v80c0 17.6611 14.3389 32 32 32v0l22.1201 208.93c4.43652 35.4932 34.7529 63.0684 71.4395 63.0703h196.881 c36.6865 -0.00195312 67.0029 -27.5771 71.4395 -63.0703zM101.75 315l-21.3799 -203h43.4297l20.4102 185.08c0.522461 3.9082 3.87109 6.93555 7.91992 6.93945c0.00976562 0.000976562 0.0107422 0.000976562 0.0195312 0.000976562 c0.356445 0 0.707031 -0.0244141 1.05078 -0.0703125l15.8594 -2.12988c3.91211 -0.522461 6.94238 -3.86816 6.94238 -7.92188c0 -0.365234 -0.0244141 -0.725586 -0.0722656 -1.07812l-19.8398 -180.82h211.54l-21.3701 203c-1.48926 11.8203 -11.5898 21 -23.8115 21 h-0.0078125h-196.881c-12.2207 -0.000976562 -22.3203 -9.18066 -23.8096 -21zM400 16v48h-352v-48h352z"/>
    <glyph glyph-name="siren-on" unicode="" horiz-adv-x="640" d="M90.6904 372l-48 32c-6.7666 4.24609 -11.2217 11.7451 -11.2217 20.3154c0 13.2461 10.7549 24 24 24c5.15332 0 9.92871 -1.62695 13.8408 -4.39551l48 -32c6.7666 -4.24609 11.2217 -11.7451 11.2217 -20.3154c0 -13.2461 -10.7549 -24 -24 -24 c-5.15332 0 -9.92871 1.62695 -13.8408 4.39551zM536 368c-13.2246 0.0253906 -23.9775 10.7559 -23.9775 23.9854c0 8.31445 4.2373 15.6475 10.668 19.9551l48 32c3.89258 2.72461 8.67871 4.35254 13.7871 4.35254c13.2461 0 24 -10.7539 24 -24 c0 -8.53613 -4.46582 -16.0381 -11.1875 -20.293l-48 -32c-3.78223 -2.51758 -8.3457 -4 -13.2266 -4h-0.0634766zM112 256c0 -13.2461 -10.7539 -24 -24 -24h-64c-13.2461 0 -24 10.7539 -24 24s10.7539 24 24 24h64c13.2461 0 24 -10.7539 24 -24zM616 280 c13.2461 0 24 -10.7539 24 -24s-10.7539 -24 -24 -24h-64c-13.2461 0 -24 10.7539 -24 24s10.7539 24 24 24h64zM512 112c17.6611 0 32 -14.3389 32 -32v-80c0 -17.6611 -14.3389 -32 -32 -32h-384c-17.6611 0 -32 14.3389 -32 32v80c0 17.6611 14.3389 32 32 32 l22.1201 208.93c4.43652 35.4932 34.7529 63.0684 71.4395 63.0703h196.881c36.6865 -0.00195312 67.0029 -27.5771 71.4395 -63.0703zM197.75 315l-21.3799 -203h43.4297l20.4102 185.08c0.522461 3.9082 3.87109 6.93555 7.91992 6.93945 c0.00976562 0.000976562 0.0107422 0.000976562 0.0195312 0.000976562c0.356445 0 0.707031 -0.0244141 1.05078 -0.0703125l15.8594 -2.12988c3.91211 -0.522461 6.94238 -3.86816 6.94238 -7.92188c0 -0.365234 -0.0244141 -0.725586 -0.0722656 -1.07812 l-19.8398 -180.82h211.54l-21.3701 203c-1.48926 11.8203 -11.5898 21 -23.8115 21h-0.0078125h-196.881c-12.2207 -0.000976562 -22.3203 -9.18066 -23.8096 -21zM496 16v48h-352v-48h352z"/>
    <glyph glyph-name="solar-system" unicode="" d="M391.778 327.766c16.6445 -16.6426 17.6426 -42.0566 4.7334 -60.7578c32.2959 -60.5156 23.6602 -137.127 -27.3623 -188.145c-28.9619 -28.9619 -68.9844 -46.8633 -113.138 -46.8633c-88.3066 0 -160 71.6934 -160 160c0 88.3027 71.6875 159.993 159.988 160 c25.9209 0 51.5566 -6.98633 75.0156 -19.5039c18.7031 12.9062 44.1201 11.9102 60.7627 -4.73047zM346.52 101.49c23.1602 22.9062 37.4219 54.832 37.4219 89.9473c0 20.4385 -4.86426 39.751 -13.4971 56.8398c-16.0957 -4.41406 -33.9102 -1.03906 -46.5537 11.6055 c-12.6465 12.6426 -16.0215 30.4551 -11.6074 46.5488c-17.2695 8.6377 -36.8643 13.5498 -57.4727 13.5498c-70.9248 0 -128.507 -57.582 -128.507 -128.508c0 -70.9248 57.582 -128.507 128.507 -128.507c35.9014 0 68.3828 14.7539 91.709 38.5234zM256 272 c44.1348 -0.0439453 79.96 -35.8662 80.0088 -80c0 -44.1533 -35.8467 -80 -80 -80s-80 35.8467 -80 80c0 44.1504 35.8418 79.9951 79.9912 80zM256 160c17.6543 0.0166016 31.9854 14.3457 32.0039 32c0 17.6611 -14.3389 32 -32 32c-17.6621 0 -32 -14.3389 -32 -32 c0 -17.6602 14.3369 -31.998 31.9961 -32zM336.905 0.322266c4.20801 -13.168 11.4443 -24.9854 20.9297 -34.5957c2.0498 -2.04883 4.39551 -3.57422 6.58691 -5.37695c-32.9482 -15.5283 -70.0068 -24.3867 -108.817 -24.3867 c-70.541 0 -134.436 28.6855 -180.644 75.0176c-87.2285 87.2188 -98.3115 221.693 -33.3418 320.977c-3.51367 7.32617 -5.48242 15.5859 -5.48242 24.248c0 30.9375 25.1172 56.0557 56.0557 56.0557s56.0557 -25.1182 56.0557 -56.0557 c0 -30.9385 -25.1172 -56.0566 -56.0557 -56.0566c-4.39355 0 -8.66992 0.506836 -12.7744 1.46484c-49.7939 -80.2109 -40.0898 -187.121 29.4883 -256.691c37.6885 -37.6523 89.8936 -60.8271 147.323 -60.8271c28.5986 0 55.8594 5.77734 80.6758 16.2275z M437.039 373.02c87.2285 -87.2188 98.3115 -221.693 33.3418 -320.977c3.51367 -7.32617 5.48242 -15.5859 5.48242 -24.2471c0 -30.9395 -25.1191 -56.0586 -56.0586 -56.0586c-30.9385 0 -56.0576 25.1191 -56.0576 56.0586s25.1191 56.0576 56.0576 56.0576 c4.39551 0 8.67285 -0.506836 12.7773 -1.46484c49.792 80.2109 40.0879 187.121 -29.4883 256.689c-37.6885 37.6523 -89.8936 60.8271 -147.323 60.8271c-28.5986 0 -55.8594 -5.77734 -80.6758 -16.2275c-4.20703 13.1699 -11.4434 24.9873 -20.9297 34.5977 c-2.04785 2.04688 -4.39355 3.57227 -6.58496 5.375c32.9473 15.5283 70.0068 24.3867 108.817 24.3867c70.54 0 134.434 -28.6855 180.642 -75.0176z"/>
    <glyph glyph-name="sort-circle" unicode="" d="M350.88 421.06c126.51 -52.3994 186.58 -197.43 134.18 -323.939c-39.5498 -95.4805 -131.859 -153.12 -229.159 -153.12c-33.5088 0.015625 -65.6328 6.82227 -94.7803 18.9404c-126.51 52.3994 -186.58 197.43 -134.18 323.939 c39.5498 95.4805 131.859 153.12 229.159 153.12c33.5088 -0.015625 65.6328 -6.82227 94.7803 -18.9404zM440.72 115.49c42.1807 101.85 -6.34961 219.04 -108.21 261.229c-23.5625 9.78711 -49.4424 15.4092 -76.5293 15.4092 c-83.292 0 -154.745 -51.0928 -184.7 -123.619c-42.1904 -101.85 6.35938 -219.04 108.21 -261.229c23.5625 -9.78711 49.4424 -15.4092 76.5293 -15.4092c83.292 0 154.745 51.0928 184.7 123.619zM164.75 224c-16.4004 0 -24.5898 19.8496 -13 31.4102l91.25 91.1797 c3.31836 3.3457 7.92188 5.41895 13.002 5.41895s9.67969 -2.07324 12.998 -5.41895l91.1104 -91.1797c11.5898 -11.5605 3.39941 -31.4102 -13 -31.4102h-182.36zM347.11 160c16.4092 0 24.5898 -19.8496 13.0693 -31.4102l-91.1797 -91.1797 c-3.31836 -3.3457 -7.92188 -5.41895 -13.002 -5.41895s-9.67969 2.07324 -12.998 5.41895l-91.25 91.1797c-11.5898 11.5605 -3.40039 31.4102 13 31.4102h182.36z"/>
    <glyph glyph-name="sort-circle-down" unicode="" d="M350.88 421.06c126.51 -52.3994 186.58 -197.43 134.18 -323.939c-39.5498 -95.4805 -131.859 -153.12 -229.159 -153.12c-33.5088 0.015625 -65.6328 6.82227 -94.7803 18.9404c-126.51 52.3994 -186.58 197.43 -134.18 323.939 c39.5498 95.4805 131.859 153.12 229.159 153.12c33.5088 -0.015625 65.6328 -6.82227 94.7803 -18.9404zM440.72 115.49c42.1904 101.85 -6.35938 219.04 -108.21 261.229c-23.5625 9.78711 -49.4424 15.4092 -76.5293 15.4092 c-83.292 0 -154.745 -51.0928 -184.7 -123.619c-42.1807 -101.85 6.34961 -219.04 108.21 -261.229c23.5625 -9.78711 49.4424 -15.4092 76.5293 -15.4092c83.292 0 154.745 51.0928 184.7 123.619zM347.25 160c16.4004 0 24.5898 -19.8496 13 -31.4102l-91.25 -91.1797 c-3.31836 -3.3457 -7.92188 -5.41895 -13.002 -5.41895s-9.67969 2.07324 -12.998 5.41895l-91.1104 91.1797c-11.5898 11.5605 -3.39941 31.4102 13 31.4102h182.36zM269 346.59l91.25 -91.1797c11.5898 -11.5605 3.40039 -31.4102 -13 -31.4102h-182.43 c-16.3799 0 -24.5605 19.8496 -13 31.4102l91.1797 91.1797c3.31836 3.3457 7.92188 5.41895 13.002 5.41895s9.67969 -2.07324 12.998 -5.41895zM197.7 256h116.71l-58.4102 58.3301z"/>
    <glyph glyph-name="sort-circle-up" unicode="" d="M350.88 421.06c126.51 -52.3994 186.58 -197.43 134.18 -323.939c-39.5498 -95.4805 -131.859 -153.12 -229.159 -153.12c-33.5088 0.015625 -65.6328 6.82227 -94.7803 18.9404c-126.51 52.3994 -186.58 197.43 -134.18 323.939 c39.5498 95.4805 131.859 153.12 229.159 153.12c33.5088 -0.015625 65.6328 -6.82227 94.7803 -18.9404zM440.72 115.49c42.1807 101.85 -6.34961 219.04 -108.21 261.229c-23.5625 9.78711 -49.4424 15.4092 -76.5293 15.4092 c-83.292 0 -154.745 -51.0928 -184.7 -123.619c-42.1904 -101.85 6.35938 -219.04 108.21 -261.229c23.5625 -9.78711 49.4424 -15.4092 76.5293 -15.4092c83.292 0 154.745 51.0928 184.7 123.619zM164.75 224c-16.4004 0 -24.5898 19.8496 -13 31.4102l91.25 91.1797 c3.31836 3.3457 7.92188 5.41895 13.002 5.41895s9.67969 -2.07324 12.998 -5.41895l91.1104 -91.1797c11.5898 -11.5605 3.39941 -31.4102 -13 -31.4102h-182.36zM347.11 160c16.4092 0 24.5898 -19.8496 13.0693 -31.4102l-91.1797 -91.1797 c-3.31836 -3.3457 -7.92188 -5.41895 -13.002 -5.41895s-9.67969 2.07324 -12.998 5.41895l-91.25 91.1797c-11.5898 11.5605 -3.40039 31.4102 13 31.4102h182.36zM256 69.6699l58.2998 58.3301h-116.71z"/>
    <glyph glyph-name="space-station-moon" unicode="" d="M256 440c136.967 0 248 -111.033 248 -248s-111.033 -248 -248 -248s-248 111.033 -248 248s111.033 248 248 248zM176 336c-17.6523 -0.0205078 -31.9795 -14.3477 -32 -32c0 -17.6611 14.3389 -32 32 -32s32 14.3389 32 32s-14.3389 32 -32 32zM96.873 312.658 c-25.5693 -33.0322 -40.8799 -74.4404 -40.8799 -119.405c0 -11.1377 0.933594 -22.0596 2.72754 -32.6904c60.4727 -25.8809 127.403 -40.4805 197.279 -40.5625c69.8311 0.0185547 136.725 14.4863 197.223 40.1992c1.75488 10.4033 2.7002 20.9199 2.77734 31.8008 c0 110.281 -89.7188 200 -200 200c-21.7705 -0.0214844 -42.7617 -3.59668 -62.3711 -10.0918c35.6592 -8.05566 62.3711 -39.9561 62.3711 -78.0361c0 -44.1533 -35.8467 -80 -80 -80s-80 35.8467 -80 80v0.12793c0.132812 2.93848 0.425781 5.81152 0.873047 8.6582z M256 -8c77.666 0 144.973 44.5918 178.086 109.434c-55.8779 -18.9404 -115.854 -29.3848 -178.086 -29.4336c-62.3047 0.0439453 -122.34 10.5879 -178.215 29.6973c33.0664 -64.9824 100.443 -109.697 178.215 -109.697z"/>
    <glyph glyph-name="space-station-moon-alt" unicode="" d="M456 240c26.4922 0 48 -21.5078 48 -48c-0.0429688 -14.4482 -1.34863 -28.4014 -3.81836 -42.1523c-3.26172 -18.4014 -17.0381 -33.2314 -34.877 -37.9961c-3.50781 -0.9375 -48.502 -15.7109 -68.2148 -20.9102c23.2773 -3.11328 41.3242 -23.0664 41.3242 -47.1904 c0 -14.0566 -6.10449 -26.6992 -15.8047 -35.4189c-43.9121 -39.9453 -102.338 -64.332 -166.318 -64.332h-0.291016c-136.967 0 -248 111.033 -248 248s111.033 248 248 248c54.8809 -0.146484 105.851 -18.1758 147 -48.3887 c11.8613 -8.74316 19.5195 -22.7871 19.5195 -38.6387v-12.8242c0 -0.00878906 0.0507812 0.0136719 0.0507812 0.00585938c0 -17.2881 -9.16406 -32.4521 -22.8965 -40.8945h4.47461c26.4922 0 48 -21.5078 48 -48v-11.2598h3.85156zM176 336 c-17.6523 -0.0205078 -31.9795 -14.3477 -32 -32c0 -17.6611 14.3389 -32 32 -32s32 14.3389 32 32s-14.3389 32 -32 32zM96.873 312.658c-25.5693 -33.0322 -40.8799 -74.4404 -40.8799 -119.405c0 -11.1377 0.933594 -22.0596 2.72754 -32.6904 c60.4727 -25.8809 127.403 -40.4805 197.279 -40.5625c69.8164 0.0820312 136.693 14.6562 197.125 40.4961c1.79883 10.293 2.77832 20.7227 2.875 31.5039h-74.0742c-4.08789 0.000976562 -7.40625 3.32031 -7.40625 7.4082v14.8145 c0 4.08789 3.31836 7.40723 7.40625 7.4082h22.2227v29.6289h-51.8516c-4.08789 0.000976562 -7.40625 3.32031 -7.40625 7.4082v51.8516h-22.2227c-4.08789 0 -7.40723 3.31836 -7.4082 7.40625v14.8145v0.00195312c0 4.08789 3.31836 7.40625 7.40625 7.40625h0.00195312 h51.8516v12.8242c-33.0488 24.46 -74.1328 38.9766 -118.366 38.9766c-21.8389 0 -42.8594 -3.52637 -62.5244 -10.041c35.6592 -8.05566 62.3711 -39.9561 62.3711 -78.0361c0 -44.1533 -35.8467 -80 -80 -80s-80 35.8467 -80 80v0.12793 c0.132812 2.93848 0.425781 5.81152 0.873047 8.6582zM359.705 43.8516c-8.17676 0 -14.8145 6.63965 -14.8145 14.8164v21.2324c-28.9297 -4.69727 -58.4395 -7.90039 -88.8906 -7.90039c-62.3047 0.0439453 -122.34 10.5879 -178.215 29.6973 c33.0664 -64.9824 100.443 -109.697 178.215 -109.697c0.100586 0 0.272461 0.0195312 0.373047 0.0195312c51.5596 0 98.5684 19.6367 133.951 51.832h-30.6191z"/>
    <glyph glyph-name="sprinkler" unicode="" d="M24 344c13.2461 0 24 -10.7539 24 -24s-10.7539 -24 -24 -24s-24 10.7539 -24 24s10.7539 24 24 24zM24 240c13.2461 0 24 -10.7539 24 -24s-10.7539 -24 -24 -24s-24 10.7539 -24 24s10.7539 24 24 24zM88 352c-13.2461 0 -24 10.7539 -24 24s10.7539 24 24 24 s24 -10.7539 24 -24s-10.7539 -24 -24 -24zM488 400c-13.2461 0 -24 10.7539 -24 24s10.7539 24 24 24s24 -10.7539 24 -24s-10.7539 -24 -24 -24zM360 296c-13.2461 0 -24 10.7539 -24 24s10.7539 24 24 24s24 -10.7539 24 -24s-10.7539 -24 -24 -24zM152 296 c-13.2461 0 -24 10.7539 -24 24s10.7539 24 24 24s24 -10.7539 24 -24s-10.7539 -24 -24 -24zM488 240c13.2461 0 24 -10.7539 24 -24s-10.7539 -24 -24 -24s-24 10.7539 -24 24s10.7539 24 24 24zM424 384c13.2461 0 24 -10.7539 24 -24s-10.7539 -24 -24 -24 s-24 10.7539 -24 24s10.7539 24 24 24zM488 344c13.2461 0 24 -10.7539 24 -24s-10.7539 -24 -24 -24s-24 10.7539 -24 24s10.7539 24 24 24zM24 448c13.2461 0 24 -10.7539 24 -24s-10.7539 -24 -24 -24s-24 10.7539 -24 24s10.7539 24 24 24zM424 288 c13.2461 0 24 -10.7539 24 -24s-10.7539 -24 -24 -24s-24 10.7539 -24 24s10.7539 24 24 24zM398.19 192c0.00292969 0 -0.00195312 -0.0146484 0.000976562 -0.0146484c9.80762 0 17.7705 -7.96289 17.7705 -17.7705c0 -3.99609 -1.32227 -7.68555 -3.55176 -10.6553 l-67.5205 -78.2295l-24.8896 -24.8896v-108.44c0 -8.83105 -7.16895 -16 -16 -16h-96c-8.83105 0 -16 7.16895 -16 16v108.44l-24.8896 24.8896l-67.5205 78.2295c-2.22949 2.96973 -3.55957 6.6748 -3.55957 10.6709c0 9.80664 7.96191 17.7695 17.7695 17.7695h0.00976562 h110.19v176c0 8.83105 7.16895 16 16 16h32c8.83105 0 16 -7.16895 16 -16v-176h110.19zM272 80.3203l60.1201 63.6797h-152.24l60.1201 -63.6797v-96.3203h32v96.3203zM112 280c0 -13.2461 -10.7539 -24 -24 -24s-24 10.7539 -24 24s10.7539 24 24 24s24 -10.7539 24 -24z "/>
    <glyph glyph-name="star-shooting" unicode="" d="M308.682 255.996c-2.89648 2.89648 -4.68848 6.90039 -4.68848 11.3164c0 4.41504 1.79199 8.41602 4.68848 11.3125l164.694 164.689c2.89648 2.89551 6.90039 4.6875 11.3154 4.6875s8.41504 -1.79199 11.3115 -4.6875l11.3105 -11.3105 c2.89648 -2.89648 4.68848 -6.90137 4.68848 -11.3164s-1.79199 -8.41504 -4.68848 -11.3105l-164.694 -164.689c-2.89551 -2.89746 -6.90039 -4.69043 -11.3154 -4.69043c-4.41602 0 -8.41602 1.79297 -11.3115 4.69043zM239.99 356.688l-11.3105 11.3086 c-2.89551 2.89648 -4.68848 6.90039 -4.68848 11.3164c0 4.41504 1.79297 8.41602 4.68848 11.3125l52.6924 52.6895c2.89648 2.89551 6.90039 4.6875 11.3164 4.6875c4.41504 0 8.41504 -1.79199 11.3115 -4.6875l11.3105 -11.3105 c2.89551 -2.89648 4.68848 -6.90137 4.68848 -11.3164s-1.79297 -8.41504 -4.68848 -11.3105l-52.6924 -52.6895c-2.89648 -2.89746 -6.90039 -4.69043 -11.3164 -4.69043c-4.41504 0 -8.41504 1.79297 -11.3115 4.69043zM496.003 251.314l11.3105 -11.3105 c2.89648 -2.89648 4.68848 -6.90039 4.68848 -11.3164c0 -4.41504 -1.79199 -8.41504 -4.68848 -11.3105l-52.6924 -52.6895c-2.89551 -2.89746 -6.90039 -4.69043 -11.3154 -4.69043c-4.41602 0 -8.41602 1.79297 -11.3115 4.69043l-11.3105 11.3086 c-2.89648 2.89648 -4.68848 6.90039 -4.68848 11.3164c0 4.41504 1.79199 8.41602 4.68848 11.3125l52.6924 52.6895c2.89648 2.89551 6.90039 4.6875 11.3154 4.6875s8.41504 -1.79199 11.3115 -4.6875zM364.294 180.725 c18.7969 -2.70312 26.4062 -25.9062 12.7969 -39.2031l-75.8926 -74l17.8916 -104.594c0.217773 -1.27148 0.331055 -2.55664 0.331055 -3.89062c0 -12.6807 -10.2871 -22.9775 -22.9648 -22.9941c-3.84375 0.00976562 -7.49023 0.987305 -10.6641 2.68164l-93.7988 49.3906 l-93.7979 -49.3906c-3.16699 -1.7207 -6.81738 -2.71582 -10.6709 -2.72461c-12.6768 0.0537109 -22.9551 10.3418 -22.9551 23.0322c0 1.32715 0.112305 2.62891 0.328125 3.89551l18 104.594l-75.9072 74c-13.7031 13.2969 -6.09375 36.5 12.7031 39.2031l104.799 15.2969 l46.9072 95.2031c3.73828 7.60645 11.5391 12.8477 20.5811 12.8477s16.8691 -5.24121 20.6074 -12.8477l46.9072 -95.2031zM249.634 84.2832l57.6865 56.248l-79.7305 11.6387l-35.5967 72.2461l-35.5957 -72.2461l-79.6426 -11.625l57.7314 -56.2793l-13.6602 -79.377 l71.167 37.4746l71.2266 -37.5039z"/>
    <glyph glyph-name="starfighter" unicode="" horiz-adv-x="640" d="M288 192c0 17.6611 14.3389 32 32 32s32 -14.3389 32 -32v-48c0 -8.83008 -7.16992 -16 -16 -16h-32c-8.83008 0 -16 7.16992 -16 16v48zM624 320h16v-32h-16v-264c0 -0.0400391 0.0126953 -0.0986328 0.0126953 -0.138672 c0 -13.1807 -10.7012 -23.8828 -23.8818 -23.8828c-9.58398 0 -17.8564 5.65723 -21.6582 13.8105l-106.473 -42.5898v-19.1992c0 -8.83008 -7.16992 -16 -16 -16h-16c-8.83008 0 -16 7.16992 -16 16v16.8086c-8.5918 1.06738 -16.7842 3.9043 -23.9512 8.06836 c-6.76367 -5.23438 -14.8496 -8.87695 -24.0488 -8.87695h-112c-9.19922 0 -17.2852 3.64062 -24.0488 8.87695c-7.16699 -4.16406 -15.3594 -7.00195 -23.9512 -8.06836v-16.8086c0 -8.83008 -7.16992 -16 -16 -16h-16c-8.83008 0 -16 7.16992 -16 16v19.1992 l-106.473 42.5898c-3.80176 -8.15332 -12.0615 -13.792 -21.6445 -13.792c-13.1816 0 -23.8828 10.7021 -23.8828 23.8828v0.120117v264h-16v32h16v8c0 13.2461 10.7539 24 24 24s24 -10.7539 24 -24v-8h16v-32h-16v-192h48v48c0.0400391 35.3037 28.6963 63.96 64 64h32 c7.17578 -0.0839844 14.1006 -1.38574 20.5137 -3.67578l25.9238 208.645c2.49512 19.7002 19.3213 35.001 39.6875 35.0312h51.75c20.3662 -0.0302734 37.1924 -15.3311 39.6875 -35.0312l26.0762 -208.598c6.37012 2.25879 13.2412 3.54395 20.3613 3.62891h32 c35.3037 -0.0400391 63.96 -28.6963 64 -64v-48h48v192h-16v32h16v8c0 13.2461 10.7539 24 24 24s24 -10.7539 24 -24v-8zM224 32v112c0 8.83008 -7.16992 16 -16 16h-32c-8.83008 0 -16 -7.16992 -16 -16v-112c0 -8.83008 7.16992 -16 16 -16h32 c8.83008 0 16 7.16992 16 16zM368 32v136l-29.1875 232h-37.625l-29.375 -234.984l0.167969 -133.035c0.0107422 -8.82129 7.17578 -15.9805 16 -15.9805h64.0195c8.83008 0 16 7.16992 16 16zM480 32v112c0 8.83008 -7.16992 16 -16 16h-32 c-8.83008 0 -16 -7.16992 -16 -16v-112c0 -8.83008 7.16992 -16 16 -16h32c8.83008 0 16 7.16992 16 16z"/>
    <glyph glyph-name="starfighter-alt" unicode="" horiz-adv-x="576" d="M560 416c8.83008 0 16 -7.16992 16 -16v-416c0 -8.83008 -7.16992 -16 -16 -16h-16c-8.83008 0 -16 7.16992 -16 16v147.266l-106.139 -26.5352c-28.5605 -43.7188 -77.7441 -72.7305 -133.861 -72.7305s-105.301 29.0117 -133.861 72.7305l-106.139 26.5352v-147.266 c0 -8.83008 -7.16992 -16 -16 -16h-16c-8.83008 0 -16 7.16992 -16 16v416c0 8.83008 7.16992 16 16 16h16c8.83008 0 16 -7.16992 16 -16v-147.266l106.139 26.5352c28.5605 43.7188 77.7441 72.7305 133.861 72.7305s105.301 -29.0117 133.861 -72.7305l106.139 -26.5352 v147.266c0 8.83008 7.16992 16 16 16h16zM131.232 159.926c-2.11816 10.4033 -3.23047 20.9287 -3.23047 31.9531c0 11.0254 1.1123 21.792 3.23047 32.1953l-75.2324 -18.8086v-26.5312zM304 302.383v-40.3086c7.94629 -1.82422 15.5049 -5.01855 22.1953 -9.25391 l28.5703 28.5703c-14.5176 10.8652 -31.9893 18.3135 -50.7656 20.9922zM272 302.383c-18.7764 -2.67871 -36.248 -10.127 -50.7656 -20.9922l28.5703 -28.5703c6.69043 4.23535 14.249 7.42969 22.1953 9.25391v40.3086zM198.609 258.766 c-10.8652 -14.5176 -18.3135 -31.9893 -20.9922 -50.7656h40.3086c1.82324 7.94727 5.01855 15.5059 9.25391 22.1953zM177.617 176c2.67871 -18.7764 10.127 -36.2471 20.9941 -50.7637l28.5684 28.5684c-4.23535 6.69043 -7.42969 14.249 -9.25391 22.1953h-40.3086z M272 81.6172v40.3086c-7.94629 1.82422 -15.5049 5.01855 -22.1953 9.25391l-28.5684 -28.5684c14.5166 -10.8672 31.9873 -18.3154 50.7637 -20.9941zM264 192c0.0146484 -13.2393 10.7607 -23.9854 24 -24c13.2461 0 24 10.7539 24 24s-10.7539 24 -24 24 s-24 -10.7539 -24 -24zM304 81.6172c18.7764 2.67773 36.248 10.126 50.7656 20.9922l-28.5703 28.5703c-6.69043 -4.23535 -14.249 -7.42969 -22.1953 -9.25391v-40.3086zM377.389 125.236c10.8672 14.5166 18.3154 31.9873 20.9941 50.7637h-40.3086 c-1.82422 -7.94629 -5.01855 -15.5049 -9.25391 -22.1953zM358.074 208h40.3086c-2.67871 18.7764 -10.127 36.248 -20.9922 50.7656l-28.5703 -28.5703c4.23535 -6.68945 7.43066 -14.248 9.25391 -22.1953zM520 178.734v26.5312l-75.2324 18.8086 c2.11816 -10.4033 3.23047 -20.9287 3.23047 -31.9531c0 -11.0254 -1.1123 -21.792 -3.23047 -32.1953z"/>
    <glyph glyph-name="starship" unicode="" horiz-adv-x="640" d="M448 384c106.039 0 192 -85.9609 192 -192s-85.9609 -192 -192 -192c-78.5469 0 -145.977 47.2227 -175.713 114.777l-71.1523 6.46875l-37.8691 -25.2461h28.7344c35.3223 0 64 -28.6777 64 -64s-28.6777 -64 -64 -64h-160c-17.6611 0 -32 14.3389 -32 32v64 c0 17.6611 14.3389 32 32 32h44.7344l48.2539 32.168c-39.4824 3.59863 -60.9883 32.9434 -60.9883 63.832c0 31.4785 22.2734 60.3154 60.9902 63.8281l-48.2559 32.1719h-44.7344c-17.6611 0 -32 14.3389 -32 32v64c0 17.6611 14.3389 32 32 32h160 c35.3223 0 64 -28.6777 64 -64s-28.6777 -64 -64 -64h-28.7344l37.8711 -25.2461l71.1504 6.46875c29.7383 67.5547 97.166 114.777 175.713 114.777zM48 336h144c8.83105 0 16 7.16895 16 16s-7.16895 16 -16 16h-144v-32zM192 48h-144v-32h144c8.83105 0 16 7.16895 16 16 s-7.16895 16 -16 16zM258.229 164.264c-1.40039 9.10547 -2.1543 18.2588 -2.22852 27.7363c0.0742188 9.47656 0.828125 18.6299 2.22852 27.7344l-131.822 -11.9844c-8.0625 -0.720703 -14.3906 -7.50391 -14.3906 -15.752c0 -8.2373 6.3125 -15.0127 14.3594 -15.748z M448 48c79.4023 0 144 64.5977 144 144s-64.5977 144 -144 144s-144 -64.5977 -144 -144s64.5977 -144 144 -144zM448 272c44.1523 0 80 -35.8477 80 -80c0 -44.1533 -35.8467 -80 -80 -80s-80 35.8467 -80 80s35.8467 80 80 80zM448 160c17.6611 0 32 14.3389 32 32 s-14.3389 32 -32 32s-32 -14.3389 -32 -32s14.3389 -32 32 -32z"/>
    <glyph glyph-name="starship-freighter" unicode="" horiz-adv-x="576" d="M127.997 112c8.83105 -0.000976562 16 -7.16992 16 -16c0 -8.83105 -7.16895 -16 -16 -16c-8.83008 0 -16 7.16895 -16 16s7.16992 16 16 16zM95.998 208c8.83008 -0.000976562 15.999 -7.16992 16 -16c0 -8.83105 -7.16895 -16 -16 -16c-8.83008 0 -16 7.16895 -16 16 s7.16992 16 16 16zM127.997 304c8.83105 -0.000976562 16 -7.16992 16 -16c0 -8.83105 -7.16895 -16 -16 -16c-8.83008 0 -16 7.16895 -16 16s7.16992 16 16 16zM554.956 311.668c12.2783 -4.47363 21.0439 -16.249 21.0439 -30.0664v-179.203 c0 -13.8174 -8.76562 -25.5928 -21.0439 -30.0664l-57.7666 -21.0469c9.26074 -12.0762 14.8057 -27.2363 14.8057 -43.6152c0 -39.5566 -32.1143 -71.6709 -71.6709 -71.6709c-0.111328 0 -0.222656 0 -0.334961 0.000976562h-71.998 c-0.00585938 0 0.0292969 -0.0693359 0.0244141 -0.0693359c-24.4805 0 -46.1211 12.2549 -59.1162 30.96l-9.08398 13.0566c-24.5303 -7.61719 -49.9893 -11.9453 -75.3809 -11.9453c-29.1475 0 -58.1221 5.41406 -85.2148 17.1484 c-143.561 62.1836 -139.205 206.85 -139.205 206.85s-4.10938 144.777 139.205 206.85c27.0967 11.7383 56.0635 17.1504 85.2148 17.1504c30.458 -0.15625 59.7939 -5.69141 86.8926 -15.5625zM224.435 16.002c15.2617 0 30.665 2.48828 46.0576 6.09961l-60.9814 87.6621 c-33.4795 12.4609 -57.5137 44.4707 -57.5137 82.2363v0.0302734c0 48.5674 39.4307 87.998 87.998 87.998c48.5664 0 87.9971 -39.4307 87.9971 -87.998v-0.0302734c0 -0.130859 -0.0390625 -0.25 -0.0390625 -0.380859l53.5439 -76.9551 c11.6738 23.2285 18.3896 49.6123 18.4932 77.3359c0 149.207 -143.508 176.014 -175.706 175.986c-97.8008 -0.0800781 -177.492 -83.2734 -176.27 -176.016c-1.42578 -86.0469 72.9541 -175.969 176.42 -175.969zM279.993 192c0 22.0762 -17.9229 40 -39.998 40 c-22.0762 0 -39.999 -17.9229 -39.999 -39.999s17.9229 -39.999 39.999 -39.999c22.0752 0 39.998 17.9229 39.998 39.998zM439.989 -16c13.2461 0 24 10.7539 24 24s-10.7539 24 -24 24h-59.4668l-72.7461 104.57c-10.2178 -12.5127 -23.7676 -22.0732 -39.3506 -27.4453 l79.8789 -114.828c4.32715 -6.23438 11.5244 -10.2969 19.6816 -10.2969h0.00488281h71.998zM528.001 113.598v46.4043l-0.0136719 -0.00195312h-82.3867c-4.2666 -28.665 -14.1748 -56.0068 -28.3213 -80h18.5117zM528.001 223.998v46.4043l-115.892 42.2266 c16.9932 -26.1133 28.7705 -56.4775 33.4814 -88.6289h82.3965z"/>
    <glyph glyph-name="sword-laser" unicode="" d="M176.535 224.503l113.137 -113.139c1.44824 -1.44727 2.34473 -3.44922 2.34473 -5.65723c0 -2.20703 -0.896484 -4.20703 -2.34473 -5.65527l-11.3125 -11.3145c-1.44824 -1.44727 -3.4502 -2.34277 -5.6582 -2.34277s-4.20801 0.895508 -5.65625 2.34277 l-5.66016 5.66211l-142.393 -142.4c-9.88672 -9.8877 -23.5566 -16.0068 -38.6309 -16.0068c-15.0723 0 -28.7266 6.11816 -38.6133 16.0049l-25.75 25.752c-9.88672 9.8877 -16.0059 23.5576 -16.0059 38.6309s6.11914 28.7285 16.0059 38.6152l142.391 142.4 l-4.48047 4.47852c-1.44824 1.44824 -2.34473 3.45117 -2.34473 5.65918c0 2.20703 0.896484 4.20801 2.34473 5.65527l11.3125 11.3145c1.44824 1.44824 3.45117 2.34375 5.6582 2.34375c2.20801 0 4.20801 -0.895508 5.65625 -2.34375zM85.0508 -14.0615l63.1992 63.2031 l-35.1133 35.1133l-63.1973 -63.1992c-1.19629 -1.19922 -1.9375 -2.85742 -1.9375 -4.68457s0.741211 -3.48242 1.9375 -4.68262l25.752 -25.7539c1.19922 -1.19434 2.85449 -1.93262 4.67871 -1.93262c1.82617 0 3.48145 0.740234 4.68066 1.93652zM159.562 60.4541 l11.3145 11.3145l-35.1133 35.1133l-11.3145 -11.3125zM182.191 83.083l11.3125 11.3145l-35.1152 35.1133l-11.3105 -11.3145zM204.816 105.712l11.3145 11.3125l-35.1133 35.1133l-11.3145 -11.3125zM503.283 439.285c5.38672 -5.38867 8.71484 -12.8438 8.71484 -21.0576 c0 -7.79883 -3.00488 -14.9004 -7.91992 -20.2109l-218.213 -237.588l-61.4355 61.4355l237.588 218.216c5.30957 4.91309 12.4258 7.92383 20.2236 7.92383c8.21289 0 15.6543 -3.33301 21.042 -8.71875z"/>
    <glyph glyph-name="sword-laser-alt" unicode="" d="M118.992 -48.002c-9.8877 -9.88672 -23.5576 -16.0059 -38.6309 -16.0059s-28.7285 6.11914 -38.6152 16.0059l-25.748 25.75c-9.88672 9.8877 -16.0059 23.5586 -16.0059 38.6318s6.11914 28.7285 16.0059 38.6162l132.311 132.318 c2.89551 2.89551 6.89746 4.68555 11.3125 4.68555h159.508c14.2305 0 21.3789 -17.1875 11.3457 -27.2812zM172.875 144l-35.127 -35.1309l35.1133 -35.1152l70.2402 70.2461h-70.2266zM49.9355 11.6914l5.77734 -5.77539l69.8672 69.8711l-10.4551 10.457 l-65.1875 -65.1895c-1.2002 -1.19824 -1.94238 -2.85547 -1.94238 -4.68359c0 -1.82715 0.741211 -3.48145 1.94043 -4.67969zM75.6875 -14.0605c1.19824 -1.19824 2.85547 -1.94043 4.68262 -1.94043c1.82617 0 3.48145 0.742188 4.68066 1.94043l65.1875 65.1895 l-10.459 10.459l-69.8672 -69.8711zM503.283 439.285c5.38672 -5.38867 8.71484 -12.8438 8.71484 -21.0576c0 -7.79883 -3.00488 -14.9004 -7.91992 -20.21l-159.828 -174.018h-117.494l235.262 216.08c5.30957 4.91309 12.4258 7.92383 20.2236 7.92383 c8.21289 0 15.6533 -3.33301 21.042 -8.71875z"/>
    <glyph glyph-name="swords-laser" unicode="" horiz-adv-x="640" d="M136.771 439.283c5.3877 5.38672 12.8428 8.71484 21.0547 8.71484c7.79785 0 14.8994 -3.00586 20.209 -7.91992l173.997 -159.828v-117.494l-216.056 235.262c-4.91309 5.30957 -7.92285 12.4258 -7.92285 20.2236c0 8.21289 3.33203 15.6533 8.71777 21.042z M624.004 54.9922c9.88574 -9.88672 16.0039 -23.5586 16.0039 -38.6309c0 -15.0732 -6.11816 -28.7285 -16.0039 -38.6162l-25.7471 -25.7471c-9.88574 -9.88672 -23.5557 -16.0059 -38.627 -16.0059c-15.0723 0 -28.7266 6.11914 -38.6123 16.0059l-132.304 132.311 c-2.89551 2.89551 -4.68457 6.89746 -4.68457 11.3125v159.508c0 8.8291 7.1709 16 16.001 16c4.39746 0 8.38379 -1.77832 11.2773 -4.6543zM432.023 108.875l35.127 -35.127l35.1113 35.1133l-70.2383 70.2402v-70.2266zM564.317 -14.0645l5.77441 5.77637 l-69.8633 69.8682l-10.4561 -10.4551l65.1826 -65.1885c1.19824 -1.19922 2.85547 -1.94141 4.68262 -1.94141s3.48145 0.741211 4.67969 1.94043zM590.066 11.6865c1.19824 1.19824 1.93945 2.85645 1.93945 4.68262c0 1.82715 -0.741211 3.48242 -1.93945 4.68164 l-65.1826 65.1875l-10.457 -10.459l69.8623 -69.8682zM414.607 300.686c-4.5459 1.53223 -9.4209 2.40527 -14.4648 2.47461c-0.0195312 0 -0.0800781 -0.0273438 -0.0996094 -0.0273438c-7.36133 0 -14.3379 -1.66406 -20.5723 -4.63672l-5.79395 5.32227l-30.0088 27.5645 l118.298 108.696c5.30859 4.91406 12.418 7.91113 20.2148 7.91113c16.4268 0 29.7627 -13.3359 29.7627 -29.7627c0 -7.79883 -3.00586 -14.9014 -7.92188 -20.2109zM240.656 236.729l57.5898 -62.7109l-34.1172 -37.1387l25.5107 -25.5137 c1.44824 -1.44824 2.34473 -3.4502 2.34473 -5.6582c0 -2.20703 -0.896484 -4.20703 -2.34473 -5.6543l-11.3115 -11.3145c-1.44824 -1.44824 -3.4502 -2.34375 -5.6582 -2.34375c-2.20703 0 -4.20703 0.895508 -5.65527 2.34375l-5.65918 5.66211l-142.377 -142.401 c-9.88477 -9.88672 -23.5537 -16.0068 -38.626 -16.0068c-15.0713 0 -28.7236 6.11914 -38.6094 16.0059l-25.7471 25.751c-9.88574 9.8877 -16.0039 23.5586 -16.0039 38.6309c0 15.0732 6.11816 28.7285 16.0039 38.6162l142.375 142.4l-4.48047 4.47852 c-1.44824 1.44727 -2.34375 3.4502 -2.34375 5.6582s0.895508 4.20801 2.34375 5.65625l11.3115 11.3145c1.44824 1.44727 3.4502 2.34277 5.6582 2.34277c2.20703 0 4.20703 -0.895508 5.65527 -2.34277l24.3428 -24.3457zM85.041 -14.0605l63.1924 63.2031 l-35.1094 35.1133l-63.1904 -63.1992c-1.19629 -1.2002 -1.93652 -2.8584 -1.93652 -4.68457c0 -1.82715 0.740234 -3.4834 1.93652 -4.68262l25.749 -25.7539c1.19922 -1.19531 2.85449 -1.93359 4.67871 -1.93359c1.82617 0 3.48047 0.740234 4.67969 1.9375z M159.545 60.4551l11.3125 11.3145l-35.1084 35.1133l-11.3135 -11.3125zM182.171 83.084l11.3115 11.3145l-35.1113 35.1133l-11.3096 -11.3145zM204.793 105.713l11.3135 11.3125l-35.1094 35.1133l-11.3125 -11.3125z"/>
    <glyph glyph-name="telescope" unicode="" horiz-adv-x="640" d="M638.777 231.169c0.780273 -1.88379 1.22949 -3.95215 1.22949 -6.11719c0 -6.66504 -4.08594 -12.3838 -9.88672 -14.7871l-117.316 -48.5977c-1.88281 -0.779297 -3.94922 -1.22656 -6.1123 -1.22656c-6.66699 0 -12.3867 4.08496 -14.79 9.88672l-3.23633 7.81445 l-96.7256 -33.375c0.00195312 -0.261719 0.078125 -0.503906 0.078125 -0.767578c-0.0712891 -16.8359 -6.01855 -32.3564 -15.8604 -44.5225l47.4697 -142.416c0.530273 -1.58984 0.821289 -3.29297 0.821289 -5.06055c0 -8.83008 -7.16992 -16 -16 -16h-16.8604 c-7.06348 0.000976562 -13.0596 4.58594 -15.1787 10.9414l-42.1631 126.496c-4.6123 -0.942383 -9.28125 -1.43652 -14.1699 -1.43652c-4.88965 0 -9.66406 0.494141 -14.2773 1.43652l-42.1621 -126.496c-2.11816 -6.35547 -8.11426 -10.9404 -15.1768 -10.9414h-16.8623 c-8.83008 0.000976562 -15.9951 7.17285 -15.9951 16.0039c0 1.7666 0.287109 3.4668 0.816406 5.05664l47.4697 142.416c-0.232422 0.291016 -0.482422 0.566406 -0.710938 0.861328l-126.876 -43.7793c-8.84473 -3.03711 -18.0869 0.775391 -21.2715 8.4668 l-8.74414 21.1074l-64.1045 -26.5547c-1.88379 -0.780273 -3.95117 -1.22852 -6.11523 -1.22852c-6.66602 0 -12.3857 4.08594 -14.79 9.88867l-20.0547 48.4219c-0.780273 1.88281 -1.22852 3.9502 -1.22852 6.11426c0 6.66699 4.08594 12.3867 9.8877 14.7891 l64.1055 26.5547l-8.74414 21.1094c-3.2207 7.77344 0.738281 16.9648 9.05664 21.0293l335.108 163.244l-3.2207 7.77539c-0.780273 1.88379 -1.22852 3.95117 -1.22852 6.11621c0 6.66504 4.08496 12.3848 9.88574 14.7881l117.316 48.5977 c1.88379 0.780273 3.95117 1.22852 6.11621 1.22852c6.66602 0 12.3848 -4.08691 14.7861 -9.88867zM320.022 119.999c13.2363 0.0205078 23.9795 10.7637 23.999 24c0 13.2461 -10.7529 24 -23.999 24c-13.2451 0 -24 -10.7539 -24 -24c0 -13.2451 10.7549 -24 24 -24z M375.146 189.747l95.1182 32.8223l-42.4561 102.504l-306.661 -149.387l26.6641 -64.3799l100.415 34.6475c0.816406 38.7842 32.5332 70.0928 71.5107 70.0928c22.3301 0 42.2842 -10.251 55.4092 -26.2998zM524.002 218.261l58.1875 24.1035l-61.2256 147.822 l-58.1895 -24.1055z"/>
    <glyph glyph-name="temperature-down" unicode="" d="M160 125.09c18.6426 -6.59082 31.9854 -24.3809 31.9854 -45.2695c0 -26.4922 -21.5078 -48 -48 -48s-48 21.5078 -48 48c0 20.8887 13.3721 38.6787 32.0146 45.2695v18.9102c0 8.83105 7.16895 16 16 16s16 -7.16895 16 -16v-18.9102zM256 336v-166.5 c19.6904 -24.5898 32 -55.5 32 -89.5c0 -79.4756 -64.5244 -144 -144 -144s-144 64.5244 -144 144c0 34 12.3096 64.9102 32 89.5v166.5c0 61.8145 50.1855 112 112 112s112 -50.1855 112 -112zM144 -16c52.9482 0.0771484 95.9229 43.0518 96 96 c0 27 -11.6904 47.2998 -21.5 59.5898l-10.5 13.1104v183.3c0 35.3223 -28.6777 64 -64 64s-64 -28.6777 -64 -64v-183.41l-10.5 -13.0898c-9.80957 -12.2002 -21.5 -32.5 -21.5 -59.5c0.0771484 -52.9482 43.0518 -95.9229 96 -96zM484 64c6.62305 0 12 -5.37695 12 -12 c-0.160156 -3.12695 -1.37109 -5.99609 -3.28027 -8.23047l-68 -72c-2.29395 -2.18164 -5.35352 -3.58105 -8.71973 -3.76953c-3.37207 0.173828 -6.43359 1.57715 -8.71973 3.76953l-68 72c-1.90918 2.23438 -3.12012 5.10352 -3.28027 8.23047c0 6.62305 5.37695 12 12 12 h44v336c0 8.83105 7.16895 16 16 16h16c8.83105 0 16 -7.16895 16 -16v-336h44z"/>
    <glyph glyph-name="temperature-up" unicode="" d="M160 125.09c18.6426 -6.59082 31.9854 -24.3809 31.9854 -45.2695c0 -26.4922 -21.5078 -48 -48 -48s-48 21.5078 -48 48c0 20.8887 13.3721 38.6787 32.0146 45.2695v210.91c0 8.83105 7.16895 16 16 16s16 -7.16895 16 -16v-210.91zM256 336v-166.5 c19.6904 -24.5898 32 -55.5 32 -89.5c0 -79.4756 -64.5244 -144 -144 -144s-144 64.5244 -144 144c0 34 12.3096 64.9102 32 89.5v166.5c0 61.8145 50.1855 112 112 112s112 -50.1855 112 -112zM144 -16c52.9482 0.0771484 95.9229 43.0518 96 96 c0 27 -11.6904 47.2998 -21.5 59.5898l-10.5 13.1104v183.3c0 35.3223 -28.6777 64 -64 64s-64 -28.6777 -64 -64v-183.41l-10.5 -13.0898c-9.80957 -12.2002 -21.5 -32.5 -21.5 -59.5c0.0771484 -52.9482 43.0518 -95.9229 96 -96zM492.72 340.23 c1.90918 -2.23438 3.12012 -5.10352 3.28027 -8.23047c0 -6.62305 -5.37695 -12 -12 -12h-44v-336c0 -8.83105 -7.16895 -16 -16 -16h-16c-8.83105 0 -16 7.16895 -16 16v336h-44c-6.62305 0 -12 5.37695 -12 12c0.160156 3.12695 1.37109 5.99609 3.28027 8.23047l68 72 c2.29395 2.18164 5.35352 3.58105 8.71973 3.76953c3.37207 -0.173828 6.43359 -1.57715 8.71973 -3.76953z"/>
    <glyph glyph-name="trailer" unicode="" horiz-adv-x="640" d="M176 128c44.1533 0 80 -35.8467 80 -80s-35.8467 -80 -80 -80s-80 35.8467 -80 80s35.8467 80 80 80zM176 16c17.6611 0 32 14.3389 32 32s-14.3389 32 -32 32s-32 -14.3389 -32 -32s14.3389 -32 32 -32zM624 112c8.83105 0 16 -7.16895 16 -16v-16 c0 -8.83105 -7.16895 -16 -16 -16h-324.58c-7.58984 0 -13.6396 5.44043 -15.6396 12.7803c-12.6904 47.8594 -55.9199 83.2197 -107.78 83.2197s-95.0898 -35.3604 -107.78 -83.2197c-1.9502 -7.33984 -8.0498 -12.7803 -15.6396 -12.7803h-36.5801 c-8.83105 0 -16 7.16895 -16 16v272c0 17.6611 14.3389 32 32 32h480c17.6611 0 32 -14.3389 32 -32v-240h80zM496 112v224h-448v-193.27c14.6973 20.0879 33.7119 36.3955 56 47.8691v97.4004c0 8.83105 7.16895 16 16 16h16c8.83105 0 16 -7.16895 16 -16v-82.0195 c8.06934 1.33203 16.0625 2.02539 24.5059 2.02539c7.99023 0 15.8369 -0.620117 23.4941 -1.81543v81.8096c0 8.83105 7.16895 16 16 16h16c8.83105 0 16 -7.16895 16 -16v-97.7002c18.4688 -9.53613 34.6328 -22.4062 48 -38.0898v135.79c0 8.83105 7.16895 16 16 16h16 c8.83105 0 16 -7.16895 16 -16v-176h48v176c0 8.83105 7.16895 16 16 16h16c8.83105 0 16 -7.16895 16 -16v-176h56z"/>
    <glyph glyph-name="transporter" unicode="" d="M255.958 352c-26.4922 0 -48 21.5078 -48 48s21.5078 48 48 48l0.0195312 -0.00195312l0.0195312 0.00195312c26.4922 0 48 -21.5078 48 -48s-21.5078 -48 -48 -48l-0.0195312 0.00195312zM63.9922 352l29.7861 -12.4199 c1.31152 -0.657227 2.21289 -2.00879 2.21289 -3.5752c0 -1.56543 -0.901367 -2.92188 -2.21289 -3.5791l-29.7861 -12.4199l-12.4209 -29.7852c-0.65332 -1.31543 -2.00684 -2.2207 -3.57422 -2.2207c-1.56836 0 -2.92578 0.905273 -3.58008 2.2207l-12.4199 29.7852 l-29.7861 12.4199c-1.3125 0.65625 -2.21484 2.00879 -2.21484 3.5752c0 1.56543 0.902344 2.92285 2.21484 3.5791l29.7861 12.4199l12.4199 29.7852c0.65332 1.31641 2.00684 2.22266 3.5752 2.22266s2.92676 -0.90625 3.5791 -2.22266zM384.001 -16 c17.6602 0 32 -14.3389 32 -32v-16h-320.008v16c0 17.6611 14.3398 32 32 32h63.998v252.77l-53.126 -67.5977c-4.39648 -5.58789 -11.2002 -9.14355 -18.8555 -9.14355c-13.248 0 -24.0029 10.7549 -24.0029 24.0029c0 5.58008 1.9082 10.7188 5.10742 14.7969 l78.4082 99.7656c10.1924 13.0518 26.0479 21.4062 43.875 21.4062h0.157227h64.877c0.0419922 0 0.0585938 0.0419922 0.100586 0.0419922c17.8262 0 33.7109 -8.375 43.9316 -21.4014l78.4082 -99.8125c3.19922 -4.07812 5.12695 -9.25195 5.12695 -14.833 c0 -13.2471 -10.7549 -24.0029 -24.0029 -24.0029c-7.65527 0 -14.4785 3.5918 -18.875 9.17969l-53.126 67.625v-252.797h64.0059zM263.997 -16v144h-16v-144h16zM509.789 403.568c1.3125 -0.65625 2.21484 -2.00879 2.21484 -3.5752 c0 -1.56543 -0.902344 -2.92285 -2.21484 -3.5791l-29.7842 -12.4199l-12.4199 -29.7852c-0.654297 -1.31543 -2.00781 -2.2207 -3.57617 -2.2207s-2.92578 0.905273 -3.58008 2.2207l-12.4209 29.7852l-29.7842 12.4199c-1.3125 0.65625 -2.21484 2.00879 -2.21484 3.5752 c0 1.56543 0.902344 2.92285 2.21484 3.5791l29.7842 12.4199l12.4209 29.7852c0.65332 1.31641 2.00684 2.22266 3.5752 2.22266s2.92773 -0.90625 3.58105 -2.22266l12.4199 -29.7852z"/>
    <glyph glyph-name="transporter-1" unicode="" d="M191.991 32v32h56.0059v-32h-56.0059zM263.997 32v32h55.998v-32h-55.998zM119.958 160c-13.2373 0.00390625 -23.9736 10.7695 -23.9736 24.0078c0 5.5918 1.91699 10.7393 5.12988 14.8203l78.4082 99.7656c10.1924 13.0518 26.0479 21.4062 43.875 21.4062h0.157227 h64.877c0.0419922 0 0.0585938 0.0419922 0.100586 0.0419922c17.8262 0 33.7109 -8.375 43.9316 -21.4014l78.4082 -99.8125c3.19922 -4.07812 5.12695 -9.25195 5.12695 -14.833c0 -13.2471 -10.7549 -24.0029 -24.0029 -24.0029 c-7.65527 0 -14.4785 3.5918 -18.875 9.17969l-53.126 67.625v-140.797h-55.998v32h-16v-32h-56.0059v140.77l-53.126 -67.5977c-4.3916 -5.59375 -11.2041 -9.17188 -18.8613 -9.17188h-0.0458984zM255.958 352c-26.4922 0 -48 21.5078 -48 48s21.5078 48 48 48 l0.0195312 -0.00195312l0.0195312 0.00195312c26.4922 0 48 -21.5078 48 -48s-21.5078 -48 -48 -48l-0.0195312 0.00195312zM384.001 -16c17.6602 0 32 -14.3389 32 -32v-16h-320.008v16c0 17.6611 14.3398 32 32 32h63.998v16h56.0059v-16h16v16h55.998v-16h64.0059z M509.789 83.5801c1.3125 -0.65625 2.21484 -2.00879 2.21484 -3.5752c0 -1.56543 -0.902344 -2.92285 -2.21484 -3.5791l-29.7842 -12.4199l-12.4199 -29.7852c-0.654297 -1.31543 -2.00781 -2.2207 -3.57617 -2.2207s-2.92578 0.905273 -3.58008 2.2207l-12.4209 29.7852 l-29.7842 12.4199c-1.3125 0.65625 -2.21484 2.00879 -2.21484 3.5752c0 1.56543 0.902344 2.92285 2.21484 3.5791l29.7842 12.4199l12.4209 29.7852c0.65332 1.31641 2.00684 2.22266 3.5752 2.22266s2.92773 -0.90625 3.58105 -2.22266l12.4199 -29.7852z M63.9922 319.998l29.7861 -12.4199c1.31152 -0.657227 2.21289 -2.00977 2.21289 -3.57617c0 -1.56543 -0.901367 -2.92285 -2.21289 -3.58008l-29.7861 -12.4199l-12.4209 -29.7832c-0.652344 -1.31641 -2.00586 -2.22266 -3.57422 -2.22266 s-2.92676 0.90625 -3.58008 2.22266l-12.4199 29.7832l-29.7861 12.4199c-1.3125 0.65625 -2.21484 2.00977 -2.21484 3.57617s0.902344 2.92383 2.21484 3.58008l29.7861 12.4199l12.4199 29.7832c0.65332 1.31641 2.00684 2.22266 3.5752 2.22266 s2.92676 -0.90625 3.5791 -2.22266z"/>
    </font>
</defs>
</svg>
